osu file format v5

[General]
AudioFilename: 101 Demon Academy.mp3
AudioLeadIn: 0
PreviewTime: -1
Countdown: 1
SampleSet: Normal
StackLeniency: 0.7
Mode: 0
LetterboxInBreaks: 1

[Metadata]
Title:Demon Academy
Artist:Tenpei Sato
Creator:DarkCenobyte
Version:Easy
Source:Disgaea 3
Tags:tenpei sato disgaea 3 absence of justice opening demon academy

[Difficulty]
HPDrainRate:4
CircleSize:5
OverallDifficulty:3
SliderMultiplier:1
SliderTickRate:3

[Events]
//Background and Video events
0,0,"disgaea3_ss_016_m[1].jpg"
1,0,"disgaea3openhq.avi"
//Break Periods
2,50916,63623
//Storyboard Layer 0 (Background)
//Storyboard Layer 1 (Failing)
//Storyboard Layer 2 (Passing)
//Storyboard Layer 3 (Foreground)
//Storyboard Sound Samples
//Background Colour Transformations
3,100,163,162,255

[TimingPoints]
5390,326.086956521739,4,1,0,100,1

[HitObjects]
96,64,23976,1,0
160,64,24303,1,0
256,64,24955,5,0
256,128,25281,1,0
256,192,25607,1,0
256,320,26585,5,0
320,320,26911,1,0
384,320,27237,1,0
384,256,27563,1,0
384,192,27889,1,0
384,128,28216,1,8
256,192,28868,12,0,30172
384,160,31476,5,0
320,160,31803,1,0
256,160,32129,1,8
160,160,32781,5,0
160,224,33107,1,0
160,288,33433,1,8
352,192,34411,5,0
352,128,34737,1,0
352,64,35063,1,0
288,64,35389,1,0
256,192,35716,12,0,36531
384,256,37346,5,0
384,224,37672,1,0
384,192,37998,1,0
352,192,38324,5,0
320,192,38650,1,0
288,192,38976,1,8
320,128,39303,6,0,L|32:128|32:128,1,250
384,128,40933,5,0
384,96,41259,1,0
384,64,41585,1,0
416,64,41911,1,0
416,96,42237,1,0
416,128,42563,1,8
256,192,43216,12,0,44031
320,128,44520,5,0
256,128,44846,1,0
192,128,45172,1,8
192,224,45824,5,0
256,224,46150,1,0
320,224,46476,1,8
416,224,47129,5,0
416,160,47455,1,0
416,96,47781,1,8
256,192,48596,12,0,50716
96,64,65063,6,0,L|96:320,3,250
160,320,67998,5,0
160,256,68324,1,0
160,192,68650,1,0
256,192,69303,5,0
320,192,69629,1,0
384,192,69955,1,0
384,256,70281,1,0
320,256,70607,1,0
256,256,70933,1,0
256,256,71259,1,0
256,192,71585,12,0,74520
384,96,75824,5,0
384,192,76476,1,0
384,256,76803,1,0
320,256,77129,2,0,L|320:32,2,200
256,192,78759,12,0,79737
256,192,79737,12,0,80716
352,192,81042,5,0
352,128,81368,1,0
352,64,81694,1,0
224,64,82346,1,0
256,192,84139,12,0,85933
128,96,86259,5,0
128,192,86911,1,0
128,256,87238,1,0
192,256,87564,2,0,L|192:32,2,200
256,192,89194,12,0,90172
256,192,90172,12,0,91151
160,192,91477,5,0
160,128,91803,1,0
160,64,92129,1,0
288,64,92781,1,0
256,192,94574,12,0,96368
256,192,96694,5,0
320,192,97020,1,0
320,128,97346,1,0
256,128,97672,1,0
288,160,97998,1,0
288,160,98324,5,0
288,160,98650,1,0
288,160,98976,1,0
256,192,99303,12,0,99955
256,192,100607,12,0,101259
256,192,101911,12,0,104520
256,192,104846,5,0
256,128,105172,1,0
320,128,105498,1,0
320,192,105824,1,0
320,256,106150,2,4,L|96:256|96:64|96:64,2,400
