osu file format v12

[General]
AudioFilename: 02 Omoide wa Tooku no Hibi.mp3
AudioLeadIn: 0
PreviewTime: -1
Countdown: 1
SampleSet: Soft
StackLeniency: 0.7
Mode: 0
LetterboxInBreaks: 1
WidescreenStoryboard: 0

[Editor]
DistanceSpacing: 2
BeatDivisor: 8
GridSize: 8

[Metadata]
Title:Omoide wa Tooku no Hibi
TitleUnicode:Omoide wa Tooku no Hibi
Artist:Tenmon
ArtistUnicode:Tenmon
Creator:mathi747
Version:33
Source:Byousoku 5 Centimeters
Tags:
BeatmapID:318907
BeatmapSetID:125265

[Difficulty]
HPDrainRate:5
CircleSize:5
OverallDifficulty:5
ApproachRate:5
SliderMultiplier:1.4
SliderTickRate:1

[Events]
//Background and Video events
0,0,"5cm_1080_01.jpg",0,0
//Break Periods
//Storyboard Layer 0 (Background)
//Storyboard Layer 1 (Fail)
//Storyboard Layer 2 (Pass)
//Storyboard Layer 3 (Foreground)
//Storyboard Sound Samples
//Background Colour Transformations
3,100,163,162,255

[TimingPoints]
408,674.157303370787,4,2,0,55,1,0

[HitObjects]
248,184,408,1,0,0:0:0:0:
272,208,576,1,0,0:0:0:0:
304,224,745,2,0,P|352:232|376:216,1,70
232,32,1672,2,0,L|312:48,1,70
208,104,2599,1,0,0:0:0:0:
208,104,2683,2,0,L|296:144,1,87.5
168,304,3947,1,0,0:0:0:0:
120,304,4115,1,0,0:0:0:0:
88,200,4284,2,0,L|152:152,1,70
144,158,4790,1,0,0:0:0:0:
168,288,5127,2,0,L|256:240,1,70
256,192,5632,1,0,0:0:0:0:
256,136,6138,2,0,P|320:128|336:152,1,87.5
88,120,7107,2,0,L|160:64,1,87.5
264,184,7655,1,0,0:0:0:0:
248,88,7908,1,0,0:0:0:0:
328,144,8160,2,0,L|392:120,1,52.5
384,192,8582,2,0,L|437:214,1,52.5
104,128,9003,2,0,L|160:184,1,70
232,112,9509,1,0,0:0:0:0:
280,296,9930,2,0,P|237:275|216:192,1,140
312,96,10941,1,0,0:0:0:0:
304,176,11447,1,0,0:0:0:0:
336,208,11615,1,0,0:0:0:0:
368,144,11868,2,0,L|288:192,1,87.5
96,192,12795,2,0,L|192:240,1,105
304,136,13891,1,0,0:0:0:0:
304,288,14481,1,0,0:0:0:0:
392,232,14986,1,0,0:0:0:0:
144,280,15492,1,0,0:0:0:0:
208,320,15660,1,0,0:0:0:0:
160,184,15913,2,0,L|200:80,1,105
224,200,16840,2,0,L|256:272,1,70
360,192,17346,1,0,0:0:0:0:
448,88,17767,2,0,P|408:128|344:120,1,122.5
376,240,18778,2,0,L|304:240,1,70
208,176,19284,1,0,0:0:0:0:
168,248,19452,1,0,0:0:0:0:
96,200,19705,2,0,L|96:104,1,87.5
272,280,20548,1,0,0:0:0:0:
296,160,20969,1,0,0:0:0:0:
288,72,21391,2,0,L|344:176,1,105
192,184,22360,1,0,0:0:0:0:
248,296,22823,1,0,0:0:0:0:
312,272,22992,1,0,0:0:0:0:
392,256,23245,2,0,L|368:192,2,52.5
392,256,24003,2,0,L|368:184,1,70
320,128,24593,1,0,0:0:0:0:
104,112,25099,2,0,L|192:128,1,87.5
224,288,26025,1,0,0:0:0:0:
144,224,26531,1,0,0:0:0:0:
176,216,26700,1,0,0:0:0:0:
184,120,26995,2,0,L|312:120,1,122.5
344,192,27964,1,0,0:0:0:0:
256,248,28427,1,0,0:0:0:0:
200,256,28975,2,0,B|208:288|224:304|240:288|272:192,1,140
224,128,30070,1,0,0:0:0:0:
256,224,31334,1,0,0:0:0:0:
256,224,31419,2,0,L|232:176,1,52.5
280,144,32009,1,0,0:0:0:0:
320,224,32430,1,0,0:0:0:0:
400,200,32767,1,0,0:0:0:0:
400,128,33273,2,0,L|448:176,1,52.5
424,264,33694,2,0,L|368:304,1,52.5
264,264,34115,2,0,L|208:240,1,52.5
144,152,34537,1,0,0:0:0:0:
344,160,35042,1,0,0:0:0:0:
232,280,35464,1,0,0:0:0:0:
248,184,35885,1,0,0:0:0:0:
280,320,36306,1,0,0:0:0:0:
280,320,36643,2,0,L|224:248,1,87.5
192,112,37570,1,0,0:0:0:0:
112,248,38582,1,0,0:0:0:0:
288,136,39087,1,0,0:0:0:0:
200,288,39509,1,0,0:0:0:0:
144,120,39930,1,0,0:0:0:0:
264,184,40267,1,0,0:0:0:0:
384,312,40688,1,0,0:0:0:0:
384,152,41068,1,0,0:0:0:0:
304,288,41447,1,0,0:0:0:0:
168,184,41868,1,0,0:0:0:0:
144,216,43638,1,0,0:0:0:0:
320,240,44059,1,0,0:0:0:0:
224,96,44481,2,0,L|232:192,1,87.5
368,152,45323,1,0,0:0:0:0:
200,200,45745,1,0,0:0:0:0:
352,272,46166,2,0,L|408:256,1,52.5
402,257,46503,2,0,L|432:192,1,70
368,304,46924,1,0,0:0:0:0:
