osu file format v9

[General]
AudioFilename: Tenka Tori Tai - Kagerou.mp3
AudioLeadIn: 2000
PreviewTime: 58891
Countdown: 0
SampleSet: Soft
StackLeniency: 0.5
Mode: 0
LetterboxInBreaks: 0

[Editor]
DistanceSpacing: 0.9
BeatDivisor: 4
GridSize: 8

[Metadata]
Title:Kagerou
Artist:Tenka Tori Tai
Creator:quintitem
Version:Hard
Source:Sengoku Otome ~Momoiro Paradox~
Tags:Akesaka Satomi Ise Mariya Kokuryu Sachi Mochizuki Rei

[Difficulty]
HPDrainRate:5
CircleSize:4
OverallDifficulty:4
ApproachRate:6
SliderMultiplier:1.5
SliderTickRate:0.5

[Events]
//Background and Video events
0,0,"Sengoku_Otome.jpg"
//Break Periods
2,11363,15148
2,88566,92351
//Storyboard Layer 0 (Background)
//Storyboard Layer 1 (Fail)
//Storyboard Layer 2 (Pass)
//Storyboard Layer 3 (Foreground)
Sprite,Foreground,CentreLeft,"Storyboard\title.png",320,240 M,0,12003,12842,85,355,100,355 F,0,12003,12842,0,1 M,0,15359,16198,100,355,100,370 F,0,15359,16198,1,0
Sprite,Foreground,CentreLeft,"Storyboard\aa.png",320,240 M,0,17877,,104,415 F,0,17877,18087,0,1 F,0,23751,23961,1,0
Sprite,Foreground,CentreLeft,"Storyboard\ab.png",320,240 M,0,21024,,382,415 F,0,21024,21233,0,1 F,0,23751,23961,1,0
Sprite,Foreground,CentreLeft,"Storyboard\ac.png",320,240 M,0,24380,,104,415 F,0,24380,24590,0,1 F,0,30674,30884,1,0
Sprite,Foreground,CentreLeft,"Storyboard\ad.png",320,240 M,0,27737,,312,415 F,0,27737,27947,0,1 F,0,30674,30884,1,0
Sprite,Foreground,CentreLeft,"Storyboard\ae.png",320,240 M,0,31303,,104,415 F,0,31303,31513,0,1 F,0,37177,37387,1,0
Sprite,Foreground,CentreLeft,"Storyboard\af.png",320,240 M,0,34450,,334,415 F,0,34450,34660,0,1 F,0,37177,37387,1,0
Sprite,Foreground,CentreLeft,"Storyboard\ag.png",320,240 M,0,37807,,104,415 F,0,37807,38017,0,1 F,0,43891,44100,1,0
Sprite,Foreground,CentreLeft,"Storyboard\ah.png",320,240 M,0,41163,,333,415 F,0,41163,41373,0,1 F,0,43891,44100,1,0
Sprite,Foreground,CentreLeft,"Storyboard\ai.png",320,240 M,0,44520,,104,415 F,0,44520,44730,0,1 F,0,50814,51024,1,0
Sprite,Foreground,CentreLeft,"Storyboard\aj.png",320,240 M,0,47877,,286,415 F,0,47877,48087,0,1 F,0,50814,51024,1,0
Sprite,Foreground,CentreLeft,"Storyboard\ak.png",320,240 M,0,51233,,104,415 F,0,51233,51443,0,1 F,0,57947,58156,1,0
Sprite,Foreground,CentreLeft,"Storyboard\al.png",320,240 M,0,54590,,354,415 F,0,54590,54800,0,1 F,0,57947,58156,1,0
Sprite,Foreground,CentreLeft,"Storyboard\ba.png",320,240 M,0,58996,,104,415 F,0,58996,59205,0,1 F,0,65080,65289,1,0
Sprite,Foreground,CentreLeft,"Storyboard\bb.png",320,240 M,0,62982,,337,415 F,0,62982,63191,0,1 F,0,65080,65289,1,0
Sprite,Foreground,CentreLeft,"Storyboard\bc.png",320,240 M,0,65709,,104,415 F,0,65709,65919,0,1 F,0,71793,72003,1,0
Sprite,Foreground,CentreLeft,"Storyboard\bd.png",320,240 M,0,69695,,382,415 F,0,69695,69905,0,1 F,0,71793,72003,1,0
Sprite,Foreground,CentreLeft,"Storyboard\be.png",320,240 M,0,72422,,104,415 F,0,72422,72632,0,1 F,0,78506,78716,1,0
Sprite,Foreground,CentreLeft,"Storyboard\bf.png",320,240 M,0,76408,,337,415 F,0,76408,76618,0,1 F,0,78506,78716,1,0
Sprite,Foreground,CentreLeft,"Storyboard\bg.png",320,240 M,0,79135,,104,415 F,0,79135,79345,0,1 F,0,85219,85429,1,0
Sprite,Foreground,CentreLeft,"Storyboard\bh.png",320,240 M,0,83121,,336,415 F,0,83121,83331,0,1 F,0,85219,85429,1,0
Sprite,Foreground,CentreLeft,"Storyboard\bi.png",320,240 M,0,86478,,104,415 F,0,86478,86688,0,1 F,0,88996,89205,1,0
Sprite,Foreground,CentreLeft,"Storyboard\ca.png",320,240 M,0,95080,,104,415 F,0,95080,95289,0,1 F,0,100954,101163,1,0
Sprite,Foreground,CentreLeft,"Storyboard\cb.png",320,240 M,0,98226,,335,415 F,0,98226,98436,0,1 F,0,100954,101163,1,0
Sprite,Foreground,CentreLeft,"Storyboard\cc.png",320,240 M,0,101583,,104,415 F,0,101583,101793,0,1 F,0,107667,107877,1,0
Sprite,Foreground,CentreLeft,"Storyboard\cd.png",320,240 M,0,104940,,288,415 F,0,104940,105149,0,1 F,0,107667,107877,1,0
Sprite,Foreground,CentreLeft,"Storyboard\ce.png",320,240 M,0,108296,,104,415 F,0,108296,108506,0,1 F,0,114380,114590,1,0
Sprite,Foreground,CentreLeft,"Storyboard\cf.png",320,240 M,0,111653,,216,415 F,0,111653,111863,0,1 F,0,114380,114590,1,0
Sprite,Foreground,CentreLeft,"Storyboard\cg.png",320,240 M,0,115010,,104,415 F,0,115010,115219,0,1 F,0,121723,121933,1,0
Sprite,Foreground,CentreLeft,"Storyboard\ch.png",320,240 M,0,118366,,360,415 F,0,118366,118576,0,1 F,0,121723,121933,1,0
Sprite,Foreground,CentreLeft,"Storyboard\da.png",320,240 M,0,122772,,104,415 F,0,122772,122982,0,1 F,0,128856,129066,1,0
Sprite,Foreground,CentreLeft,"Storyboard\db.png",320,240 M,0,126758,,360,415 F,0,126758,126968,0,1 F,0,128856,129066,1,0
Sprite,Foreground,CentreLeft,"Storyboard\dc.png",320,240 M,0,129485,,104,415 F,0,129485,129695,0,1 F,0,135569,135779,1,0
Sprite,Foreground,CentreLeft,"Storyboard\dd.png",320,240 M,0,133471,,362,415 F,0,133471,133681,0,1 F,0,135569,135779,1,0
Sprite,Foreground,CentreLeft,"Storyboard\de.png",320,240 M,0,136198,,104,415 F,0,136198,136408,0,1 F,0,142282,142492,1,0
Sprite,Foreground,CentreLeft,"Storyboard\df.png",320,240 M,0,140184,,336,415 F,0,140184,140394,0,1 F,0,142282,142492,1,0
Sprite,Foreground,CentreLeft,"Storyboard\dg.png",320,240 M,0,142912,,104,415 F,0,142912,143121,0,1 F,0,149415,149625,1,0
Sprite,Foreground,CentreLeft,"Storyboard\dh.png",320,240 M,0,146898,,359,415 F,0,146898,147107,0,1 F,0,149415,149625,1,0
Sprite,Foreground,CentreLeft,"Storyboard\di.png",320,240 M,0,150254,,104,415 F,0,150254,150464,0,1 F,0,153191,153401,1,0
//Storyboard Sound Samples
//Background Colour Transformations
3,100,163,162,255

[TimingPoints]
1094,419.58041958042,4,2,1,30,1,0
1303,-100,4,2,1,40,0,0
1723,-100,4,2,1,50,0,0
2142,-100,4,2,1,60,0,0
2562,-125,4,2,1,60,0,0
4870,-125,4,2,1,70,0,0
9275,-125,4,2,1,80,0,0
11163,-125,4,2,1,60,0,0
15359,-125,4,2,1,80,0,0
24695,-125,4,2,1,60,0,0
30884,-100,4,2,1,60,0,0
31723,-100,4,2,1,65,0,0
42947,-100,4,2,1,55,0,0
43891,-100,4,2,1,65,0,0
44520,-100,4,2,1,75,0,0
45149,-100,4,2,1,60,0,0
45254,-100,4,2,1,75,0,0
45989,-100,4,2,1,60,0,0
46094,-100,4,2,1,75,0,0
47457,-100,4,2,1,50,0,0
47877,-100,4,2,1,75,0,0
48296,-100,4,2,1,60,0,0
48716,-100,4,2,1,75,0,0
49135,-100,4,2,1,60,0,0
49450,-100,4,2,1,75,0,0
50814,-100,4,2,1,50,0,0
51233,-100,4,2,1,75,0,0
54800,-100,4,2,1,80,0,0
56373,-100,4,2,1,85,0,0
58891,-100,4,2,1,60,0,0
59835,-83.3333333333333,4,2,1,60,0,1
59940,-83.3333333333333,4,2,1,95,0,0
66233,-83.3333333333333,4,2,1,70,0,0
66443,-83.3333333333333,4,2,1,60,0,0
66758,-83.3333333333333,4,2,1,95,0,0
71478,-83.3333333333333,4,2,1,70,0,0
73156,-83.3333333333333,4,2,1,60,0,0
73471,-83.3333333333333,4,2,1,95,0,0
79870,-83.3333333333333,4,2,1,60,0,0
80184,-83.3333333333333,4,2,1,95,0,0
84905,-83.3333333333333,4,2,1,70,0,0
88366,-83.3333333333333,4,2,1,65,0,0
91723,-125,4,2,1,80,0,0
96758,-125,4,2,1,65,0,0
98856,-125,4,2,1,50,0,0
101163,-125,4,2,1,65,0,0
101478,-100,4,2,1,65,0,0
106723,-100,4,2,1,55,0,0
107667,-100,4,2,1,65,0,0
108191,-100,4,2,1,75,0,0
108716,-100,4,2,1,60,0,0
109135,-100,4,2,1,75,0,0
109555,-100,4,2,1,60,0,0
109975,-100,4,2,1,75,0,0
111233,-100,4,2,1,50,0,0
111548,-100,4,2,1,75,0,0
112073,-100,4,2,1,60,0,0
112387,-100,4,2,1,75,0,0
112912,-100,4,2,1,60,0,0
113226,-100,4,2,1,75,0,0
114590,-100,4,2,1,50,0,0
115114,-125,4,2,1,70,0,0
120254,-125,4,2,1,75,0,0
121723,-83.3333333333333,4,2,1,85,0,0
122667,-83.3333333333333,4,2,1,60,0,0
123611,-83.3333333333333,4,2,1,60,0,1
123716,-83.3333333333333,4,2,1,95,0,0
129485,-83.3333333333333,4,2,1,70,0,0
130219,-83.3333333333333,4,2,1,60,0,0
130534,-83.3333333333333,4,2,1,95,0,0
135254,-83.3333333333333,4,2,1,70,0,0
136933,-83.3333333333333,4,2,1,60,0,0
137247,-83.3333333333333,4,2,1,95,0,0
143541,-83.3333333333333,4,2,1,70,0,0
143646,-83.3333333333333,4,2,1,60,0,0
143961,-83.3333333333333,4,2,1,95,0,0
148786,-83.3333333333333,4,2,1,70,0,0
152142,-83.3333333333333,4,2,1,45,0,0

[Colours]
Combo1 : 205,168,213
Combo2 : 107,146,119
Combo3 : 80,147,237
Combo4 : 152,101,102

[HitObjects]
256,296,1093,1,2
132,212,1513,1,2
256,124,1933,1,2
132,40,2352,1,2
256,192,2772,12,4,4450
160,88,5289,6,0,B|32:88,2,120,8|8|4
352,296,6968,2,0,B|480:296,2,120,2|8|4
256,192,8646,5,2
256,192,9066,1,2
256,192,9485,2,0,B|256:64,2,120,8|8|8
256,264,10534,2,0,B|256:312,6,30,0|0|0|0|0|0|4
256,192,16198,12,8,17877
256,192,19555,5,8
256,192,20394,2,0,B|256:84,2,90,8|0|0
256,264,21233,5,8
472,192,22073,1,8
256,120,22912,1,8
40,192,23751,2,0,B|40:64,2,120,8|8|8
180,228,25010,6,0,B|180:352,2,120,0|8|0
324,248,26268,2,0,B|398:253|396:349,2,120,8|0|8
388,120,27527,2,0,B|385:44|460:39,2,120,0|8|0
244,96,28786,6,0,B|244:32,2,60,0|8|0
196,148,29415,1,0
244,200,29625,1,2
256,192,29835,12,0,30884
232,108,31303,6,0,B|80:108,1,150,4|8
64,180,31933,1,0
64,180,32142,2,0,B|216:180,1,150,0|8
344,252,32982,2,0,B|436:260|436:357,2,150,0|8|0
340,104,34240,5,8
340,104,34450,1,0
340,104,34660,2,0,B|504:104,2,150,0|8|0
264,92,35709,2,0,B|264:16,2,75,0|8|0
188,104,36338,2,0,B|36:104,2,150,0|8|0
140,244,37597,2,0,B|92:244|92:312,2,75,8|0|0
256,336,38436,5,8
404,352,38856,1,0
488,228,39275,1,8
368,136,39695,2,0,B|368:46|460:38,2,150,0|8|0
256,236,40954,1,8
256,236,41163,2,0,B|256:288,2,37.5
256,84,41793,6,0,B|108:84,1,150,8|0
92,156,42422,2,0,B|16:156,2,75,0|8|0
104,232,43052,2,0,B|160:232,8,37.5,2|0|2|0|2|0|2|0|10
92,304,44100,2,0,B|-4:304,2,75,10|10|0
164,332,44730,6,0,B|316:332,1,150,0|12
356,268,45359,1,0
396,332,45569,2,0,B|486:324|487:234,1,150,0|12
456,168,46198,1,0
456,168,46408,2,0,B|456:16,2,150,0|8|8
308,144,47667,6,0,B|308:64,2,75,12|0|0
160,124,48506,2,0,B|160:44,2,75,12|0|0
116,268,49345,1,12
116,268,49555,1,0
116,268,49765,2,0,B|32:268,2,75,0|0|8
180,304,50394,2,0,B|180:352,2,37.5,0|0|8
332,296,51024,2,0,B|380:296|380:368,2,75,12|0|0
372,152,51863,6,0,B|373:62|463:54,2,150,8|0|8
224,180,53121,2,0,B|224:28,2,150,0|8|0
104,272,54380,2,0,B|20:272,2,75,8|0|0
240,336,55219,2,0,B|396:336,2,150,8|0|8
256,192,56478,12,8,57737
256,92,58156,6,0,B|376:92,2,112.5,10|10|10
48,308,59835,6,0,B|140:308,1,90.0000021457673,4|8
136,236,60254,2,0,B|236:236,1,90.0000021457673,0|8
228,308,60674,2,0,B|324:308,1,90.0000021457673,0|8
320,236,61094,2,0,B|412:236,1,90.0000021457673,0|8
484,236,61513,1,0
484,236,61723,1,8
484,236,61933,2,0,B|484:328,2,90.0000021457673,0|8|0
484,164,62562,1,8
372,72,62982,6,0,B|372:16,2,45.0000010728836,8|0|0
304,92,63401,2,0,B|120:92,1,180.000004291535,8|8
108,164,64031,1,0
108,164,64240,1,8
108,164,64450,2,0,B|8:164,2,90.0000021457673,0|8|0
120,236,65080,2,0,B|233:241|235:374,1,180.000004291535,8|8
304,328,65709,2,0,B|304:236,2,90.0000021457673,0|8|0
372,348,66338,1,8
440,328,66548,6,0,B|476:244,1,90.0000021457673,4|8
480,172,66968,2,0,B|460:84,1,90.0000021457673,0|8
400,44,67387,2,0,B|308:72,1,90.0000021457673,0|8
240,64,67807,2,0,B|152:36,1,90.0000021457673,0|8
88,68,68226,1,0
88,68,68436,1,8
60,136,68646,1,0
60,136,68856,2,0,B|60:228,2,90.0000021457673,8|0|8
192,192,69695,6,0,B|192:136,2,45.0000010728836,8|0|0
192,264,70114,2,0,B|384:264,1,180.000004291535,8|8
424,212,70744,1,0
424,212,70954,2,0,B|484:212|484:284,2,90.0000021457673,8|0|8
424,140,71583,1,8
424,140,71793,2,0,B|424:84|484:84,2,90.0000021457673,10|8|10
352,140,72422,1,8
352,140,72632,2,0,B|352:84|288:84,2,90.0000021457673,10|8|10
300,192,73261,6,0,B|244:192|244:256,1,90.0000021457673,4|8
208,312,73681,2,0,B|148:312|148:240,1,90.0000021457673,0|8
80,240,74100,2,0,B|80:148,1,90.0000021457673,0|8
152,148,74520,2,0,B|152:52,1,90.0000021457673,0|8
220,32,74940,1,0
288,60,75149,1,8
356,32,75359,2,0,B|356:128,2,90.0000021457673,0|8|0
424,60,75989,1,8
436,204,76408,6,0,B|484:204,2,45.0000010728836,8|0|0
364,204,76828,2,0,B|251:209|249:342,1,180.000004291535,8|8
188,352,77457,1,0
124,320,77667,1,8
80,264,77877,2,0,B|24:264|20:328,2,90.0000021457673,0|8|0
124,208,78506,2,0,B|124:24,1,180.000004291535,8|8
196,36,79135,1,0
196,36,79345,1,8
248,84,79555,1,0
248,84,79765,1,8
280,148,79975,6,0,B|336:148|336:88,1,90.0000021457673,4|8
396,56,80394,2,0,B|452:56|452:124,1,90.0000021457673,0|8
444,184,80814,2,0,B|388:184|388:256,1,90.0000021457673,0|8
324,276,81233,2,0,B|268:276|268:220,1,90.0000021457673,0|8
200,192,81653,1,0
200,192,81863,1,8
136,220,82073,1,0
136,220,82282,2,0,B|136:312,2,90.0000021457673,8|0|8
92,84,83121,6,0,B|44:84,2,45.0000010728836,8|0|0
152,44,83541,2,0,B|332:44,1,180.000004291535,8|8
400,64,84170,1,0
400,64,84380,1,8
456,108,84590,1,0
456,108,84800,1,8
480,176,85010,2,0,B|480:276,1,90.0000021457673,8|10
408,280,85429,2,0,B|408:188,1,90.0000021457673,8|10
336,208,85849,2,0,B|336:308,1,90.0000021457673,8|10
264,312,86268,2,0,B|264:216,1,90.0000021457673,8|10
256,192,86688,12,14,88366
256,192,93401,12,8,95080
256,192,97807,6,0,B|256:144,2,30,8|8|8
340,340,98436,2,0,B|476:340,2,120,8|2|0
172,340,99695,2,0,B|36:340,2,120,2|0|2
112,184,100954,2,0,B|32:184,2,60,0|8|8
164,120,101583,2,0,B|164:72,2,37.5,8|8|0
312,192,102212,5,8
312,192,102632,1,0
452,280,103052,1,8
452,280,103471,2,0,B|452:120,1,150,0|8
312,44,104310,2,0,B|152:44,1,150,0|8
80,64,104940,2,0,B|36:64,2,37.5
64,228,105569,6,0,B|65:317|155:325,1,150,8|0
216,272,106198,1,0
216,272,106408,1,8
276,328,106618,1,0
276,328,106828,2,0,B|276:368,8,37.5,2|0|2|0|2|0|2|0|10
356,304,107877,1,10
356,304,108087,1,10
416,248,108296,5,0
416,248,108506,1,0
412,84,108926,2,0,B|412:36|468:36,2,75,12|0|0
256,136,109765,2,0,B|256:60,2,75,12|0|0
92,156,110604,1,8
48,316,111024,1,8
208,348,111443,5,12
208,348,111653,1,0
208,348,111863,1,0
372,332,112282,1,12
372,332,112492,1,0
372,332,112702,1,0
436,180,113121,1,12
436,180,113331,1,0
484,112,113541,1,0
484,112,113751,1,0
436,44,113961,1,8
436,44,114170,2,0,B|488:44,2,37.5,0|0|8
272,40,114800,5,12
272,40,115010,1,0
272,40,115219,2,0,B|148:40,1,120
100,200,116059,2,0,B|26:208|26:284,1,120,8|0
196,296,116898,2,0,B|196:368,2,60,0|8|0
356,344,117737,2,0,B|429:335|429:259,1,120,8|0
492,212,118366,1,0
428,156,118576,5,0
272,92,118996,2,0,B|272:32,2,60,0|8|0
116,160,119835,2,0,B|116:40,2,120,0|8|8
68,228,120884,1,0
68,228,121093,2,0,B|124:276|179:224,1,120,8|8
336,344,121933,5,10
464,268,122247,1,10
492,124,122562,1,10
156,32,123611,6,0,B|104:112,1,90.0000021457673,4|8
180,140,124031,2,0,B|108:200,1,90.0000021457673,0|8
168,256,124450,2,0,B|80:284,1,90.0000021457673,0|8
120,356,124870,2,0,B|12:356,2,90.0000021457673,0|8|0
196,332,125499,1,8
196,332,125709,1,0
272,356,125919,1,8
272,356,126128,1,0
348,332,126338,1,8
436,196,126758,6,0,B|492:196,2,45.0000010728836,8|0|0
392,128,127177,1,8
232,92,127597,2,0,B|232:36|292:36,2,90.0000021457673,8|0|8
156,124,128226,1,0
156,124,128436,2,0,B|100:120|100:60,2,90.0000021457673,8|0|8
140,284,129275,2,0,B|44:284,2,90.0000021457673,8|8|8
208,328,129905,1,8
208,328,130114,1,8
208,328,130324,6,0,B|304:328,1,90.0000021457673,4|8
264,252,130744,2,0,B|356:252,1,90.0000021457673,0|8
320,180,131163,2,0,B|416:180,1,90.0000021457673,0|8
384,104,131583,2,0,B|476:104,2,90.0000021457673,0|8|0
316,60,132212,1,8
316,60,132422,1,0
248,104,132632,1,8
248,104,132842,1,0
180,60,133052,1,8
76,184,133471,6,0,B|24:184,2,45.0000010728836,8|0|0
104,260,133891,1,8
256,200,134310,2,0,B|332:260,1,90.0000021457673,8|0
316,336,134730,2,0,B|416:364,2,90.0000021457673,8|0|8
236,352,135359,1,8
236,352,135569,1,10
188,284,135779,1,8
188,284,135989,1,10
140,352,136198,1,8
140,352,136408,1,10
100,284,136618,1,8
100,284,136828,1,10
72,208,137038,6,0,B|72:148|140:148,1,90.0000021457673,4|8
192,192,137457,2,0,B|248:192|248:132,1,90.0000021457673,0|8
188,80,137877,2,0,B|188:24|252:24,1,90.0000021457673,0|8
320,52,138296,2,0,B|376:52|376:120,1,90.0000021457673,0|8
440,160,138716,1,0
440,160,138926,1,8
376,212,139135,1,0
376,212,139345,1,8
440,264,139555,1,0
440,264,139765,1,8
288,316,140184,6,0,B|288:360,2,45.0000010728836,8|0|0
208,336,140604,2,0,B|208:152,1,180.000004291535,8|8
160,92,141233,1,0
160,92,141443,1,8
208,28,141653,1,0
208,28,141863,2,0,B|116:28,2,90.0000021457673,8|0|8
368,40,142702,2,0,B|440:120,1,90.0000021457673,8|0
388,176,143121,2,0,B|480:200,2,90.0000021457673,8|0|8
376,256,143751,6,0,B|352:344,1,90.0000021457673,4|8
272,324,144170,2,0,B|280:228,1,90.0000021457673,0|8
200,220,144590,2,0,B|176:308,1,90.0000021457673,0|8
96,288,145010,2,0,B|104:192,1,90.0000021457673,0|8
84,120,145429,2,0,B|28:120|28:176,2,90.0000021457673,0|8|0
156,84,146059,2,0,B|156:24|88:24,2,90.0000021457673,8|0|8
320,76,146898,6,0,B|320:24,2,45.0000010728836,8|0|0
368,140,147317,2,0,B|481:145|483:278,1,180.000004291535,8|8
432,320,147947,2,0,B|348:288,1,90.0000021457673,0|8
272,316,148366,2,0,B|232:228,2,90.0000021457673,0|8|8
256,192,148996,12,12,152142
