osu file format v5

[General]
AudioFilename: 04-Wonderboy.mp3
AudioLeadIn: 0
PreviewTime: -1
Countdown: 2
SampleSet: Soft
StackLeniency: 0.7
Mode: 0

[Metadata]
Title:Wonderboy
Artist:Tenacious D
Creator:Badgers
Version:Normal
Source:
Tags:

[Difficulty]
HPDrainRate:4
CircleSize:6
OverallDifficulty:6
SliderMultiplier:1.7
SliderTickRate:2

[Events]
//Background and Video events
//Break Periods
//Storyboard Layer 0 (Background)
//Storyboard Layer 1 (Failing)
//Storyboard Layer 2 (Passing)
//Storyboard Layer 3 (Foreground)
//Storyboard Sound Samples
//Background Colour Transformations
3,100,163,162,255

[TimingPoints]
232232,569.945,4,2,0,100

[HitObjects]
64,64,5393,2,4,B|416:96|352:192,3,340
96,288,9953,1,0
352,128,11663,1,0
160,96,12233,1,0
160,352,13943,1,0
384,96,14513,1,0
160,96,15082,1,0
352,224,16792,1,0
224,128,17362,1,0
96,96,18502,1,0
288,288,19072,1,0
320,128,20212,5,0
160,96,20782,1,0
288,288,21352,1,0
64,320,23062,1,0
352,96,24772,5,0
128,96,25341,1,0
320,288,25911,1,0
416,192,26481,1,0
64,96,29331,2,0,B|416:128|256:352|32:256|384:64|256:128,4,340
128,128,37880,5,4
32,32,38450,2,4,B|480:32|448:384|96:320|96:288,1,680
64,128,45859,5,4
32,160,46999,2,0,B|416:224|352:64|96:96|128:352|192:288,3,340
352,128,52699,1,0
160,288,53269,1,0
96,96,54979,5,0
128,192,55549,1,0
384,128,56118,1,0
256,256,56688,1,0
64,96,58398,2,4,B|416:256|352:288,1,340
96,128,64668,1,0
320,288,65238,1,0
384,96,65808,1,0
96,96,72077,1,0
352,224,72647,1,0
352,128,73217,1,0
320,96,75497,1,0
160,160,76067,1,0
352,224,77206,1,4
160,96,80056,5,4
256,256,80626,1,4
32,320,81196,2,4,B|352:96|352:192,1,340
160,128,84046,5,4
160,288,84616,1,4
352,256,85186,1,4
384,96,85756,1,4
192,96,86326,1,4
64,224,86896,1,4
288,288,87465,1,4
384,128,88035,1,4
160,160,88605,1,4
128,320,89175,1,4
96,128,95445,5,6
96,96,100004,5,0
128,224,100574,1,0
352,128,101144,1,0
192,64,101714,2,0,B|64:352|160:320,2,170
160,256,103994,1,0
320,256,104564,1,0
160,64,105134,1,0
160,256,107414,1,0
384,160,107983,1,0
96,128,108553,1,0
224,128,110263,1,0
128,128,111403,5,0
288,256,111973,1,0
256,96,112543,1,0
384,160,113683,1,0
192,256,114253,1,0
128,128,114823,1,0
64,256,115393,1,0
320,128,116533,1,0
288,256,117103,1,0
96,160,117673,1,0
192,96,118242,1,4
192,160,120522,5,0
384,128,122232,1,0
128,128,122802,1,0
160,288,125652,1,0
352,96,126792,1,0
128,96,127362,1,0
288,288,129071,1,0
128,288,129641,1,0
320,128,130211,1,0
416,128,130781,1,0
192,128,131921,1,0
352,160,133061,1,0
64,256,134201,1,0
448,64,134771,5,0
64,288,135911,1,0
64,96,136481,2,0,B|448:320,1,340
288,128,138761,1,0
64,96,141610,2,0,B|448:96|224:256,3,340
96,192,147880,1,0
288,128,150729,1,0
256,192,154719,1,4
384,64,156429,1,0
96,256,156999,1,0
0,192,161558,1,0
96,64,162698,2,0,B|416:288,1,340
192,96,166118,1,4
96,96,168398,5,0
448,160,169538,1,0
256,128,170107,1,0
128,256,171247,1,0
384,192,171817,1,0
320,64,172957,1,0
448,160,174097,1,0
160,224,174667,1,0
64,256,175807,1,0
416,256,176377,1,0
192,192,177517,1,0
320,224,178657,1,0
192,64,179227,1,0
96,256,179797,1,0
448,64,180936,5,0
288,224,182076,1,0
192,288,183786,1,0
416,192,184356,1,0
224,192,184926,1,0
64,160,185496,1,0
96,96,187206,6,0,B|448:352|416:320,2,340
160,160,190626,1,0
288,96,196895,5,0
160,288,197465,1,0
352,224,198605,1,0
256,128,200315,5,0
160,256,200885,1,0
320,256,201454,1,0
192,64,202024,1,0
128,256,203164,1,0
320,288,203734,1,0
416,160,204304,1,0
416,96,204874,1,0
352,96,205444,5,0
224,288,206584,1,0
96,320,208294,1,2
96,192,209434,1,0
96,288,210004,1,0
288,288,211144,1,0
352,192,211713,1,0
320,128,212283,1,0
224,64,212853,1,0
128,64,213423,1,0
64,160,214563,1,0
256,160,215703,1,2
384,192,216843,1,0
320,96,217413,1,0
448,32,218553,5,0
448,256,219123,1,0
320,320,219693,1,0
224,64,221403,1,0
352,160,221972,1,0
192,256,223112,1,0
384,64,223682,1,0
96,128,225962,1,0
384,256,226532,1,0
160,160,227672,1,0
32,96,231092,2,0,B|288:256,20,170
