osu file format v5

[General]
AudioFilename: Tenacious D - Tribute.mp3
AudioLeadIn: 0
PreviewTime: -1
Countdown: 0
SampleSet: Soft
StackLeniency: 0.7
Mode: 0
LetterboxInBreaks: 1
EditorBookmarks: 12348,20849,46358,57420,68003,96483,116631,170825,188614,228855

[Metadata]
Title:Tribute
Artist:Tenacious D
Creator:awp
Version:ROCK!
Source:
Tags:

[Difficulty]
HPDrainRate:7
CircleSize:6
OverallDifficulty:7
SliderMultiplier:2.2
SliderTickRate:2

[Events]
//Background and Video events
//Break Periods
2,21049,44798
2,57620,66443
2,96602,115071
2,170980,187722
//Storyboard Layer 0 (Background)
//Storyboard Layer 1 (Failing)
//Storyboard Layer 2 (Passing)
//Storyboard Layer 3 (Foreground)
//Storyboard Sound Samples
//Background Colour Transformations
3,100,163,162,255
3,100,163,162,255
3,100,163,162,255
3,100,163,162,255
3,100,163,162,255
3,100,163,162,255
3,100,163,162,255
3,100,163,162,255
3,100,163,162,255
3,100,163,162,255
3,100,163,162,255
3,100,163,162,255
3,100,163,162,255
3,100,163,162,255
3,100,163,162,255
3,100,163,162,255
3,100,163,162,255
3,100,163,162,255
3,100,163,162,255
3,100,163,162,255
3,100,163,162,255
3,100,163,162,255
3,100,163,162,255
3,100,163,162,255

[TimingPoints]
995,708.666997377932,4,2,0,100,1
46399,700.466997377932,4,2,0,100,1
52010,673.551863493489,4,2,0,100,1
57420,659.340659340659,4,2,0,100,1
67639,659.340659340659,4,1,0,50,1
68003,646.551290322581,4,1,0,50,1
78370,646.900269541779,4,1,0,70,1
84839,323.450134770889,4,1,0,100,1
86781,646.900269541779,4,1,0,100,1
95835,323.450134770889,4,2,0,100,1
96508,650.58281377067,4,2,0,100,1
112115,322.58064516129,4,1,0,65,1
117266,621.761658031088,4,1,0,100,1
127280,614.754615384615,4,1,0,100,1
137056,606.667449392713,4,1,0,100,1
161266,591.135294117647,4,2,0,100,1
166030,600,4,2,0,100,1
170825,588.235294117647,4,1,0,100,1
180243,598.503740648379,4,1,0,65,1
189507,299.25187032419,4,1,0,66,1
189735,299.25187032419,4,1,0,100,1
189810,294.840294840295,4,1,0,100,1
190990,589.68058968059,4,1,0,100,1
203935,574.162679425837,4,1,0,100,1
219999,553.50553505535,4,1,0,100,1

[HitObjects]
72,64,12333,1,0
72,176,12688,1,0
120,208,12865,1,0
72,240,13042,1,0
184,240,13396,1,0
224,200,13573,1,0
264,240,13751,1,0
376,240,14105,1,0
416,280,14282,1,0
456,240,14459,2,2,B|456:152,1,55
456,144,14814,2,2,B|456:80,2,55,2|2|6
344,144,15522,5,0
232,144,15877,1,0
120,144,16231,1,0
160,184,16408,1,0
200,224,16585,1,0
88,280,16940,5,0
144,280,17117,1,0
200,280,17294,1,0
200,336,17471,1,0
240,368,17648,1,0
280,336,17825,1,0
320,304,18003,6,0,B|320:192,1,110,2|2
456,152,18711,2,0,B|344:152,1,110,2|2
320,0,19420,2,0,B|320:120,1,110,2|2
184,152,20129,2,0,B|304:152,2,110,2|2|6
424,64,46399,6,0,B|304:64,1,110
272,104,46924,1,0
232,144,47099,2,0,B|120:144,1,110
80,184,47624,1,0
48,232,47799,2,0,B|168:232,1,110,0|0
208,272,48325,1,0
256,312,48500,2,0,B|376:312,1,110
424,312,49025,1,0
424,248,49200,1,0
400,144,49551,5,4
288,144,49901,6,0,B|344:144|347:40|212:28|125:181|328:216,1,330
384,280,51302,1,0
256,312,51651,1,0
256,256,51827,1,0
256,192,52010,1,0
120,192,52346,1,0
120,128,52515,1,0
56,128,52683,1,0
56,192,52851,1,0
120,192,53020,1,0
224,120,53357,2,0,B|136:32,1,110
288,120,54030,2,0,B|368:40,1,110
256,176,54704,5,0
256,288,55041,1,0
144,288,55377,1,0
144,176,55714,1,0
144,64,56051,1,2
256,64,56388,1,2
368,64,56724,5,0
408,104,56893,1,0
368,144,57061,1,0
408,184,57230,1,0
368,224,57398,1,4
112,72,68003,5,0
104,184,68326,1,0
104,240,68487,1,0
104,296,68649,1,0
216,296,68972,1,0
216,240,69134,1,0
216,184,69296,2,0,B|216:128,4,55
416,80,70589,6,0,B|272:80,1,110
306,80,71074,1,0
306,80,71235,2,0,B|176:80,1,110
196,80,71720,1,0
196,80,71882,2,0,B|80:80,1,110
86,80,72367,1,0
88,136,72528,1,0
88,192,72690,1,0
88,248,72852,1,0
88,304,73013,6,0,B|256:304,1,165
368,272,73821,2,0,B|369:195|297:195,1,110,0|8
307,195,74306,1,0
248,176,74468,1,8
192,152,74630,1,0
136,120,74791,1,8
224,56,75115,1,8
336,40,75438,5,0
397,41,75599,1,0
456,40,75761,1,8
336,96,76084,1,8
456,96,76408,1,8
336,160,76731,1,8
397,160,76893,1,0
456,160,77054,1,8
448,216,77216,2,8,B|328:216,1,110
336,160,77701,1,8
224,112,78024,1,8
104,64,78370,5,4
104,128,78531,1,0
104,192,78693,1,0
104,256,78855,1,0
104,320,79016,2,0,B|232:320,1,110
280,320,79502,1,0
328,272,79663,2,0,B|376:224,1,55
312,192,79987,2,0,B|264:144,2,55
424,120,80634,5,0
424,120,80795,1,0
424,120,80957,6,0,B|378:68|328:120,1,110
200,112,81604,1,4
64,112,81927,5,0
64,112,82089,1,0
64,112,82251,5,4
64,240,82574,1,0
64,368,82898,1,4
192,368,83221,1,0
256,368,83383,1,0
256,304,83545,1,4
256,104,84030,5,0
256,104,84192,1,4
256,232,84515,1,4
256,104,85364,5,8
256,104,85526,1,8
256,264,85849,1,8
256,320,86011,1,8
256,376,86173,1,4
456,264,86456,5,0
456,200,86618,1,0
392,200,86781,2,0,B|392:128,1,55
328,144,87104,2,0,B|328:88,1,55
264,88,87427,2,0,B|176:-31|80:88,1,220
72,216,88398,5,0
112,272,88559,1,0
160,320,88721,2,0,B|248:232,2,110
440,216,89692,5,0
400,272,89853,1,0
352,320,90015,2,0,B|264:232,2,110
256,192,90985,5,0
320,192,91147,5,0
384,192,91309,5,4
384,56,91632,1,0
384,56,91794,1,4
248,56,92117,1,0
248,56,92279,1,4
256,192,92926,12,0,96443
256,32,116631,6,0,L|216:72|256:112|216:152|256:192|216:232|256:272|216:312|256:352,1,440
448,304,117887,5,0
448,64,118509,1,4
416,120,118664,1,0
376,176,118820,1,4
304,64,119131,1,8
80,72,119753,6,8,B|32:120,1,55
41,110,120063,2,8,B|91:159,1,55
80,148,120374,2,8,B|32:196,1,55
41,186,120685,2,8,B|124:270,1,110
72,312,121152,1,0
120,360,121307,1,0
256,360,121618,1,12
256,224,121929,1,4
112,136,122240,5,0
184,136,122395,1,0
256,136,122550,1,0
328,136,122706,1,0
400,136,122861,1,0
256,16,123172,5,0
256,192,124105,5,12
400,248,124727,5,0
328,248,124882,1,0
256,248,125037,1,0
184,248,125193,1,0
112,248,125348,1,0
256,368,125659,5,0
256,192,126281,6,0,L|256:264,1,55
256,368,126592,1,8
256,192,126903,1,8
256,368,127214,1,4
56,56,127894,5,0
56,120,128048,1,0
56,184,128202,1,0
168,120,128509,2,0,B|264:120,2,55
112,120,128970,1,0
112,120,129124,1,8
240,160,129431,5,0
320,56,129739,5,0
320,56,129892,1,0
392,160,130200,1,0
392,160,130353,1,0
392,160,130507,1,0
320,272,130814,1,0
320,272,130968,1,0
320,272,131122,1,0
320,272,131275,1,0
208,192,131583,6,0,L|160:144,1,55
169,153,131890,2,0,L|220:102,1,55
168,72,132198,1,0
256,264,132659,1,0
256,264,132812,1,8
256,128,133120,1,0
360,48,133427,5,0
408,88,133581,1,0
360,128,133734,1,0
360,128,134042,1,0
448,208,134349,1,0
360,288,134657,2,2,B|303:319|256:272,3,110
320,96,136040,1,0
320,96,136193,1,0
256,192,136501,12,0,137056
96,80,137662,5,0
56,128,137814,1,0
96,176,137966,1,0
56,224,138117,1,0
96,272,138269,2,0,B|96:344|168:344,2,110
256,96,139331,5,0
304,144,139482,1,0
352,192,139634,1,0
256,288,139937,1,0
208,240,140089,1,0
160,192,140241,1,0
64,72,140544,1,0
64,136,140696,2,0,B|64:288,2,110
256,72,141606,6,0,B|328:72|283:7|233:4|163:64|256:184,1,220
256,320,142516,1,4
88,80,143122,5,0
208,80,143426,1,0
328,80,143729,1,0
408,168,144032,2,0,B|240:168|240:168|140:328|32:160,1,440
272,112,145852,1,0
256,56,146004,1,0
208,24,146156,1,8
152,0,146307,1,8
96,24,146459,1,8
48,56,146611,1,8
16,104,146763,1,4
256,192,147369,5,8
256,368,147824,5,0
256,368,147976,1,8
368,368,148279,5,0
432,368,148431,1,0
432,304,148582,1,0
432,240,148734,1,0
432,40,149189,2,4,B|432:128|312:128,1,165
184,128,149947,1,0
120,128,150099,1,4
256,192,150706,12,4,151616
256,192,151919,5,4
256,192,152222,5,8
128,48,152829,5,0
192,48,152981,1,0
256,48,153132,1,0
320,48,153284,1,0
384,48,153436,1,0
384,48,153587,5,0
424,256,154042,2,0,B|341:111|289:357|168:200,1,302.5
171,203,155028,1,0
256,192,155559,12,4,156469
256,48,157076,5,0
320,48,157227,1,0
320,112,157379,1,0
256,112,157531,1,0
256,176,157682,1,8
248,288,157986,5,0
184,288,158137,1,0
184,224,158289,1,0
120,224,158441,1,0
120,288,158592,1,0
56,288,158744,1,0
56,224,158896,2,0,B|56:144,1,55
56,169,159199,2,0,B|56:56,1,110
184,56,159806,2,0,B|184:112,1,55
256,192,160412,12,4,161266
256,96,161561,5,0
256,152,161709,1,0
256,208,161857,1,4
256,336,162152,6,0,B|192:336,1,55
64,336,162596,2,0,B|128:336,1,55
160,208,163039,1,4
160,72,163334,5,0
160,136,163482,1,0
224,136,163630,2,0,B|296:136,1,55
424,136,164073,1,0
424,136,164221,1,4
344,264,164517,5,0
280,264,164665,1,0
216,264,164812,1,0
152,264,164960,1,0
152,128,165256,2,4,B|208:128,3,55,0|4|4|4
336,128,166030,5,0
336,128,166180,1,0
464,128,166480,2,0,B|408:128,1,55,0|4
336,240,166930,6,0,B|288:192,1,55,0|0
176,240,167380,2,0,B|224:192,1,55
256,168,167680,1,0
256,168,167830,1,4
216,48,168430,5,0
216,120,168580,1,0
296,120,168730,1,0
296,48,168880,1,0
256,192,169180,12,4,170830
80,208,188622,5,0
128,160,188771,1,0
176,112,188921,1,0
256,32,189220,1,0
256,144,189509,6,0,L|256:368,1,220,0|4
168,264,190067,1,0
352,264,190362,1,0
256,64,190694,5,0
256,160,190990,2,2,B|180:124|199:240|296:236|349:183|333:104|264:104,1,220,0|2
224,104,191874,2,2,B|160:104|136:56|192:32|264:24|304:72,1,220,0|2
344,192,192759,1,8
344,256,192906,5,0
280,256,193053,1,0
144,256,193348,2,8,B|59:228|144:192,1,110,8|8
200,256,193938,2,8,B|285:228|200:192,1,110,8|8
256,72,194528,1,8
256,200,194822,1,8
224,144,194970,1,8
288,144,195117,1,8
320,272,195412,6,0,B|320:328,1,55,0|0
384,328,195707,2,0,B|384:272,1,55
448,272,196002,2,0,B|448:152,1,110
320,160,196591,2,0,B|320:280,1,110
256,136,197181,1,8
256,248,197476,1,8
256,192,197550,12,4,198655
392,256,199245,6,0,B|336:256,1,55,2|0
337,256,199540,2,0,B|280:256,1,55,2|0
282,256,199835,2,0,B|224:256,1,55,2|0
227,256,200130,2,0,B|168:256,1,55,2|0
120,208,200424,6,0,B|176:208,1,55,10|0
175,208,200719,2,0,B|240:208,1,55,10|0
230,208,201014,2,0,B|288:208,1,55,10|0
285,208,201309,2,0,B|344:208,1,55,10|0
384,160,201604,6,0,B|328:160,1,55,2|0
329,160,201899,2,0,B|264:160,1,55,2|0
274,160,202193,2,0,B|200:160,1,55,2|0
219,160,202488,2,2,B|104:160|104:64,1,165
104,70,203078,1,2
232,72,203373,2,8,B|176:72,2,55
352,72,203935,1,4
352,200,204222,5,0
352,328,204509,1,0
216,328,204796,1,0
264,288,204939,1,0
216,248,205083,1,0
264,208,205226,1,0
216,168,205370,1,0
256,32,205657,1,4
136,32,205944,6,0,L|112:56|136:80|112:104|128:120,1,110
112,232,206518,2,0,L|168:232,1,55
168,288,206805,2,0,L|104:288,1,55
112,344,207092,2,0,L|176:344,1,55
288,344,207523,2,0,L|232:344,1,55
256,224,207954,1,0
256,104,208241,1,0
256,224,208528,5,8
136,224,208815,1,8
16,224,209102,1,4
40,64,209676,5,8
160,64,209963,1,8
280,64,210250,1,4
440,192,210824,5,4
72,192,211255,5,4
440,192,211686,5,4
72,192,212116,5,4
440,192,212547,5,4
440,192,212834,1,4
440,312,213121,2,8,B|328:312,1,110
192,312,213695,2,0,B|88:312|88:192,1,165,4|8
88,112,214413,1,8
88,112,214557,1,8
208,112,214844,1,12
288,192,215418,5,8
224,192,215561,1,8
288,192,215705,1,8
408,56,216135,1,0
288,56,216423,1,0
224,56,216566,1,0
256,192,216853,12,4,217714
256,192,218001,5,0
136,192,218289,6,2,B|136:104|264:104,1,165
368,104,219006,1,0
368,104,219150,1,2
488,104,219437,1,2
456,312,219999,6,2,B|355:129|220:520|40:264,1,440,2|8
168,232,221382,1,8
136,184,221521,1,8
16,232,221797,1,8
48,184,221936,1,12
48,72,222213,6,2,B|149:-111|282:284|456:32,1,440,2|8
496,80,223596,1,8
464,32,223735,1,8
368,80,224011,1,8
400,32,224150,1,8
421,192,224427,6,0,C|256:192,2,165,0|0|0
146,192,225534,6,0,C|256:192,3,110
256,137,226641,6,0,C|256:192,7,55
256,220,227748,6,0,C|256:192,16,27.5,0|0|0|0|0|0|0|0|0|0|0|0|0|0|0|0|4
