osu file format v5

[General]
AudioFilename: Tenacious D - Tribute.mp3
AudioLeadIn: 0
PreviewTime: -1
Countdown: 0
SampleSet: Soft
StackLeniency: 0.7
Mode: 0
LetterboxInBreaks: 1
EditorBookmarks: 20849,46358,57420,68003,96483,116631,170825,188614,228855

[Metadata]
Title:Tribute
Artist:Tenacious D
Creator:awp
Version:Easy
Source:
Tags:

[Difficulty]
HPDrainRate:4
CircleSize:3
OverallDifficulty:2
SliderMultiplier:1.4
SliderTickRate:2

[Events]
//Background and Video events
//Break Periods
2,21049,44798
2,57620,66443
2,96602,115071
2,171012,187054
//Storyboard Layer 0 (Background)
//Storyboard Layer 1 (Failing)
//Storyboard Layer 2 (Passing)
//Storyboard Layer 3 (Foreground)
//Storyboard Sound Samples
//Background Colour Transformations
3,100,163,162,255
3,100,163,162,255
3,100,163,162,255
3,100,163,162,255
3,100,163,162,255
3,100,163,162,255
3,100,163,162,255
3,100,163,162,255
3,100,163,162,255
3,100,163,162,255
3,100,163,162,255
3,100,163,162,255

[TimingPoints]
995,708.666997377932,4,2,0,100,1
46399,700.466997377932,4,2,0,100,1
52010,673.551863493489,4,2,0,100,1
57420,659.340659340659,4,2,0,100,1
67639,659.340659340659,4,1,0,50,1
68003,646.551290322581,4,1,0,50,1
78370,646.900269541779,4,1,0,70,1
84839,323.450134770889,4,1,0,100,1
86781,646.900269541779,4,1,0,100,1
95835,323.450134770889,4,2,0,100,1
96508,650.58281377067,4,2,0,100,1
112115,645.161290322581,4,1,0,65,1
117266,621.761658031088,4,1,0,100,1
127280,614.754615384615,4,1,0,100,1
137056,606.667449392713,4,1,0,100,1
161266,591.134925373134,4,2,0,100,1
166030,600,4,2,0,100,1
170825,588.235294117647,4,1,0,100,1
180233,598.503740648379,4,1,0,65,1
189507,299.25187032419,4,1,0,66,1
189735,299.25187032419,4,1,0,100,1
189810,294.840294840295,4,1,0,100,1
190990,589.68058968059,4,1,0,100,1
203935,574.162679425837,4,1,0,100,1
219999,553.50553505535,4,1,0,100,1

[HitObjects]
104,96,12333,5,0
240,96,13042,1,0
376,96,13751,1,0
376,232,14459,2,0,C|336:262|306:233|272:264,1,140
136,288,15877,5,0
48,176,16585,1,0
168,104,17294,2,0,B|220:5|267:115,1,140
368,192,18711,5,0
224,192,19420,1,0
224,328,20129,1,0
296,328,20483,1,0
368,328,20837,1,0
152,192,46399,6,0,B|256:31|369:200,3,280
368,264,50952,1,0
440,264,51302,1,0
440,192,51652,1,4
440,120,52010,6,0,B|308:-28|208:120,1,280
144,120,53693,1,0
72,120,54030,1,0
72,192,54367,1,0
144,200,54704,6,0,B|252:348|376:200,1,280,0|0
376,136,56388,1,0
304,136,56724,6,4,L|272:96|248:136|224:96,1,140,4|0
256,80,68003,5,0
256,216,68649,1,0
168,320,69296,2,0,L|256:320,2,70
112,192,70589,5,0
112,48,71235,1,0
248,72,71882,2,0,L|304:118|248:160,1,140
184,264,73013,6,2,L|488:264,1,280
424,56,75761,2,2,L|160:56,1,245
176,64,78370,5,4
136,128,78693,1,0
216,128,79016,1,0
352,128,79663,1,0
416,88,79987,1,0
416,168,80310,1,0
416,240,80634,5,0
416,312,80957,5,4
272,304,81604,1,0
200,304,81927,5,0
200,232,82251,1,4
200,88,82898,1,0
336,88,83545,6,0,B|468:160|336:248,1,210
256,88,85364,6,0,B|256:160,1,70
256,216,85849,2,0,B|256:304,2,70,0|0|4
112,192,86781,5,0
112,328,87427,1,0
184,328,87751,1,0
256,328,88074,1,0
360,232,88721,6,0,B|232:104,1,140
208,80,89692,1,0
160,136,90015,2,0,B|48:240,1,140
64,304,90985,5,0
128,304,91228,2,0,B|248:304,2,105
256,192,92926,12,0,96441
256,64,116631,6,0,B|256:240,1,140,4|12
256,344,117887,1,8
112,344,118509,1,4
112,272,118820,1,4
112,200,119131,1,8
112,56,119753,5,4
184,56,120063,1,4
256,56,120374,1,8
256,128,120685,1,8
256,200,120996,1,4
256,272,121307,1,4
328,272,121618,1,8
464,272,122240,6,0,C|424:239|460:207|417:167|456:136,1,210
256,192,124105,5,4
80,272,124727,6,0,C|120:239|84:207|127:167|88:136,1,210
256,304,126592,6,0,C|256:208,2,70,0|0|4
256,144,127894,5,0
216,80,128202,1,0
296,80,128509,1,0
400,264,129431,5,0
336,296,129739,2,2,B|240:320|184:280,1,140
96,192,130968,1,0
168,192,131275,1,0
240,192,131583,1,0
312,192,131890,1,0
352,72,133427,5,0
280,40,133734,1,0
208,72,134042,1,0
280,120,134349,2,2,B|117:203|405:244|256:336,1,280
328,112,136501,5,0
256,112,136808,1,0
184,112,137056,1,4
256,232,137662,5,0
112,232,138269,1,0
184,232,138572,1,0
256,232,138876,1,0
376,304,139482,5,0
424,256,139786,1,0
368,216,140089,1,0
416,168,140392,1,0
368,120,140696,2,0,B|368:32,1,70
232,64,141606,2,0,B|232:288,1,210,0|4
368,216,143122,6,0,B|400:186|368:152,1,70
288,152,143729,2,0,B|256:182|288:216,1,70
256,192,144639,12,0,146762
256,64,148279,5,0
256,136,148582,1,0
200,264,149189,2,4,B|336:264,2,105
256,192,150706,12,0,151616
256,48,152829,5,0
256,120,153132,1,0
256,192,153436,1,0
392,192,154042,2,0,B|392:280|312:328,1,140
184,304,155256,1,0
120,304,155559,1,0
120,232,155862,1,0
184,232,156166,1,0
152,168,156469,1,0
128,56,157076,6,0,B|48:56,2,70,0|0|0
200,56,157986,6,0,B|200:136,2,70
272,56,158896,6,0,B|368:56,2,70
272,160,159957,5,8
256,48,161857,5,0
256,336,163039,5,0
48,192,164221,5,0
464,120,165403,5,0
464,192,165699,1,0
464,264,166030,6,2,B|288:264,1,140
184,264,167230,2,2,B|328:264,1,140
256,192,168430,12,4,170831
256,56,188612,5,0
256,128,188911,1,0
256,200,189210,1,0
256,200,189507,2,0,L|256:328,1,122.5,0|4
392,112,190694,5,0
392,112,190990,2,2,B|252:16|174:216|32:56,1,350
256,176,193348,2,8,B|256:272,4,70
256,328,195412,5,0
256,256,195707,2,0,B|471:191|256:80,1,280
256,192,197476,12,4,198655
256,64,199540,5,0
200,112,199835,1,0
408,128,200719,1,0
368,184,201014,2,0,B|440:264,1,70
296,304,201899,5,0
296,232,202193,1,0
296,128,202636,2,2,B|252:181|208:128,1,105,2|2
216,56,203373,2,2,B|312:56,1,70,2|2
416,56,204222,5,0
416,128,204509,1,0
416,272,205083,2,0,B|312:272,1,70
272,272,205657,1,0
160,240,206231,6,0,L|120:240|120:208|88:208|88:168,1,140
256,192,207236,12,4,208528
392,152,210824,6,0,L|304:64,1,105
194,77,211686,2,0,L|120:152,1,105
256,192,212547,1,0
184,320,213121,6,0,L|344:320,1,140
384,192,214269,2,0,L|456:192,2,70
256,128,215418,2,0,L|208:128,2,35
256,24,216135,1,0
256,192,216853,12,0,217714
456,152,219999,6,0,B|344:32|208:296|48:112,1,420
88,48,222213,6,0,B|200:168|336:-96|496:88,1,420,0|0
400,192,224427,6,0,C|295:192,2,105,0|0|0
144,192,225534,6,0,C|216:192,3,70
256,120,226641,6,0,C|256:168,7,35
256,248,227748,6,0,C|256:216,16,17.5,0|0|0|0|0|0|0|0|0|0|0|0|0|0|0|4|4
