osu file format v3

[General]
AudioFilename: Tenacious D - 03 - Tribute.mp3
AudioLeadIn: 0
AudioHash: 1e2936f08f952348311cd44b151ea8c1
PreviewTime: -1
SampleSet: Normal

[Metadata]
Title:Tribute
Artist:Tenacious D
Creator:Leniad
Version:Hard

[Difficulty]
HPDrainRate:7
CircleSize:5
OverallDifficulty:6
SliderMultiplier: 2
SliderTickRate: 2

[Events]
1,-46800,"tribute.wmv"
2,160830,169556
2,229157,233689
3,0,163,162,255

[TimingPoints]
12223,709.10311340874
46306,688.389169343736
57334,655.80311340874
67909,643.80311340874
78300,643.80311340874
96370,650.003113408739
117133,630.003113408739
127132,612.003113408739
146692,606.003113408739
161156,600.003113408739
170756,587.003113408739
180159,596.603113408739
189716,588.503113408737
208406,580.303113408736
217623,587.003113408735
219951,587.003113408735
222207,587.003113408735 234889,929.003113408737

[HitObjects]
256,192,12222,1,0,
256,192,15059,1,0,
256,192,17895,1,0,
256,192,20732,1,0,
96,64,23568,5,0,
416,64,24277,1,0,
416,320,26405,1,0,
96,320,27114,1,0,
96,64,29241,5,0,
448,320,29950,1,0,
448,64,32077,1,0,
96,320,32786,1,0,
256,192,34914,5,0,
96,320,37041,5,0,
96,192,37396,1,0,
96,64,37750,1,0,
416,64,39878,5,0,
416,192,40232,1,0,
416,256,40409,1,0,
416,320,40587,1,0,
256,320,42714,5,0,
256,256,42891,1,0,
256,192,43068,1,0,
256,64,43423,1,4,
96,96,46306,5,0,
160,96,46650,1,0,
224,96,46994,1,0,
288,96,47338,1,0,
416,96,49059,5,0,
416,160,49403,1,0,
416,192,49575,1,0,
416,224,49747,1,0,
416,288,50092,1,0,
320,288,51813,5,0,
288,288,51985,1,0,
256,288,52157,1,0,
192,288,52501,1,0,
128,288,52845,1,0,
64,288,54566,5,0,
64,224,54910,1,0,
64,160,55255,1,0,
64,128,55427,1,0,
64,96,55599,1,0,
160,96,57989,6,0,B|160:96|384:96,2,200
352,288,60613,6,0,B|352:288|128:288,2,200
160,256,63236,6,0,B|160:256|136:116|256:64,1,200
286,102,64219,1,0,
352,128,64547,6,0,B|352:128|376:268|256:320,1,200
224,281,65531,1,0,
224,281,65859,1,0,
256,192,66515,5,0,
96,288,67909,5,0,
96,192,68230,1,0,
96,96,68552,1,2,
256,96,69196,6,0,B|256:96|320:96,2,50
192,96,69840,1,4,
256,192,70484,6,0,B|256:192|160:288,4,100
288,224,71932,1,0,
320,256,72093,1,2,
384,256,72415,1,4,
384,96,73059,5,0,
320,96,73381,1,0,
256,96,73703,1,2,
128,96,74347,1,0,
160,128,74668,1,0,
192,160,74990,1,4,
128,288,75634,5,0,
256,288,76278,1,0,
384,288,76922,1,0,
384,288,77083,1,0,
352,256,77244,1,2,
320,224,77566,1,4,
192,320,78300,5,4,
256,96,78943,1,0,
320,320,79587,1,4,
320,320,79748,1,2,
320,320,79909,1,4,
128,192,80231,1,0,
384,192,80875,1,4,
256,96,81519,5,0,
160,192,82162,1,0,
256,288,82484,1,0,
256,288,82645,1,0,
256,288,82806,1,0,
352,192,83450,1,4,
256,192,83933,1,4,
160,192,84416,1,4,
160,96,85220,5,2,
160,96,85381,1,2,
192,64,85703,1,2,
192,64,85864,1,2,
256,64,86025,6,0,B|256:64|335:18|478:29|504:161|506:320|407:363|325:360|256:320,1,600
256,320,88600,6,0,B|256:320|64:192,1,200
64,192,89566,1,0,
90,175,89888,2,0,B|90:175|282:47,1,200
256,96,90854,5,0,
256,128,91176,2,4,B|256:128|256:320,2,150
64,320,95682,5,0,
128,288,96004,1,0,
192,256,96326,2,0,B|192:256|416:160,2,200
448,320,98320,5,0,
384,288,98645,1,0,
320,256,98970,2,0,B|320:256|96:160,2,200
256,256,100920,5,0,
256,256,101082,1,0,
256,192,101245,5,0,
256,192,101407,1,0,
256,128,101570,6,0,B|256:128|185:229|159:334|277:324|329:321|329:227|256:128,1,400
128,256,104495,5,0,
144,288,104657,1,0,
160,320,104820,1,0,
224,288,105145,1,0,
288,256,105470,1,0,
384,64,106120,5,0,
256,64,106445,1,0,
128,64,106770,1,0,
256,192,108395,6,0,B|256:192|256:320,1,100
192,128,110020,5,2,
320,256,110345,1,0,
320,128,110670,1,2,
192,256,110995,1,0,
256,192,113270,5,4,
185,121,115220,2,4,B|185:121|345:281,2,200
256,192,117133,12,4,121543
160,96,122094,1,4,
256,192,122566,1,4,
352,288,123039,1,4,
352,96,124614,5,4,
256,192,125086,1,4,
160,288,125559,1,4,
256,192,127132,5,0,
192,192,127744,2,0,B|192:192|192:128|256:128,2,100
256,192,129580,5,0,
352,192,130192,1,0,
448,192,130804,2,0,B|448:192|449:353|351:353|352:64|263:144|162:64|161:353|64:353|64:192,1,600
64,128,132946,5,0,
64,64,133252,2,0,B|64:64|129:29|214:33|256:64,1,200
320,64,134476,1,0,
352,96,134782,1,0,
416,160,135394,1,0,
288,192,136312,6,4,B|288:192|160:192,2,100
352,192,137536,1,0,
416,192,138148,2,0,B|416:192|416:288|224:288,1,200
224,288,139066,1,0,
192,288,139372,1,0,
96,288,139984,5,0,
96,256,140290,1,0,
96,96,141208,1,0,
151,251,141820,6,4,B|151:251|140:87|239:106|262:279|371:285|375:91,3,400
160,96,146692,6,2,B|160:96|384:96,1,200
416,96,147904,6,2,B|416:96|416:320,1,200
352,288,149116,6,2,B|352:288|128:288,1,200
96,288,150328,6,2,B|96:288|96:64,1,200
160,96,151540,6,4,B|160:96|288:96,1,100
320,96,152146,1,2,
384,96,152752,6,4,B|384:96|384:224,1,100
384,256,153358,1,2,
320,256,153964,6,4,B|320:256|192:256,1,100
160,256,154570,1,2,
160,192,154873,5,0,
224,192,155176,2,2,B|224:192|320:192,1,50
288,192,155479,1,0,
352,192,155782,1,2,
416,192,156388,6,4,B|416:192|415:96|256:96,1,200
192,96,157600,1,0,
128,96,157903,1,0,
64,96,158206,1,0,
64,192,158812,6,4,B|64:192|65:288|224:288,3,200
128,64,170756,5,0,
384,320,171930,1,0,
320,128,173104,1,0,
192,256,173691,1,0,
224,160,174278,1,0,
288,224,174571,1,0,
256,192,174865,1,0,
256,192,175011,1,0,
256,192,175158,1,0,
128,160,175452,6,0,B|128:160|83:94|128:64|170:18|250:9|319:14|431:13|456:79|473:107|476:212|464:304|402:349|345:376|256:384|190:358|172:340|144:305|215:269|262:144|192:96|160:128,1,1000
192,128,180159,5,0,
256,32,180755,1,0,
320,128,181352,1,0,
416,192,181948,1,0,
320,256,182545,5,0,
256,352,183142,1,0,
192,256,183738,1,0,
96,192,184335,1,0,
224,160,184931,5,0,
256,96,185230,1,0,
288,160,185528,1,0,
352,192,185826,1,0,
288,224,186125,5,0,
256,288,186423,1,0,
224,224,186721,1,0,
160,192,187019,1,0,
224,160,187318,5,0,
256,96,187616,1,0,
288,160,187914,1,0,
352,192,188213,1,0,
256,192,188511,5,0,
256,192,188660,1,0,
256,192,188809,1,0,
256,192,188958,1,0,
256,192,189108,1,0,
256,192,189257,1,0,
256,192,189406,1,0,
256,192,189555,1,0,
256,192,189704,1,6,
96,32,190893,5,0,
160,64,191187,2,0,B|160:64|288:128,1,100
288,128,191775,1,4,
416,192,192364,1,4,
352,256,192952,5,0,
288,320,193247,6,0,B|288:320|224:288,2,50
192,272,193835,2,0,B|192:272|128:240,2,50
96,224,194424,1,0,
64,160,195601,6,0,B|64:160|84:65|256:64,1,200
288,64,196483,1,0,
352,64,196778,2,0,B|352:64|436:76|448:256,1,200
448,288,197660,1,0,
384,288,197955,2,0,B|384:288|347:186|192:192,1,200
160,192,198837,1,0,
96,192,199132,1,4,
64,64,200309,5,0,
160,64,200897,2,0,B|160:64|224:64|224:128|352:128,1,200
448,128,202074,1,0,
352,128,202663,2,0,B|352:128|288:128|288:192|160:192,1,200
128,192,203545,1,0,
64,192,203840,1,0,
160,192,204428,2,0,B|160:192|224:192|224:256|352:256,1,200
448,256,205605,1,0,
352,256,206046,2,0,B|352:256|288:256|288:320|160:320,1,200
64,320,207076,1,0,
256,64,210727,5,0,
288,96,210872,1,0,
320,128,211017,1,0,
352,160,211162,1,0,
384,192,211307,5,0,
352,224,211452,1,0,
320,256,211597,1,0,
288,288,211742,1,0,
256,320,211887,5,0,
224,288,212032,1,0,
192,256,212177,1,0,
160,224,212323,1,0,
128,192,212468,5,0,
160,160,212613,1,0,
192,128,212758,1,0,
224,96,212903,1,0,
256,64,213048,5,0,
352,96,213628,5,0,
256,192,214209,1,0,
160,288,214789,1,0,
208,144,215369,5,2,
208,144,215514,1,2,
208,144,215659,1,2,
304,240,216095,5,2,
304,240,216240,1,2,
304,240,216385,1,2,
256,192,217623,12,0,219951
256,192,219951,12,0,222005
256,192,222005,12,0,223968
256,192,223968,12,0,228810
256,192,234844,5,0,
