osu file format v5

[General]
AudioFilename: 13 Lee.mp3
AudioLeadIn: 0
PreviewTime: 32401
Countdown: 3
SampleSet: Normal
StackLeniency: 0.7
Mode: 0
LetterboxInBreaks: 1
EditorBookmarks: 11885,32401

[Metadata]
Title:Lee
Artist:Tenacious D
Creator:Frekydelic
Version:UNLEASH ROCKETSAUCE.
Source:
Tags:

[Difficulty]
HPDrainRate:5
CircleSize:5
OverallDifficulty:5
SliderMultiplier:1.4
SliderTickRate:1

[Events]
//Background and Video events
0,0,"tenacious-d.jpg"
//Break Periods
2,42533,46832
//Storyboard Layer 0 (Background)
//Storyboard Layer 1 (Failing)
//Storyboard Layer 2 (Passing)
//Storyboard Layer 3 (Foreground)
//Storyboard Sound Samples
//Background Colour Transformations
3,100,163,162,255

[TimingPoints]
11885,325.653279401977,4,1,0,100,1

[HitObjects]
96,96,12210,5,0
160,96,12373,1,0
224,96,12536,1,0
320,96,12861,1,0
320,160,13024,1,0
320,288,13350,1,0
256,288,13513,1,0
192,288,13676,1,0
128,288,13838,1,4
96,160,14653,5,0
160,160,14815,1,0
224,160,14978,1,0
288,160,15141,1,4
352,160,15304,1,4
352,256,15630,1,4
96,96,17421,5,0
192,96,17746,1,0
288,96,18072,1,0
288,160,18235,1,0
384,160,18560,1,0
384,256,18886,1,0
288,320,19863,5,0
224,320,20026,1,0
160,320,20189,1,0
96,320,20351,1,0
96,224,20677,1,2
96,160,20840,1,2
192,160,21166,1,2
256,160,21328,1,2
160,288,22143,5,0
224,288,22305,1,0
320,288,22631,1,0
384,288,22794,1,0
384,192,23120,1,0
384,128,23282,1,0
384,64,23445,1,0
288,64,23771,1,4
224,64,23934,1,4
160,64,24096,1,4
64,160,24911,5,0
64,256,25236,1,0
96,320,25399,2,2,C|352:256,1,210
288,192,26213,1,4
256,160,26376,1,2
224,128,26539,1,4
96,64,27842,5,0
96,128,28004,1,0
160,128,28167,1,0
160,192,28330,1,0
224,192,28493,1,0
224,256,28656,1,0
288,256,28818,1,2
352,256,28981,1,8
352,192,29144,1,2
128,288,30447,5,0
192,288,30610,1,0
256,288,30772,1,0
320,224,31098,1,0
384,192,31261,1,0
320,160,31424,1,0
384,128,31587,2,0,C|384:32|298:31|288:96,1,245
288,96,32726,5,0
256,96,32889,1,0
224,96,33052,1,0
224,128,33215,5,0
224,160,33378,1,0
224,192,33540,1,0
224,224,33703,5,0
192,224,33866,1,0
160,224,34029,5,0
128,224,34192,1,0
128,256,34355,1,0
128,288,34517,5,0
160,288,34680,1,0
192,288,34843,1,0
224,288,35006,5,0
256,288,35169,1,0
288,288,35332,1,0
320,288,35494,5,0
320,256,35657,1,0
320,224,35820,1,0
320,192,35983,5,0
320,160,36146,1,0
352,160,36308,1,0
416,224,36634,5,0
416,256,36797,1,0
416,288,36960,1,0
352,288,37123,5,6
320,288,37285,5,6
256,192,37774,5,0
192,192,37937,2,0,C|0:32,1,210
96,32,38751,5,0
160,32,38914,2,0,C|448:32,1,280
416,128,40054,5,0
416,192,40216,1,0
416,256,40379,2,0,C|320:256,1,70
288,256,40868,5,0
224,256,41030,5,4
128,256,41356,5,0
128,192,41519,1,0
128,128,41682,2,0,C|224:96,1,70
256,64,42007,5,4
352,64,42333,5,4
96,160,48154,5,4
96,64,48439,5,4
192,64,48724,5,4
288,64,49050,5,4
384,64,49376,5,4
384,160,49701,5,4
288,160,50027,5,4
192,160,50353,5,4
96,160,50678,5,4
96,256,51004,5,4
192,256,51330,5,4
288,256,51655,5,4
384,256,51981,5,4
320,320,52307,5,4
224,320,52632,5,4
128,288,52958,5,4
128,192,53242,6,6,C|96:128|160:96|192:160|192:192|160:224|224:256,1,350
192,192,54545,2,6,C|192:96|256:128|256:192|224:256,1,280
192,192,55685,2,6,C|96:160|64:256|128:256|160:256|192:288|128:320|96:352|192:352|256:256|224:224|256:192|320:128|256:64,1,910
224,128,58127,5,14
128,192,58453,5,14
