osu file format v6

[General]
AudioFilename: 07 Explosivo.mp3
AudioLeadIn: 0
PreviewTime: 70377
Countdown: 0
SampleSet: Normal
StackLeniency: 0.7
Mode: 0
LetterboxInBreaks: 1

[Editor]
Bookmarks: 30490,70591
DistanceSpacing: 0.800000011920929
BeatDivisor: 4
GridSize: 8

[Metadata]
Title:Explosivo
Artist:Tenacious D
Creator:adam2046
Version:Easy
Source:
Tags:

[Difficulty]
HPDrainRate:4
CircleSize:3
OverallDifficulty:2
SliderMultiplier:0.8
SliderTickRate:1

[Events]
//Background and Video events
0,0,"boom.png"
//Break Periods
2,63382,69732
//Storyboard Layer 0 (Background)
//Storyboard Layer 1 (Fail)
//Storyboard Layer 2 (Pass)
//Storyboard Layer 3 (Foreground)
//Storyboard Sound Samples
//Background Colour Transformations
3,100,0,0,0

[TimingPoints]
30512,318.606627017842,4,1,0,100,1,0
58519,310.880829015544,4,1,0,100,1,0
63492,327.868852459016,4,1,0,100,1,0
71292,315.789473684211,4,1,0,100,1,0
76344,318.606627017842,4,1,0,100,1,0
83970,312.5,4,1,0,100,1,0
85850,309.278350515464,4,1,0,100,1,0
87087,306.122448979592,4,1,0,100,1,0
88923,272.727272727273,4,1,0,100,1,0
90025,240,4,1,0,100,1,0
90985,218.181818181818,4,1,0,100,1,0

[Colours]
Combo1 : 13,100,0
Combo2 : 255,0,0
Combo3 : 95,49,98
Combo4 : 19,0,125

[HitObjects]
200,128,30512,1,2
200,192,30830,2,0,L|288:192,1,80,0|0
344,192,31467,2,0,L|344:280,1,80
256,176,32423,5,4
64,168,33379,6,0,L|64:248,1,80
128,248,34016,2,0,L|216:248,1,80
272,248,34653,1,0
272,120,35291,2,2,L|184:120,1,80,2|6
160,176,35928,5,8
120,232,36246,2,0,B|56:296,3,80,0|8|0|8
64,352,37521,2,0,B|320:352,1,240
360,240,39114,6,0,B|360:152,1,80
360,96,39751,1,0
256,168,40388,1,2
128,168,41026,5,2
128,296,41663,2,0,B|224:296,1,80
208,232,42300,1,0
208,168,42619,2,0,B|208:80,2,80
272,168,43574,5,0
272,296,44212,1,0
208,296,44530,1,0
136,192,45167,1,0
136,64,45805,2,0,B|304:64,1,160
392,152,47079,5,2
296,152,47557,2,2,B|240:152,2,40
296,248,48353,5,0
232,248,48672,1,0
104,248,49309,1,0
104,184,49628,1,0
232,184,50265,1,0
360,176,50902,2,0,B|360:352,1,160
296,336,51858,1,0
232,336,52177,5,2
232,240,52655,2,2,B|232:192,2,40
176,160,53451,5,2
176,288,54088,1,0
304,288,54726,1,2
304,160,55363,1,4
176,160,56000,6,0,B|88:160,2,80
304,160,57274,2,0,B|392:160,2,80
176,168,58519,5,2
136,216,58829,1,0
184,264,59140,1,4
256,160,59762,5,2
296,208,60072,1,0
264,264,60383,1,4
392,272,61006,6,4,B|392:200|304:64|152:152|120:216|120:280,1,400
120,328,62871,1,0
184,328,63182,1,0
256,192,71292,5,2
256,64,71923,1,0
384,64,72555,2,0,B|480:64,1,80
464,128,73186,6,4,B|368:128,1,80
272,192,74134,5,0
208,192,74449,1,0
144,192,74765,2,0,B|144:288,1,80
272,272,75713,2,0,B|368:272,1,80
448,192,76662,5,0
448,64,77299,1,0
320,64,77937,2,0,B|320:232,2,160
192,64,79848,2,0,B|16:64,2,160
192,128,81441,5,0
192,192,81760,1,0
192,256,82078,1,0
320,256,82716,1,0
320,128,83353,1,4
440,176,83970,6,0,B|400:288|248:320|200:160,2,320,0|0|0
256,192,86623,12,4,95894
