osu file format v6

[General]
AudioFilename: 02 Classico.mp3
AudioLeadIn: 0
PreviewTime: -1
Countdown: 1
SampleSet: Soft
StackLeniency: 0.7
Mode: 0
LetterboxInBreaks: 1

[Editor]
DistanceSpacing: 0.800000011920929
BeatDivisor: 6
GridSize: 32

[Metadata]
Title:Classico
Artist:Tenacious D
Creator:Trzcinek
Version:Normal
Source:
Tags:Tenac, Tenacious, D, Ious, Kyle, Gass, Jack, Black, Sperm, Classico, Bach

[Difficulty]
HPDrainRate:6
CircleSize:5
OverallDifficulty:5
SliderMultiplier:2.1
SliderTickRate:4

[Events]
//Background and Video events
//Break Periods
//Storyboard Layer 0 (Background)
//Storyboard Layer 1 (Fail)
//Storyboard Layer 2 (Pass)
//Storyboard Layer 3 (Foreground)
//Storyboard Sound Samples
//Background Colour Transformations
3,100,40,88,39

[TimingPoints]
0,1000,4,2,0,100,1,0

[Colours]
Combo1 : 0,0,255
Combo2 : 80,74,170
Combo3 : 0,64,64
Combo4 : 191,53,125
Combo5 : 91,87,36

[HitObjects]
160,160,500,1,0
224,160,833,1,0
224,224,1166,1,0
352,224,2000,1,0
320,192,2333,1,0
256,192,2666,1,0
288,288,3333,1,0
256,256,3666,1,0
320,224,4000,1,0
320,160,4333,1,0
320,96,4666,1,0
256,96,5000,1,0
224,160,5333,1,0
256,288,6166,5,0
256,256,6333,1,0
256,224,6500,1,0
256,192,6666,1,0
256,160,6833,1,0
256,96,7166,1,0
256,64,7333,1,0
288,64,7500,1,0
320,128,8000,1,0
384,192,8666,1,0
352,352,9666,1,0
256,256,10500,1,0
256,224,10666,1,0
256,160,11166,1,0
256,128,11500,1,0
256,64,11833,1,0
256,224,12833,5,0
256,224,14000,1,0
256,64,15000,1,0
256,224,16000,1,0
384,96,17166,1,0
224,128,18166,1,0
288,288,19333,5,0
288,256,19500,1,0
288,192,20000,1,0
288,160,20333,1,0
288,128,20666,1,0
288,64,21000,1,0
320,128,21333,1,0
288,160,21666,1,0
288,224,22000,1,0
352,192,22333,1,0
192,224,26000,1,0
160,128,26500,1,0
224,128,27000,1,0
256,160,27333,1,0
224,256,28000,1,0
320,224,28666,1,0
192,192,29333,1,0
160,256,29833,1,0
192,288,30166,1,0
192,288,30833,1,0
192,288,31166,1,0
192,288,31666,1,0
192,288,32000,1,0
192,288,32333,1,0
192,288,32666,1,0
192,288,33000,1,0
224,224,33500,1,0
256,224,33666,1,0
320,256,34166,1,0
352,288,34500,1,0
352,224,34833,1,0
320,192,35166,1,0
256,160,35500,1,0
192,128,35833,1,0
192,192,36166,1,0
224,224,36500,1,0
224,224,36666,5,0
224,224,36833,1,0
224,160,37166,1,0
224,96,37500,1,0
288,128,37833,1,0
288,192,38333,1,0
288,256,38666,1,0
256,224,39000,1,0
192,192,39333,1,0
256,224,39500,1,0
320,128,40166,5,0
224,128,40833,1,0
256,224,41500,1,0
352,192,42166,1,0
256,32,43333,5,0
256,96,43666,1,0
256,128,44000,1,0
256,160,44166,1,0
160,256,45000,1,0
160,192,45333,1,0
160,128,45666,1,0
288,128,46500,5,0
288,160,46833,1,0
288,192,47000,1,0
288,256,47333,1,0
224,224,47833,1,0
224,96,48500,1,0
256,128,48833,1,0
256,192,49166,1,0
320,192,49500,1,0
352,128,49833,1,0
352,64,50333,1,0
320,64,50500,1,0
256,64,51000,5,0
224,96,51166,1,0
256,64,51500,1,0
224,96,51833,1,0
256,64,52166,1,0
224,96,52500,1,0
256,64,52833,1,0
224,128,53333,1,0
224,128,53833,5,0
224,128,54000,1,0
224,128,54333,1,0
224,128,54666,1,0
224,128,55000,1,0
224,128,55333,1,0
