osu file format v14

[General]
AudioFilename: Classico.mp3
AudioLeadIn: 0
PreviewTime: 30786
Countdown: 0
SampleSet: Soft
StackLeniency: 0.2
Mode: 0
LetterboxInBreaks: 0
WidescreenStoryboard: 0

[Editor]
DistanceSpacing: 0.9
BeatDivisor: 4
GridSize: 4
TimelineZoom: 1.6

[Metadata]
Title:Classico
TitleUnicode:Classico
Artist:Tenacious D
ArtistUnicode:Tenacious D
Creator:CoLouRed GlaZeE
Version:fLOW
Source:Tenacious D in The Pick of Destiny
Tags:comedy rock flow ar10 oundtrack
BeatmapID:686761
BeatmapSetID:210893

[Difficulty]
HPDrainRate:8
CircleSize:4.6
OverallDifficulty:9
ApproachRate:9.8
SliderMultiplier:3
SliderTickRate:1

[Events]
//Background and Video events
0,0,"origin.png",0,0
//Break Periods
//Storyboard Layer 0 (Background)
//Storyboard Layer 1 (Fail)
//Storyboard Layer 2 (Pass)
//Storyboard Layer 3 (Foreground)
//Storyboard Sound Samples

[TimingPoints]
487,352.941176470588,4,1,0,40,1,0
4722,-66.6666666666667,4,1,0,40,0,0
5075,-100,4,1,0,40,0,0
5428,-200,4,1,0,40,0,0
5781,-100,4,2,0,50,0,0
6159,352.941176470588,4,1,0,40,1,0
6159,-200,4,2,0,50,0,0
7570,352.941176470588,3,2,0,50,1,0
10393,352.941176470588,4,2,0,50,1,0
10393,-200,4,2,0,50,0,0
11804,352.941176470588,3,2,0,50,1,0
13921,-200,3,2,0,50,0,0
14274,-100,3,2,0,50,0,0
18875,352.941176470588,3,2,0,40,1,0
19933,-200,3,2,0,20,0,0
20992,352.941176470588,4,2,0,50,1,0
25227,-100,4,1,0,50,0,0
27344,-200,4,1,0,40,0,0
27697,-100,4,1,0,50,0,0
30168,-200,4,1,0,40,0,0
30521,-100,4,1,0,50,0,0
30880,352.941176470588,4,2,0,50,1,0
30880,-200,4,2,0,50,0,0
31232,-100,4,2,0,50,0,1
38997,-66.6666666666667,4,2,0,50,0,1
39350,-100,4,2,0,50,0,1
45703,-66.6666666666667,4,2,0,50,0,1
46385,352.941176470588,4,2,0,50,1,0
46385,-100,4,2,0,50,0,0
50821,352.941176470588,4,2,0,50,1,0
50821,-66.6666666666667,4,2,0,50,0,0
55056,-100,4,2,0,40,0,0
55409,-100,4,2,0,30,0,0
55762,-100,4,2,0,20,0,0
56115,-100,4,2,0,10,0,0

[Colours]
Combo1 : 255,227,142
Combo2 : 255,255,121
Combo3 : 192,192,192
Combo4 : 82,82,82

[HitObjects]
72,232,134,5,0,0:0:0:0:
151,115,310,1,0,0:0:0:0:
288,84,487,2,0,B|352:48|408:56|452:76|452:76|440:108|408:120,1,225,2|0,0:0|0:0,0:0:0:0:
252,208,839,2,0,P|188:185|151:111,1,150
388,312,1192,6,0,B|400:344|424:352|424:352|408:264|436:180,1,225,2|0,0:0|0:0,0:0:0:0:
424,52,1545,2,0,P|361:55|343:131,1,150
212,352,1898,6,0,P|136:336|56:220,1,225,2|0,0:0|0:0,0:0:0:0:
156,92,2251,2,0,L|168:244,1,150
268,119,2604,6,0,L|280:344,1,225,2|0,0:0|0:0,0:0:0:0:
396,164,2957,2,0,L|404:320,1,150
440,352,3222,2,0,L|444:276,1,75,0|2,0:0|0:0,0:0:0:0:
396,164,3486,5,0,0:0:0:0:
232,64,3662,1,0,0:0:0:0:
124,208,3839,1,0,0:0:0:0:
296,336,4016,2,0,P|316:264|284:200,1,150,2|0,0:0|0:0,0:0:0:0:
140,56,4369,1,0,0:0:0:0:
148,112,4457,1,0,0:0:0:0:
156,168,4545,1,0,0:0:0:0:
468,220,4722,6,0,L|464:108,1,112.500004291535,8|0,0:0|0:0,0:0:0:0:
392,244,4898,2,0,L|388:132,1,112.500004291535,8|0,0:0|0:0,0:0:0:0:
320,268,5075,6,0,L|316:192,1,75,8|0,0:0|0:0,0:0:0:0:
248,288,5251,2,0,L|244:212,1,75,8|0,0:0|0:0,0:0:0:0:
180,308,5428,6,0,L|176:196,1,112.5,8|0,0:0|0:0,0:0:0:0:
172,176,5781,2,0,B|156:252|204:248|192:324,1,150,4|0,0:0|0:0,0:0:0:0:
76,72,6159,6,0,L|80:112,1,37.5,2|0,0:0|0:0,0:0:0:0:
152,64,6335,2,0,L|156:104,1,37.5,2|0,0:0|0:0,0:0:0:0:
228,56,6511,2,0,L|232:100,1,37.5,2|0,0:0|0:0,0:0:0:0:
304,48,6688,2,0,L|308:88,1,37.5,2|0,0:0|0:0,0:0:0:0:
480,220,6864,6,0,L|476:257,1,37.5,2|0,0:0|0:0,0:0:0:0:
404,212,7041,2,0,L|400:249,1,37.5,2|0,0:0|0:0,0:0:0:0:
328,204,7217,2,0,L|324:241,1,37.5,2|0,0:0|0:0,0:0:0:0:
252,196,7394,2,0,L|248:233,1,37.5,2|0,0:0|0:0,0:0:0:0:
160,24,7570,6,0,B|104:88|104:172|104:172|160:116,1,225
364,120,7922,2,0,P|308:84|224:76,1,150,4|0,0:0|0:0,0:0:0:0:
164,180,8187,1,0,0:0:0:0:
187,191,8275,2,0,P|113:185|50:147,1,150,2|2,0:0|0:0,0:0:0:0:
256,372,8628,6,0,B|280:340|280:340|296:156,1,225,2|0,0:0|0:0,0:0:0:0:
308,36,8981,2,0,P|364:88|436:100,1,150,4|0,0:0|0:0,0:0:0:0:
348,256,9246,1,0,0:0:0:0:
332,276,9334,2,0,P|397:242|471:249,1,150,2|2,0:0|0:0,0:0:0:0:
256,24,9687,6,0,L|228:248,1,225,2|0,0:0|0:0,0:0:0:0:
328,220,10040,2,0,L|308:372,1,150,8|8,0:0|0:0,0:0:0:0:
360,120,10305,1,0,0:0:0:0:
352,104,10393,6,0,L|344:144,1,37.5,2|0,0:0|0:0,0:0:0:0:
268,88,10569,2,0,L|272:128,1,37.5,2|0,0:0|0:0,0:0:0:0:
312,248,10745,2,0,L|320:287,1,37.5,2|0,0:0|0:0,0:0:0:0:
228,266,10921,2,0,L|247:301,1,37.5,2|0,0:0|0:0,0:0:0:0:
140,128,11098,6,0,L|122:164,1,37.5,2|0,0:0|0:0,0:0:0:0:
62,91,11274,2,0,L|56:129,1,37.5,2|0,0:0|0:0,0:0:0:0:
136,272,11451,2,0,L|125:312,1,37.5,2|0,0:0|0:0,0:0:0:0:
52,250,11627,2,0,L|53:290,1,37.5,2|0,0:0|0:0,0:0:0:0:
356,320,11804,6,0,P|285:333|224:288,1,150
308,168,12068,1,0,0:0:0:0:
324,188,12156,2,0,B|344:136|336:76|336:76|356:40,1,150,4|0,0:0|0:0,0:0:0:0:
132,48,12509,6,0,L|192:92,1,75,2|0,0:0|0:0,0:0:0:0:
76,116,12686,2,0,L|108:184,1,75,2|0,0:0|0:0,0:0:0:0:
20,188,12862,2,0,L|44:336,1,150,2|0,0:0|0:0,0:0:0:0:
200,308,13127,1,0,0:0:0:0:
220,328,13215,2,0,B|236:348|236:348|112:336,1,150,4|0,0:0|0:0,0:0:0:0:
224,212,13568,6,0,L|216:136,1,75,2|0,0:0|0:0,0:0:0:0:
340,40,13745,2,0,L|348:116,1,75,2|0,0:0|0:0,0:0:0:0:
232,248,13921,2,0,B|240:176|196:172|204:100,1,150,2|0,0:0|0:0,0:0:0:0:
408,96,14451,5,0,0:0:0:0:
420,168,14539,1,0,0:0:0:0:
432,236,14627,2,0,P|400:260|368:272,1,75,2|0,0:0|0:0,0:0:0:0:
232,248,14803,2,0,P|192:255|162:271,1,75,2|0,0:0|0:0,0:0:0:0:
432,240,14980,2,0,B|388:228|388:228|368:136|292:80,1,225,4|0,0:0|0:0,0:0:0:0:
164,24,15333,2,0,L|132:172,1,150
216,232,15598,1,0,0:0:0:0:
236,212,15686,6,0,L|208:360,1,150,2|2,0:0|0:0,0:0:0:0:
392,160,16039,2,0,P|352:96|212:72,1,225,4|0,0:0|0:0,0:0:0:0:
108,216,16392,2,0,B|164:204|224:200|224:200|196:180,1,150
304,208,16656,1,0,0:0:0:0:
320,192,16745,6,0,P|324:272|272:308,1,150,2|2,0:0|0:0,0:0:0:0:
148,20,17098,2,0,B|140:64|140:64|176:244,1,225,4|0,0:0|0:0,0:0:0:0:
271,308,17451,2,0,B|286:342|286:342|236:327|175:328,1,150
76,288,17715,1,0,0:0:0:0:
52,304,17803,6,0,L|56:148,1,150,2|2,0:0|0:0,0:0:0:0:
212,48,18156,2,0,P|324:36|392:116,1,225,4|0,0:0|0:0,0:0:0:0:
280,132,18509,2,0,B|296:172|296:172|292:284,1,150
188,292,18774,1,0,0:0:0:0:
196,308,18875,6,0,L|48:288,1,150,2|0,0:0|0:0,0:0:0:0:
111,34,19227,2,0,B|108:152|108:152|124:180,1,150,2|0,0:0|0:0,0:0:0:0:
366,77,19580,2,0,B|360:96|304:112|304:112|228:96,1,150,2|0,0:0|0:0,0:0:0:0:
420,216,19845,1,0,0:0:0:0:
440,204,19933,6,0,L|432:280,1,75,2|0,0:0|0:0,0:0:0:0:
312,288,20286,2,0,L|304:364,1,75,2|0,0:0|0:0,0:0:0:0:
164,252,20639,2,0,L|172:328,1,75,2|0,0:0|0:0,0:0:0:0:
84,140,20904,1,0,0:0:0:0:
60,128,20992,6,0,L|212:120,1,150,6|0,0:0|0:0,0:0:0:0:
412,328,21344,2,0,P|424:252|388:192,1,150,2|0,0:0|0:0,0:0:0:0:
160,264,21697,2,0,B|144:288|144:288|208:276|268:280,1,150,2|0,0:0|0:0,0:0:0:0:
368,48,22050,1,2,0:0:0:0:
180,76,22227,1,2,0:0:0:0:
160,264,22403,1,2,0:0:0:0:
256,192,22492,12,2,25227,0:0:0:0:
56,236,25756,5,0,0:0:0:0:
124,232,25844,1,0,0:0:0:0:
192,224,25933,2,0,B|252:216|280:172|280:172|332:152|380:164|380:164|428:176|472:164,1,300,2|0,0:0|0:0,0:0:0:0:
340,332,26462,1,0,0:0:0:0:
160,280,26639,6,0,L|156:204,1,75,2|0,0:0|0:0,0:0:0:0:
32,124,26815,2,0,L|36:200,1,75
164,284,26991,2,0,L|159:204,1,75,2|0,0:0|0:0,0:0:0:0:
28,120,27167,2,0,L|32:199,1,75,2|0,0:0|0:0,0:0:0:0:
168,288,27344,2,0,L|160:136,1,150,2|0,0:0|0:0,0:0:0:0:
356,120,27874,1,0,0:0:0:0:
336,80,27962,1,0,0:0:0:0:
316,40,28050,6,0,L|300:264,1,225,2|0,0:0|0:0,0:0:0:0:
284,364,28403,2,0,P|208:348|180:280,1,150
12,128,28756,2,0,P|100:172|20:100,1,300,2|0,0:0|0:0,0:0:0:0:
260,136,29286,1,0,0:0:0:0:
272,112,29374,1,0,0:0:0:0:
284,88,29462,6,0,L|296:164,1,75,2|0,0:0|0:0,0:0:0:0:
448,84,29639,2,0,L|452:160,1,75
264,100,29815,2,0,L|260:176,1,75,2|0,0:0|0:0,0:0:0:0:
432,68,29991,2,0,L|436:144,1,75,2|0,0:0|0:0,0:0:0:0:
276,80,30168,2,0,L|280:232,1,150
156,352,30697,5,0,0:0:0:0:
88,324,30786,1,0,0:0:0:0:
52,264,30880,2,0,B|40:184|40:184|64:204,1,112.5,2|0,0:0|0:0,0:0:0:0:
80,204,31232,6,0,P|74:93|106:201,1,300,4|0,0:0|0:0,0:0:0:0:
264,320,31762,2,0,L|260:244,1,75,2|0,0:0|0:0,0:0:0:0:
440,312,31938,2,0,L|444:236,1,75,2|0,0:0|0:0,0:0:0:0:
284,336,32115,2,0,L|288:256,1,75,2|0,0:0|0:0,0:0:0:0:
428,328,32291,2,0,L|424:248,1,75,2|0,0:0|0:0,0:0:0:0:
272,324,32468,2,0,L|276:248,1,75,2|0,0:0|0:0,0:0:0:0:
424,316,32644,2,0,B|420:82|420:82|382:138,1,300,6|0,0:0|0:0,0:0:0:0:
136,128,33174,6,0,L|212:132,1,75,2|0,0:0|0:0,0:0:0:0:
116,272,33350,2,0,L|192:260,1,75,2|0,0:0|0:0,0:0:0:0:
124,132,33527,2,0,L|200:140,1,75,2|0,0:0|0:0,0:0:0:0:
104,264,33703,2,0,L|180:264,1,75,2|0,0:0|0:0,0:0:0:0:
120,124,33880,2,0,L|196:112,1,75,2|0,0:0|0:0,0:0:0:0:
108,284,34056,2,0,B|360:272|360:272|320:244,1,300,6|0,0:0|0:0,0:0:0:0:
228,140,34585,6,0,L|232:216,1,75
336,276,34762,2,0,L|332:200,1,75,2|0,0:0|0:0,0:0:0:0:
216,128,34938,2,0,L|220:204,1,75,2|0,0:0|0:0,0:0:0:0:
348,288,35115,2,0,L|344:212,1,75,2|0,0:0|0:0,0:0:0:0:
204,120,35291,2,0,L|208:196,1,75,2|0,0:0|0:0,0:0:0:0:
360,300,35468,2,0,B|351:48|351:48|328:92,1,300,6|0,0:0|0:0,0:0:0:0:
48,224,35997,6,0,P|84:232|120:220,1,75,2|0,0:0|0:0,0:0:0:0:
252,144,36174,2,0,P|287:132|323:140,1,75,2|0,0:0|0:0,0:0:0:0:
119,220,36350,2,0,P|83:231|47:223,1,75,2|0,0:0|0:0,0:0:0:0:
252,328,36527,2,0,P|320:328|328:260,1,150,4|0,0:0|0:0,0:0:0:0:
40,200,36880,2,0,P|68:208|108:236,1,75
257,231,37056,2,0,P|281:243|329:259,2,75,0|0|4,0:0|0:0|0:0,0:0:0:0:
152,88,37409,1,0,0:0:0:0:
372,124,37585,6,0,P|396:144|420:184,1,75
336,296,37762,2,0,L|344:372,2,75,0|0|4,0:0|0:0|0:0,0:0:0:0:
208,160,38115,1,0,0:0:0:0:
64,332,38291,6,0,P|96:332|140:320,1,75
280,296,38468,2,0,P|328:296|356:300,1,75
488,348,38644,2,0,P|416:324|352:196,1,225,6|0,0:0|0:0,0:0:0:0:
412,144,38997,2,0,P|312:48|276:184,1,337.500012874604,6|0,0:0|0:0,0:0:0:0:
248,244,39350,6,0,L|252:320,1,75,2|0,0:0|0:0,0:0:0:0:
120,264,39527,2,0,L|116:340,1,75
252,248,39703,2,0,L|248:324,1,75
104,272,39879,2,0,L|108:348,1,75
232,248,40056,6,0,L|236:324,1,75,2|0,0:0|0:0,0:0:0:0:
88,280,40232,2,0,L|84:356,1,75
252,252,40409,2,0,L|256:328,1,75
68,288,40585,2,0,L|72:364,1,75
276,248,40762,6,0,L|272:324,1,75,2|0,0:0|0:0,0:0:0:0:
52,284,40938,2,0,L|56:360,1,75
264,260,41115,2,0,L|272:336,1,75
40,280,41291,2,0,L|32:356,1,75
100,364,41468,5,2,0:0:0:0:
160,332,41556,1,0,0:0:0:0:
228,320,41644,1,0,0:0:0:0:
296,332,41732,1,0,0:0:0:0:
360,360,41821,1,2,0:0:0:0:
400,308,41909,1,0,0:0:0:0:
400,240,41997,1,2,0:0:0:0:
384,176,42085,1,0,0:0:0:0:
348,116,42174,6,0,B|308:84|308:84|128:80,1,225,2|0,0:0|0:0,0:0:0:0:
56,144,42527,2,0,B|52:312|52:312|88:264,1,225,4|0,0:0|0:0,0:0:0:0:
176,240,42879,2,0,P|292:232|368:304,1,225
432,320,43232,1,0,0:0:0:0:
468,264,43321,1,0,0:0:0:0:
472,196,43409,1,0,0:0:0:0:
460,128,43497,1,0,0:0:0:0:
416,76,43585,6,0,B|376:92|376:92|192:88,1,225,2|0,0:0|0:0,0:0:0:0:
80,176,43938,2,0,B|52:212|52:212|232:196,1,225,4|0,0:0|0:0,0:0:0:0:
356,156,44291,2,0,P|384:304|336:324,1,225
280,340,44644,1,0,0:0:0:0:
212,336,44732,1,0,0:0:0:0:
160,292,44821,1,0,0:0:0:0:
136,228,44909,1,0,0:0:0:0:
164,168,44997,6,0,P|305:164|151:193,1,525,6|0,0:0|0:0,0:0:0:0:
108,268,45703,2,0,P|368:260|100:220,1,787.500030040742,6|0,0:0|0:0,0:0:0:0:
188,244,46385,6,0,B|220:160|221:69|221:69|252:108,1,225
304,196,46737,2,0,P|380:204|448:80,1,225,2|0,0:0|0:0,0:0:0:0:
360,104,47090,2,0,P|343:178|459:259,1,225
432,180,47443,2,0,P|325:190|289:291,1,225,2|0,0:0|0:0,0:0:0:0:
272,360,47796,6,0,B|192:312|88:344|88:344|40:312|60:248,1,300,2|0,0:0|0:0,0:0:0:0:
168,128,48326,2,0,P|204:136|244:132,1,75,2|0,0:0|0:0,0:0:0:0:
388,160,48502,2,0,P|425:165|458:181,1,75,2|0,0:0|0:0,0:0:0:0:
340,272,48679,2,0,P|304:280|264:276,1,75,2|0,0:0|0:0,0:0:0:0:
132,212,48855,2,0,P|103:188|83:153,1,75,2|0,0:0|0:0,0:0:0:0:
192,304,49032,2,0,P|172:337|142:363,1,75,2|0,0:0|0:0,0:0:0:0:
324,320,49208,6,0,B|412:296|438:220|438:220|408:148|436:80,1,300,2|0,0:0|0:0,0:0:0:0:
304,44,49737,2,0,P|296:68|296:120,1,75,2|0,0:0|0:0,0:0:0:0:
298,250,49914,2,0,P|301:274|324:321,1,75,2|0,0:0|0:0,0:0:0:0:
220,372,50090,2,0,P|197:343|184:308,1,75,2|0,0:0|0:0,0:0:0:0:
184,184,50267,2,0,P|187:146|202:112,1,75,2|0,0:0|0:0,0:0:0:0:
80,308,50443,2,0,P|79:270|89:234,2,75,2|0|0,0:0|0:0|0:0,0:0:0:0:
440,328,50821,6,0,L|327:331,1,112.500004291535,6|0,0:0|0:0,0:0:0:0:
200,332,50997,2,0,L|87:335,1,112.500004291535
468,346,51173,6,0,L|355:342,1,112.500004291535,6|0,0:0|0:0,0:0:0:0:
204,324,51350,2,0,L|91:320,1,112.500004291535
459,319,51526,6,0,L|348:340,1,112.500004291535,6|0,0:0|0:0,0:0:0:0:
196,328,51703,2,0,L|85:349,1,112.500004291535
467,334,51879,6,0,L|354:347,1,112.500004291535,6|0,0:0|0:0,0:0:0:0:
208,324,52056,2,0,L|96:336,1,112.500004291535
88,192,52232,6,0,P|140:200|200:192,1,112.500004291535,6|0,0:0|0:0,0:0:0:0:
328,104,52409,2,0,L|440:96,1,112.500004291535
72,172,52585,6,0,P|123:184|183:180,1,112.500004291535,6|0,0:0|0:0,0:0:0:0:
308,100,52762,2,0,L|419:109,1,112.500004291535
80,204,52938,6,0,P|132:208|191:195,1,112.500004291535,6|0,0:0|0:0,0:0:0:0:
316,112,53115,2,0,L|428:113,1,112.500004291535
81,174,53291,6,0,P|130:192|190:196,1,112.500004291535,6|0,0:0|0:0,0:0:0:0:
316,112,53468,2,0,L|427:96,1,112.500004291535
244,28,53644,6,0,L|239:140,1,112.500004291535,6|0,0:0|0:0,0:0:0:0:
304,228,53821,2,0,L|300:341,1,112.500004291535
240,63,53997,6,0,L|236:176,1,112.500004291535,6|0,0:0|0:0,0:0:0:0:
330,238,54173,2,0,L|315:350,1,112.500004291535
252,56,54350,6,0,L|255:167,1,112.500004291535,6|0,0:0|0:0,0:0:0:0:
309,238,54526,2,0,L|298:350,1,112.500004291535
244,44,54703,6,0,L|232:155,2,112.500004291535,2|6|6,0:0|0:0|0:0,0:0:0:0:
256,192,54968,12,2,56115,0:0:0:0:
