osu file format v14

[General]
AudioFilename: Classico.mp3
AudioLeadIn: 0
PreviewTime: 30786
Countdown: 0
SampleSet: Soft
StackLeniency: 0.7
Mode: 0
LetterboxInBreaks: 0
WidescreenStoryboard: 0

[Editor]
DistanceSpacing: 1.2
BeatDivisor: 4
GridSize: 4
TimelineZoom: 1

[Metadata]
Title:Classico
TitleUnicode:Classico
Artist:Tenacious D
ArtistUnicode:Tenacious D
Creator:CoLouRed GlaZeE
Version:Normal
Source:Tenacious D in The Pick of Destiny
Tags:comedy rock flow ar10 oundtrack
BeatmapID:698779
BeatmapSetID:210893

[Difficulty]
HPDrainRate:5
CircleSize:3.6
OverallDifficulty:4.3
ApproachRate:5
SliderMultiplier:0.999999999999999
SliderTickRate:2

[Events]
//Background and Video events
0,0,"origin.png",0,0
//Break Periods
//Storyboard Layer 0 (Background)
//Storyboard Layer 1 (Fail)
//Storyboard Layer 2 (Pass)
//Storyboard Layer 3 (Foreground)
//Storyboard Sound Samples

[TimingPoints]
487,352.941176470588,4,1,0,40,1,0
6159,352.941176470588,4,2,0,50,1,0
7570,352.941176470588,3,2,0,50,1,0
10393,352.941176470588,4,2,0,50,1,0
11804,352.941176470588,3,2,0,50,1,0
18875,352.941176470588,3,2,0,40,1,0
19933,-100,3,2,0,20,0,0
20992,352.941176470588,4,2,0,50,1,0
25227,-100,4,1,0,40,0,0
30880,352.941176470588,4,2,0,50,1,0
31232,-100,4,2,0,50,0,1
46385,352.941176470588,4,2,0,50,1,0
50821,352.941176470588,4,2,0,50,1,0

[Colours]
Combo1 : 255,227,142
Combo2 : 255,255,121
Combo3 : 192,192,192
Combo4 : 82,82,82

[HitObjects]
116,320,134,5,0,0:0:0:0:
116,320,487,2,0,L|116:220,1,99.9999999999999,2|0,0:0|0:0,0:0:0:0:
216,152,1192,1,0,0:0:0:0:
452,116,1898,6,0,P|400:112|352:92,1,99.9999999999999,2|0,0:0|0:0,0:0:0:0:
252,32,2604,1,0,0:0:0:0:
12,36,3310,6,0,L|16:136,1,99.9999999999999,2|0,0:0|0:0,0:0:0:0:
100,220,4016,1,0,0:0:0:0:
304,348,4722,6,0,L|312:148,1,200,2|0,0:0|0:0,0:0:0:0:
108,292,6159,6,0,L|208:292,1,99.9999999999999,2|2,0:0|0:0,0:0:0:0:
248,180,6864,2,0,L|348:180,1,99.9999999999999,2|2,0:0|0:0,0:0:0:0:
432,92,7570,6,0,L|332:92,1,99.9999999999999,2|0,0:0|0:0,0:0:0:0:
100,32,8628,2,0,L|100:132,1,99.9999999999999,2|0,0:0|0:0,0:0:0:0:
212,344,9687,2,0,L|312:344,1,99.9999999999999,2|0,0:0|0:0,0:0:0:0:
424,304,10393,6,0,P|424:204|352:140,1,200,2|2,0:0|0:0,0:0:0:0:
264,60,11451,1,0,0:0:0:0:
144,44,11804,6,0,L|44:48,1,99.9999999999999,2|0,0:0|0:0,0:0:0:0:
40,288,12862,2,0,L|144:284,1,99.9999999999999,2|0,0:0|0:0,0:0:0:0:
372,348,13921,2,0,L|472:344,1,99.9999999999999,2|0,0:0|0:0,0:0:0:0:
472,224,14627,5,0,0:0:0:0:
472,224,14980,2,0,L|468:124,1,99.9999999999999,6|0,0:0|0:0,0:0:0:0:
244,36,16039,2,0,L|248:136,1,99.9999999999999,6|0,0:0|0:0,0:0:0:0:
8,168,17098,2,0,L|12:272,1,99.9999999999999,6|0,0:0|0:0,0:0:0:0:
248,320,18156,2,0,L|244:220,1,99.9999999999999,6|0,0:0|0:0,0:0:0:0:
132,164,18875,6,0,P|132:72|228:72,1,200,2|2,0:0|0:0,0:0:0:0:
340,64,19933,2,0,P|432:64|432:160,1,200,2|2,0:0|0:0,0:0:0:0:
324,192,20992,2,0,P|296:288|204:292,1,200,2|2,0:0|0:0,0:0:0:0:
188,176,22050,1,2,0:0:0:0:
68,168,22403,1,2,0:0:0:0:
256,192,22492,12,2,25227,0:0:0:0:
172,252,25933,5,0,0:0:0:0:
408,284,26639,2,0,L|404:180,1,99.9999999999999,2|0,0:0|0:0,0:0:0:0:
472,84,27344,2,0,P|376:64|300:124,1,200,2|2,0:0|0:0,0:0:0:0:
60,144,28756,6,0,L|64:244,1,99.9999999999999,2|0,0:0|0:0,0:0:0:0:
144,332,29462,2,0,B|188:344|188:344|348:336,1,200,2|2,0:0|0:0,0:0:0:0:
492,144,30880,5,2,0:0:0:0:
388,88,31232,2,0,L|184:84,1,200,4|0,0:0|0:0,0:0:0:0:
76,132,32291,1,2,0:0:0:0:
76,132,32644,2,0,B|68:176|68:176|80:332,1,200,4|0,0:0|0:0,0:0:0:0:
200,336,33703,5,2,0:0:0:0:
200,336,34056,2,0,B|240:344|240:344|400:328,1,200,4|0,0:0|0:0,0:0:0:0:
440,216,35115,1,2,0:0:0:0:
440,216,35468,2,0,B|448:168|448:168|432:16,1,200,4|0,0:0|0:0,0:0:0:0:
312,36,36527,6,0,L|308:136,1,99.9999999999999,4|0,0:0|0:0,0:0:0:0:
204,80,37232,2,0,L|200:180,1,99.9999999999999
96,124,37938,2,0,L|92:224,1,99.9999999999999,4|2,0:0|0:0,0:0:0:0:
20,320,38644,1,0,0:0:0:0:
136,288,38997,1,2,0:0:0:0:
248,332,39350,6,0,P|348:340|416:272,1,200,4|0,0:0|0:0,0:0:0:0:
308,220,40409,2,0,P|340:124|276:64,1,200
156,52,41468,2,0,P|104:56|68:84,1,99.9999999999999
164,156,42174,1,8,0:0:0:0:
68,228,42527,1,8,0:0:0:0:
140,324,42879,1,8,0:0:0:0:
260,340,43232,1,8,0:0:0:0:
348,260,43585,6,0,L|248:252,1,99.9999999999999,8|8,0:0|0:0,0:0:0:0:
296,140,44291,2,0,L|196:132,1,99.9999999999999,8|8,0:0|0:0,0:0:0:0:
76,144,44997,6,0,L|88:244,1,99.9999999999999,4|0,0:0|0:0,0:0:0:0:
180,320,45703,2,0,L|196:220,1,99.9999999999999,4|0,0:0|0:0,0:0:0:0:
180,112,46385,5,0,0:0:0:0:
296,84,46737,1,8,0:0:0:0:
400,144,47090,1,0,0:0:0:0:
452,248,47443,1,8,0:0:0:0:
452,248,47796,6,0,B|404:272|404:272|356:276,1,99.9999999999999,2|0,0:0|0:0,0:0:0:0:
244,320,48502,2,0,B|192:300|192:300|148:296,1,99.9999999999999
28,288,49208,2,0,L|24:188,1,99.9999999999999,2|0,0:0|0:0,0:0:0:0:
60,72,49914,2,0,B|116:56|116:56|208:52,1,150
320,112,50821,5,2,0:0:0:0:
356,228,51173,1,2,0:0:0:0:
476,244,51526,2,0,L|484:344,1,99.9999999999999,2|2,0:0|0:0,0:0:0:0:
364,344,52232,5,2,0:0:0:0:
268,276,52585,1,2,0:0:0:0:
240,172,52938,2,0,L|232:72,1,99.9999999999999,2|2,0:0|0:0,0:0:0:0:
112,64,53644,5,2,0:0:0:0:
76,180,53997,1,2,0:0:0:0:
132,288,54350,1,2,0:0:0:0:
244,328,54703,2,0,L|296:332,1,50,2|4,0:0|0:0,0:0:0:0:
