osu file format v14

[General]
AudioFilename: Classico.mp3
AudioLeadIn: 0
PreviewTime: 30786
Countdown: 0
SampleSet: Normal
StackLeniency: 0.2
Mode: 0
LetterboxInBreaks: 0
WidescreenStoryboard: 0

[Editor]
DistanceSpacing: 1.4
BeatDivisor: 4
GridSize: 4
TimelineZoom: 1

[Metadata]
Title:Classico
TitleUnicode:Classico
Artist:Tenacious D
ArtistUnicode:Tenacious D
Creator:CoLouRed GlaZeE
Version:Insane
Source:Tenacious D in The Pick of Destiny
Tags:comedy rock flow ar10 oundtrack
BeatmapID:496058
BeatmapSetID:210893

[Difficulty]
HPDrainRate:7
CircleSize:4
OverallDifficulty:8
ApproachRate:8.8
SliderMultiplier:2
SliderTickRate:1

[Events]
//Background and Video events
0,0,"origin.png",0,0
//Break Periods
//Storyboard Layer 0 (Background)
//Storyboard Layer 1 (Fail)
//Storyboard Layer 2 (Pass)
//Storyboard Layer 3 (Foreground)
//Storyboard Sound Samples

[TimingPoints]
487,352.941176470588,4,1,0,40,1,0
6159,352.941176470588,4,2,0,50,1,0
7570,352.941176470588,3,2,0,50,1,0
10393,352.941176470588,4,2,0,50,1,0
11804,352.941176470588,3,2,0,50,1,0
18875,352.941176470588,3,2,0,40,1,0
19933,-100,3,2,0,20,0,0
20992,352.941176470588,4,2,0,50,1,0
25139,-100,4,1,0,40,0,0
30880,352.941176470588,4,2,0,50,1,0
31232,-100,4,2,0,50,0,1
46385,352.941176470588,4,2,0,50,1,0
50821,352.941176470588,4,2,0,50,1,0
55056,-100,4,2,0,40,0,0
55409,-100,4,2,0,30,0,0
55762,-100,4,2,0,20,0,0
56115,-100,4,2,0,10,0,0

[Colours]
Combo1 : 255,227,142
Combo2 : 255,255,121
Combo3 : 192,192,192
Combo4 : 82,82,82

[HitObjects]
56,100,134,5,0,0:0:0:0:
176,176,310,1,0,0:0:0:0:
228,44,487,1,2,0:0:0:0:
264,320,839,5,8,0:0:0:0:
400,284,1016,1,0,0:0:0:0:
300,192,1192,2,0,B|328:160|328:160|324:-4,1,200,2|8,0:0|0:0,0:0:0:0:
204,80,1722,5,0,0:0:0:0:
80,144,1899,2,0,P|48:240|76:336,1,200,2|8,0:0|0:0,0:0:0:0:
180,240,2428,5,0,0:0:0:0:
264,128,2605,2,0,B|288:120|304:96|304:96|288:172|288:244,1,200,2|8,0:0|0:0,0:0:0:0:
172,164,3134,5,0,0:0:0:0:
104,272,3311,2,0,P|164:352|260:360,1,200,2|8,0:0|0:0,0:0:0:0:
220,224,3840,5,0,0:0:0:0:
196,84,4017,2,0,B|272:96|342:77|342:77|300:112,1,200,2|8,0:0|0:0,0:0:0:0:
220,224,4546,5,0,0:0:0:0:
352,184,4722,2,0,L|452:180,1,100
328,112,5075,2,0,L|228:104,1,100
92,68,5428,1,0,0:0:0:0:
76,76,6159,6,0,L|68:176,1,100,2|2,0:0|0:0,0:0:0:0:
116,308,6511,2,0,P|164:328|212:320,1,100,2|2,0:0|0:0,0:0:0:0:
316,228,6864,2,0,L|416:220,1,100,2|2,0:0|0:0,0:0:0:0:
320,116,7217,1,2,0:0:0:0:
180,104,7394,1,2,0:0:0:0:
68,156,7570,2,0,B|56:212|56:212|72:356,1,200,2|0,0:0|0:0,0:0:0:0:
212,336,8099,6,0,P|264:332|312:352,1,100,2|2,0:0|0:0,0:0:0:0:
440,308,8452,1,2,0:0:0:0:
388,180,8628,2,0,B|404:100|360:32|360:32|328:72,1,200,2|0,0:0|0:0,0:0:0:0:
228,164,9158,5,2,0:0:0:0:
88,144,9334,2,0,P|84:200|92:244,1,100,2|2,0:0|0:0,0:0:0:0:
172,360,9687,2,0,P|228:348|372:368,1,200,2|0,0:0|0:0,0:0:0:0:
484,288,10217,1,0,0:0:0:0:
396,180,10393,6,0,L|400:280,1,100,2|2,0:0|0:0,0:0:0:0:
316,168,10745,2,0,P|268:156|216:160,1,100,2|2,0:0|0:0,0:0:0:0:
88,216,11098,2,0,L|92:116,1,100,2|2,0:0|0:0,0:0:0:0:
196,208,11451,2,0,L|192:308,1,100,2|2,0:0|0:0,0:0:0:0:
304,224,11804,2,0,P|272:139|174:100,1,200,2|0,0:0|0:0,0:0:0:0:
36,76,12333,6,0,L|44:176,1,100,2|2,0:0|0:0,0:0:0:0:
96,304,12686,1,2,0:0:0:0:
120,328,12774,1,0,0:0:0:0:
148,308,12862,2,0,B|220:316|220:316|348:308,1,200,2|0,0:0|0:0,0:0:0:0:
464,228,13392,5,2,0:0:0:0:
368,128,13568,2,0,L|376:232,1,100,2|2,0:0|0:0,0:0:0:0:
288,116,13921,2,0,B|212:144|131:126|131:126|165:151,1,200,2|0,0:0|0:0,0:0:0:0:
320,212,14451,5,2,0:0:0:0:
284,208,14539,1,2,0:0:0:0:
304,232,14627,2,0,L|300:332,1,100,2|2,0:0|0:0,0:0:0:0:
104,336,14980,6,0,B|156:352|156:352|300:332,1,200,6|0,0:0|0:0,0:0:0:0:
376,232,15509,1,2,0:0:0:0:
308,144,15686,6,0,L|304:44,1,100,2|2,0:0|0:0,0:0:0:0:
136,120,16039,2,0,B|92:148|92:148|168:148|244:168,1,200,6|0,0:0|0:0,0:0:0:0:
316,304,16568,1,2,0:0:0:0:
316,304,16745,6,0,L|312:200,1,100,2|2,0:0|0:0,0:0:0:0:
248,80,17098,2,0,B|224:40|224:40|200:116|216:196,1,200,6|0,0:0|0:0,0:0:0:0:
200,308,17627,5,2,0:0:0:0:
312,340,17803,1,2,0:0:0:0:
424,304,17980,1,2,0:0:0:0:
488,208,18156,2,0,L|288:216,1,200,6|0,0:0|0:0,0:0:0:0:
112,228,18686,5,0,0:0:0:0:
112,56,18875,1,2,0:0:0:0:
280,52,19051,1,0,0:0:0:0:
288,308,19227,5,2,0:0:0:0:
140,352,19404,1,0,0:0:0:0:
88,208,19580,1,2,0:0:0:0:
236,160,19757,1,0,0:0:0:0:
384,352,19933,5,2,0:0:0:0:
480,256,20110,1,0,0:0:0:0:
448,128,20286,1,2,0:0:0:0:
288,64,20463,1,0,0:0:0:0:
192,160,20639,1,2,0:0:0:0:
224,288,20816,1,0,0:0:0:0:
384,160,20992,5,2,0:0:0:0:
288,320,21168,1,0,0:0:0:0:
344,104,21344,1,2,0:0:0:0:
296,328,21521,1,0,0:0:0:0:
304,48,21697,1,2,0:0:0:0:
304,336,21874,1,0,0:0:0:0:
192,96,22050,1,2,0:0:0:0:
160,280,22227,1,2,0:0:0:0:
328,200,22403,1,2,0:0:0:0:
256,192,22492,12,0,23816,0:0:0:0:
256,192,23903,12,2,25226,0:0:0:0:
200,264,25756,5,0,0:0:0:0:
248,272,25844,1,0,0:0:0:0:
296,280,25933,1,2,0:0:0:0:
240,84,26462,5,0,0:0:0:0:
124,132,26639,2,0,L|120:232,1,100,2|0,0:0|0:0,0:0:0:0:
216,332,26992,2,0,L|212:232,1,100,2|2,0:0|0:0,0:0:0:0:
280,108,27344,2,0,B|360:136|432:104|432:104|464:144,1,200,2|0,0:0|0:0,0:0:0:0:
64,32,28050,6,0,B|94:123|94:123|94:227,1,200,2|0,0:0|0:0,0:0:0:0:
196,164,28580,1,2,0:0:0:0:
248,64,28756,2,0,P|348:40|440:72,1,200,2|0,0:0|0:0,0:0:0:0:
340,144,29286,5,0,0:0:0:0:
384,252,29462,2,0,P|384:304|392:352,1,100,2|2,0:0|0:0,0:0:0:0:
288,232,29815,2,0,P|236:224|192:244,1,100,2|2,0:0|0:0,0:0:0:0:
100,324,30168,2,0,B|72:368|72:368|72:292|48:220,1,200,2|0,0:0|0:0,0:0:0:0:
148,132,30880,6,0,P|216:104|284:132,1,150,2|0,0:0|0:0,0:0:0:0:
308,88,31232,2,0,L|312:192,1,100,4|0,0:0|0:0,0:0:0:0:
72,184,31585,2,0,P|56:136|64:88,1,100,2|2,0:0|0:0,0:0:0:0:
180,152,31938,1,2,0:0:0:0:
176,264,32115,1,2,0:0:0:0:
256,328,32291,6,0,P|304:320|352:336,1,100
448,240,32644,2,0,B|464:176|464:176|448:40,1,200,6|2,0:0|0:0,0:0:0:0:
320,32,33174,2,0,P|272:56|256:104,1,100,2|2,0:0|0:0,0:0:0:0:
340,108,33527,1,2,0:0:0:0:
160,56,33703,5,0,0:0:0:0:
84,160,33880,1,0,0:0:0:0:
152,272,34056,2,0,B|172:320|172:320|184:172,1,200,6|2,0:0|0:0,0:0:0:0:
264,64,34585,1,2,0:0:0:0:
368,112,34762,1,2,0:0:0:0:
464,48,34938,1,2,0:0:0:0:
456,168,35115,5,0,0:0:0:0:
364,192,35291,1,0,0:0:0:0:
432,280,35468,2,0,L|232:296,1,200,6|2,0:0|0:0,0:0:0:0:
112,272,35997,1,2,0:0:0:0:
64,160,36174,1,2,0:0:0:0:
104,48,36350,1,2,0:0:0:0:
312,56,36527,5,4,0:0:0:0:
400,160,36703,1,0,0:0:0:0:
248,168,36880,2,0,L|192:168,2,50
448,256,37232,5,4,0:0:0:0:
344,352,37409,1,0,0:0:0:0:
248,216,37585,2,0,L|232:168,2,50
208,288,37938,5,4,0:0:0:0:
64,216,38115,1,0,0:0:0:0:
192,112,38291,2,0,L|232:80,2,50
360,48,38644,5,4,0:0:0:0:
456,312,38997,1,4,0:0:0:0:
164,305,39350,5,2,0:0:0:0:
79,206,39527,1,0,0:0:0:0:
178,121,39703,1,0,0:0:0:0:
263,220,39880,1,0,0:0:0:0:
145,297,40056,5,2,0:0:0:0:
69,184,40232,1,0,0:0:0:0:
183,108,40409,1,0,0:0:0:0:
259,222,40585,1,0,0:0:0:0:
126,287,40762,5,2,0:0:0:0:
63,159,40938,1,0,0:0:0:0:
191,95,41115,1,0,0:0:0:0:
256,223,41291,1,0,0:0:0:0:
109,275,41468,5,2,0:0:0:0:
58,133,41644,1,0,0:0:0:0:
201,83,41821,1,2,0:0:0:0:
251,224,41997,1,2,0:0:0:0:
72,269,42174,5,2,0:0:0:0:
72,269,42527,1,4,0:0:0:0:
288,80,42880,1,0,0:0:0:0:
400,152,43056,1,0,0:0:0:0:
296,248,43232,1,0,0:0:0:0:
232,352,43409,1,0,0:0:0:0:
116,280,43585,5,2,0:0:0:0:
116,280,43938,1,4,0:0:0:0:
112,52,44291,1,0,0:0:0:0:
212,144,44468,1,0,0:0:0:0:
316,28,44644,1,0,0:0:0:0:
456,76,44821,1,0,0:0:0:0:
408,216,44997,5,6,0:0:0:0:
248,320,45350,1,0,0:0:0:0:
120,204,45703,1,4,0:0:0:0:
384,284,46056,1,0,0:0:0:0:
398,257,46385,5,0,0:0:0:0:
260,184,46737,1,4,0:0:0:0:
96,212,47090,1,0,0:0:0:0:
324,108,47443,1,4,0:0:0:0:
88,84,47796,6,0,L|88:284,1,200,2|0,0:0|0:0,0:0:0:0:
176,344,48325,1,2,0:0:0:0:
284,304,48501,1,2,0:0:0:0:
360,216,48678,1,2,0:0:0:0:
392,104,48854,1,2,0:0:0:0:
476,24,49031,1,2,0:0:0:0:
476,24,49208,6,0,L|276:32,1,200,6|0,0:0|0:0,0:0:0:0:
168,72,49737,1,2,0:0:0:0:
200,168,49913,1,2,0:0:0:0:
144,272,50090,1,2,0:0:0:0:
228,344,50266,1,2,0:0:0:0:
324,288,50443,1,2,0:0:0:0:
256,156,50821,6,0,L|256:56,1,100,6|0,0:0|0:0,0:0:0:0:
256,228,51173,2,0,L|256:328,1,100,6|0,0:0|0:0,0:0:0:0:
188,224,51526,6,0,L|90:206,1,100,6|0,0:0|0:0,0:0:0:0:
312,156,51879,2,0,L|410:174,1,100,6|0,0:0|0:0,0:0:0:0:
220,156,52232,6,0,L|212:56,1,100,6|0,0:0|0:0,0:0:0:0:
292,228,52585,2,0,L|300:328,1,100,6|0,0:0|0:0,0:0:0:0:
177,194,52938,6,0,L|136:104,1,100,6|0,0:0|0:0,0:0:0:0:
350,193,53291,2,0,L|392:284,1,100,6|0,0:0|0:0,0:0:0:0:
217,233,53644,6,0,L|288:304,1,100,6|0,0:0|0:0,0:0:0:0:
291,151,53997,2,0,L|220:80,1,100,6|0,0:0|0:0,0:0:0:0:
356,288,54350,6,0,P|368:240|356:188,1,100,6|0,0:0|0:0,0:0:0:0:
256,132,54703,1,2,0:0:0:0:
256,172,54791,1,4,0:0:0:0:
256,212,54879,1,4,0:0:0:0:
256,192,55056,12,2,56114,0:0:0:0:
