osu file format v9

[General]
AudioFilename: 02-tenacious_d-classico.mp3
AudioLeadIn: 2000
PreviewTime: 25208
Countdown: 0
SampleSet: Soft
StackLeniency: 0.7
Mode: 0
LetterboxInBreaks: 1

[Editor]
DistanceSpacing: 0.83
BeatDivisor: 4
GridSize: 8

[Metadata]
Title:Classico
Artist:Tenacious D
Creator:Blue Dragon
Version:Insane
Source:Tenacious D in The Pick of Destiny
Tags:jack black

[Difficulty]
HPDrainRate:7
CircleSize:4
OverallDifficulty:8
ApproachRate:9
SliderMultiplier:1.92
SliderTickRate:1

[Events]
//Background and Video events
0,0,"tenacious-d-in-the-pick-of-destiny-.jpg"
//Break Periods
//Storyboard Layer 0 (Background)
//Storyboard Layer 1 (Fail)
//Storyboard Layer 2 (Pass)
//Storyboard Layer 3 (Foreground)
//Storyboard Sound Samples
//Background Colour Transformations
3,100,163,162,255

[TimingPoints]
487,352.941176470588,4,2,0,60,1,0
6159,352.941176470588,4,2,0,60,1,0
7570,352.941176470588,3,2,0,60,1,0
10393,352.941176470588,4,2,0,60,1,0
11804,352.941176470588,3,2,0,60,1,0
18875,352.941176470588,3,2,0,60,1,0
20992,352.941176470588,4,2,0,60,1,0
30880,352.941176470588,4,2,0,60,1,0
46385,352.941176470588,4,2,0,60,1,0
50645,352.941176470588,4,2,0,60,1,0

[Colours]
Combo1 : 243,199,199
Combo2 : 228,215,116
Combo3 : 141,84,27
Combo4 : 192,233,193

[HitObjects]
376,248,134,1,8
448,208,310,1,0
472,128,487,2,0,B|455:79|399:48|343:79|327:127,1,192,4|2
256,88,1016,1,0
184,128,1192,2,0,B|167:79|111:48|55:79|39:127,1,192,4|2
64,208,1722,1,0
144,232,1898,2,4,B|352:232,1,192,4|2
400,280,2428,1,0
368,352,2604,2,0,B|176:352,1,192,4|2
112,304,3134,1,0
32,312,3310,6,8,B|8:256|24:168|120:152,1,192,8|0
176,136,3839,1,0
160,56,4016,2,0,B|360:56,1,192,2|2
336,136,4545,1,0
256,128,4722,2,8,B|256:232,1,96,8|0
216,296,5075,1,2
296,296,5251,1,0
256,360,5428,1,12
464,40,6159,6,0,B|376:96,1,96,2|0
456,128,6511,2,0,B|368:184,1,96,2|0
448,216,6864,2,0,B|360:272,1,96,2|0
440,304,7217,2,0,B|352:360,1,96,2|0
295,304,7570,6,4,B|313:239|256:196|199:240|216:304,1,192,4|2
144,264,8099,1,0
179,192,8275,1,8
256,160,8452,1,0
333,192,8628,2,4,B|368:128|322:46|256:56,1,192,4|2
176,32,9158,1,0
120,88,9334,1,8
192,120,9511,1,0
128,168,9687,2,4,B|93:232|139:314|205:304,1,192,4|2
256,240,10217,1,0
48,40,10393,6,0,B|136:96,1,96,2|0
56,128,10745,2,0,B|144:184,1,96,2|0
64,216,11098,2,0,B|152:272,1,96,2|0
72,304,11451,2,0,B|160:360,1,96,2|0
224,328,11804,6,8,B|256:280|304:271|352:280|384:328,1,192,8|2
432,264,12333,1,0
368,216,12509,1,8
432,168,12686,1,0
384,104,12862,2,8,B|352:152|304:161|256:152|224:104,1,192,8|2
160,144,13392,1,0
160,64,13568,1,8
96,104,13745,1,0
96,184,13921,1,12
256,360,14451,5,0
296,288,14627,1,0
216,288,14803,1,0
184,216,14980,2,2,B|384:216,1,192,2|2
338,145,15509,1,0
417,145,15686,1,2
376,80,15862,1,0
338,145,16039,6,2,B|138:145,1,192,2|2
184,72,16568,1,0
105,72,16745,1,2
146,7,16921,1,0
184,72,17098,6,2,B|384:72,1,192,2|2
448,32,17627,1,0
448,111,17803,1,2
448,190,17980,1,0
376,152,18156,2,0,B|376:352,1,192,2|0
296,344,18686,1,0
216,344,18875,5,2
136,344,19051,1,0
176,280,19227,1,2
216,216,19404,1,0
176,152,19580,1,8
136,216,19757,1,0
96,280,19933,5,2
16,280,20110,1,0
56,216,20286,1,2
16,152,20463,1,0
96,152,20639,1,8
56,88,20816,1,0
136,88,20992,5,2
96,24,21168,1,0
176,24,21344,1,2
216,88,21521,1,0
176,152,21697,1,8
256,152,21874,1,0
216,216,22050,1,2
296,216,22227,1,0
336,152,22403,1,12
256,192,22491,12,6,25227
344,296,25756,5,0
168,296,25933,1,6
336,88,26462,5,0
168,88,26639,1,6
352,88,26815,1,0
152,88,26991,1,6
368,88,27168,1,0
136,88,27344,1,12
256,192,28050,5,12
344,88,28580,5,0
168,88,28756,1,6
144,296,29286,5,0
368,296,29462,1,6
160,296,29639,1,0
352,296,29815,1,6
176,296,29991,1,0
336,296,30168,1,12
16,360,30880,6,8,B|120:360,1,96,8|0
176,312,31232,2,2,B|152:232|80:176|16:176,1,192
72,104,31762,1,0
136,56,31938,1,2
200,104,32115,1,0
264,152,32291,2,0,B|288:232|360:288|424:288,1,192,8|2
400,200,32821,2,8,B|496:200,1,96,0|8
456,128,33174,5,0
496,56,33350,1,2
424,16,33527,1,0
384,88,33703,2,0,B|280:80|200:16,1,192,8|2
136,64,34232,1,0
184,128,34409,2,0,B|184:224,1,96,2|0
104,240,34762,2,0,B|104:144,1,96,8|0
24,128,35115,2,0,B|24:336,2,192,0|2|2
40,48,35997,5,0
112,80,36174,1,8
184,48,36350,1,0
256,80,36527,2,2,B|360:80,1,96,2|0
416,128,36880,2,0,B|480:128,2,48,2|0|0
352,176,37232,2,2,B|248:176,1,96,2|0
192,224,37585,2,0,B|128:224,2,48,2|0|0
256,272,37938,2,2,B|360:272,1,96,2|0
416,320,38291,2,0,B|480:320,2,48,2|0|0
360,376,38644,2,2,B|160:376,2,192,2|2|6
328,304,39527,5,0
248,304,39703,1,8
168,304,39880,1,0
208,232,40056,1,4
288,232,40232,5,0
368,232,40409,1,8
328,160,40585,1,0
248,160,40762,1,4
168,160,40938,5,0
208,88,41115,1,8
288,88,41291,1,0
368,88,41468,1,4
328,16,41644,5,0
248,16,41821,1,8
168,16,41997,1,0
128,88,42174,1,4
64,232,42527,6,2,B|264:232,1,192
216,304,43056,1,0
296,304,43232,1,2
256,232,43409,1,0
336,232,43585,2,2,B|336:40,2,192
376,304,44468,1,0
416,232,44644,1,2
496,232,44821,1,0
456,160,44997,2,2,B|448:40|336:40,3,192
256,56,46232,1,0
176,48,46385,6,8,B|80:32,1,96,8|0
144,120,46737,2,8,B|48:152,1,96,8|0
136,200,47090,2,8,B|90:290,1,96,8|0
184,264,47443,2,8,B|192:360,1,96,8|0
256,312,47796,5,12
216,40,48326,5,0
296,40,48502,1,8
336,112,48679,1,0
176,112,48855,1,8
216,184,49032,1,0
296,184,49208,1,12
216,344,49737,5,0
296,344,49914,1,8
336,272,50090,1,0
256,272,50267,1,8
176,272,50443,1,0
88,64,50821,5,2
424,64,51174,1,2
424,320,51527,1,2
88,320,51880,1,2
24,16,52233,5,2
488,16,52586,1,2
488,368,52939,1,2
24,368,53292,1,2
144,192,53645,5,2
256,80,53997,1,2
368,192,54350,1,2
256,304,54703,1,2
256,288,54792,1,0
256,272,54880,1,6
