osu file format v9

[General]
AudioFilename: Not Big.mp3
AudioLeadIn: 0
PreviewTime: 110475
Countdown: 0
SampleSet: Normal
StackLeniency: 0.7
Mode: 0
LetterboxInBreaks: 1

[Editor]
Bookmarks: 28618,31082,69761,83475,84118,116475,141332,157832,158261,159118
DistanceSpacing: 0.8
BeatDivisor: 4
GridSize: 4

[Metadata]
Title:Not That Big
Artist:Temposhark & Imogen Heap
Creator:NotShinta
Version:Normal
Source:
Tags:

[Difficulty]
HPDrainRate:5
CircleSize:3
OverallDifficulty:6
ApproachRate:5
SliderMultiplier:1.76
SliderTickRate:2

[Events]
//Background and Video events
0,0,"temposhark_03.jpg"
//Break Periods
2,69951,82265
2,124808,137122
//Storyboard Layer 0 (Background)
//Storyboard Layer 1 (Fail)
//Storyboard Layer 2 (Pass)
//Storyboard Layer 3 (Foreground)
//Storyboard Sound Samples
//Background Colour Transformations
3,100,163,162,255

[TimingPoints]
14894,428.571428571429,4,1,0,41,1,0
30332,-100,4,2,0,41,0,0
30761,-100,4,1,0,41,0,0
33761,-100,4,2,0,41,0,0
34189,-100,4,1,0,41,0,0
37189,-100,4,2,0,41,0,0
37618,-100,4,1,0,41,0,0
55832,-117.647058823529,4,1,0,31,0,0
62689,-117.647058823529,4,1,0,36,0,0
69868,-100,4,1,0,41,0,0
85189,-100,4,2,0,41,0,0
85618,-100,4,1,0,41,0,0
95796,-100,4,2,0,36,0,0
96439,-100,4,2,0,56,0,0
96654,-100,4,2,0,66,0,0
97082,-100,4,1,0,41,0,0
110894,-100,4,1,0,51,0,1
124608,-100,4,1,0,41,0,0
137904,-100,4,2,0,61,0,0
152046,-100,4,1,0,36,0,0
162225,-100,4,1,0,51,0,0
162650,-100,4,1,0,61,0,0
165654,-100,4,2,0,41,0,0
167261,-117.647058823529,4,2,0,41,0,0
180332,-100,4,1,0,51,0,0
181179,-100,4,1,0,51,0,1
194904,-100,4,1,0,41,0,0

[HitObjects]
41,119,28608,2,0,B|92:61|172:83|231:141|207:215,1,264
0,192,29894,2,0,B|-24:265|35:323|114:345|166:288,1,264,4|0
344,288,31179,5,0
408,204,31608,1,0
471,119,32036,2,0,B|419:61|339:83|280:141|304:215,1,264,4|0
512,192,33322,2,0,B|536:265|476:323|397:345|345:288,1,264,2|0
168,288,34608,5,8
104,204,35036,1,0
41,119,35465,2,0,B|93:61|173:83|232:141|208:215,1,264,4|0
0,192,36751,2,0,B|-24:265|36:323|115:345|167:288,1,264,0|0
344,288,38036,5,0
408,204,38465,1,0
471,119,38894,2,0,B|419:61|339:83|280:141|304:215,1,264,4|0
512,192,40179,2,0,B|536:265|476:323|397:345|345:288,1,264,8|8
376,152,41679,5,8
376,152,41894,1,8
480,48,42322,2,0,B|432:-8|324:0|412:96|304:104|256:48,1,264,4|0
80,172,43608,2,0,B|128:228|236:220|148:124|256:116|304:172,1,264
480,52,44893,5,8
480,192,45322,1,0
480,332,45751,2,0,B|432:388|324:380|412:284|304:276|256:332,1,264,4|0
80,208,47036,2,0,B|128:151|236:159|148:255|256:263|304:207,1,264
32,52,48322,5,8
32,192,48751,1,0
32,332,49179,2,0,B|80:388|188:380|100:284|208:276|256:332,1,264,4|0
432,208,50465,2,0,B|383:151|275:159|363:255|255:263|207:207,1,264,0|0
480,332,51751,5,0
480,192,52179,1,0
480,52,52608,2,0,B|432:-4|324:4|412:100|304:108|256:52,1,264,4|0
80,176,53893,2,0,B|128:232|236:224|148:128|256:120|304:176,1,264,0|0
456,336,54965,5,0
456,336,55179,2,0,B|485:301|503:264|503:253|485:216|456:181,1,176,0|8
493,45,56036,2,0,B|280:124,1,224.399990637303
328,192,56893,1,4
272,40,57322,1,4
16,112,57751,6,0,B|229:191,1,224.399990637303
181,259,58608,1,4
237,107,59036,1,4
496,196,59465,6,0,B|283:275,1,224.399990637303
331,343,60322,1,0
275,191,60751,1,0
275,191,60965,1,0
56,312,61822,5,0
56,312,62036,2,0,B|30:282|15:250|15:241|30:209|56:179,1,149.599993758202,0|8
19,45,62893,2,0,B|232:124,1,224.399990637303
184,192,63751,1,4
240,40,64179,1,4
496,112,64608,6,0,B|283:191,1,224.399990637303
331,259,65465,1,4
275,107,65893,1,4
16,196,66322,6,0,B|229:275,1,224.399990637303
181,343,67179,1,0
237,191,67608,1,0
256,192,67822,12,4,69751
304,24,83465,6,0,B|428:24|428:24|472:24|508:52|512:96|512:116,1,264,4|0
208,116,84751,2,0,B|84:116|84:116|40:116|4:88|0:44|0:24,1,264,0|2
324,192,86036,5,0
188,224,86465,1,0
208,360,86893,2,0,B|84:360|84:360|40:360|4:332|0:288|0:268,1,264,4|0
304,268,88179,2,0,B|428:268|428:268|472:268|508:296|512:340|512:360,1,264,0|8
324,192,89465,5,0
188,160,89894,1,0
208,24,90322,2,0,B|84:24|84:24|40:24|4:52|0:96|0:116,1,264,4|0
304,116,91608,2,0,B|428:116|428:116|472:116|508:88|512:44|512:24,1,264,0|8
188,192,92893,5,0
324,224,93322,1,0
304,360,93751,2,0,B|428:360|428:360|472:360|508:332|512:288|512:268,1,264,4|0
208,268,95036,2,0,B|84:268|84:268|40:268|4:296|0:340|0:360,1,264,0|8
80,360,95893,1,0
8,204,96322,1,0
8,204,96536,1,0
8,204,96751,1,0
24,64,97179,6,0,B|97:69|149:124|158:200|115:259,1,264,4|0
396,259,98465,2,0,B|353:200|362:124|414:69|488:64,1,264,2|8
468,288,99751,5,0
468,172,100179,1,0
488,64,100608,2,0,B|414:69|362:124|353:200|396:259,1,264,4|0
115,259,101893,2,0,B|158:200|149:124|97:69|24:64,1,264,0|8
468,96,103179,5,0
468,212,103608,1,0
488,320,104036,2,0,B|414:314|362:259|353:183|396:124,1,264,4|0
115,124,105322,2,0,B|158:183|149:259|97:314|24:320,1,264
44,96,106608,5,0
44,212,107036,1,0
24,320,107465,2,0,B|97:314|149:259|158:183|115:124,1,264,4|0
396,124,108751,2,0,B|353:183|362:259|414:314|488:320,1,264,0|8
313,89,109822,5,0
313,89,110036,1,0
192,20,110465,1,0
48,60,110893,2,0,B|108:80|148:164|108:248|48:268,1,264
20,192,111751,1,4
200,192,112179,1,8
340,60,112608,6,0,B|400:80|440:164|400:248|340:268,1,264
312,192,113465,1,4
492,192,113893,1,8
172,324,114322,6,0,B|112:304|72:220|112:136|172:116,1,264
200,192,115179,1,4
20,192,115608,1,8
20,192,115822,1,8
199,89,116679,5,0
199,89,116893,1,0
320,20,117322,1,0
464,60,117751,2,0,B|404:80|364:164|404:248|464:268,1,264
492,192,118608,1,4
312,192,119036,1,8
172,60,119465,6,0,B|112:80|72:164|112:248|172:268,1,264
200,192,120322,1,4
20,192,120751,1,8
340,324,121179,6,0,B|400:304|440:220|400:136|340:116,1,264
312,192,122036,1,4
492,192,122465,1,8
256,192,122679,12,0,124608
52,344,138322,6,0,B|320:344,1,264,0|8
460,344,139393,1,0
484,144,140036,6,0,B|384:28|256:-12|128:28|28:144,1,528
124,244,141751,2,8,B|396:244,3,264
460,344,145179,6,0,B|192:344,1,264,0|8
52,344,146251,1,0
28,144,146894,6,0,B|128:28|256:-12|384:28|484:144,1,528
388,244,148608,2,8,B|116:244,3,264
116,24,152036,5,8
256,24,152465,1,8
396,24,152894,1,8
388,192,153536,6,0,B|260:136|132:192,1,264
40,308,154608,2,0,B|45:352|87:389|142:387|175:357,1,176
336,356,155465,2,0,B|368:386|424:387|466:351|471:306,1,176
336,264,156322,1,8
336,264,156536,1,8
176,264,156965,1,4
318,133,158465,6,0,B|190:5,2,176
128,216,159751,2,0,B|256:272|384:216,1,264
440,328,160822,2,0,B|434:372|392:409|337:407|304:377,1,176
208,376,161465,2,0,B|175:406|119:407|77:371|72:326,1,176
184,192,162322,1,0
184,192,162536,1,0
184,192,162751,1,0
328,192,163179,1,0
256,192,164036,12,0,165751
80,384,166394,6,0,B|36:332|8:276|8:260|36:204|80:152,1,264,0|8
19,45,167465,2,0,B|232:124,1,224.399990637303
184,192,168322,1,4
240,40,168751,1,4
496,112,169179,6,0,B|283:191,1,224.399990637303
331,259,170036,1,4
275,107,170465,1,4
16,196,170894,6,0,B|229:275,1,224.399990637303
181,343,171751,1,0
237,191,172179,1,0
237,191,172394,1,0
464,364,173251,6,0,B|504:324|528:276|528:260|504:212|464:172,1,224.399990637303,0|8
493,45,174322,2,0,B|280:124,1,224.399990637303
328,192,175179,1,4
272,40,175608,1,4
16,112,176036,6,0,B|229:191,1,224.399990637303
181,259,176894,1,4
237,107,177322,1,4
496,196,177751,6,0,B|283:275,1,224.399990637303
331,343,178608,1,0
275,191,179036,1,0
256,192,179251,12,0,180751
464,60,181179,6,0,B|404:80|364:164|404:248|464:268,1,264
492,192,182036,1,4
312,192,182465,1,8
172,60,182894,6,0,B|112:80|72:164|112:248|172:268,1,264
200,192,183751,1,4
20,192,184179,1,8
340,324,184608,6,0,B|400:304|440:220|400:136|340:116,1,264
312,192,185465,1,4
492,192,185894,1,8
492,192,186108,1,8
313,89,186965,5,0
313,89,187179,1,0
192,20,187608,1,0
48,60,188036,2,0,B|108:80|148:164|108:248|48:268,1,264
20,192,188894,1,4
200,192,189322,1,8
340,60,189751,6,0,B|400:80|440:164|400:248|340:268,1,264
312,192,190608,1,4
492,192,191036,1,8
172,324,191465,6,0,B|112:304|72:220|112:136|172:116,1,264
200,192,192322,1,4
20,192,192751,1,8
256,192,192965,12,0,194894
