osu file format v9

[General]
AudioFilename: Not Big.mp3
AudioLeadIn: 0
PreviewTime: 110475
Countdown: 0
SampleSet: Soft
StackLeniency: 0.7
Mode: 0
LetterboxInBreaks: 1

[Editor]
Bookmarks: 28618,31082,69761,83475,84118,116475,140679,141332,157832,158261,159118
DistanceSpacing: 0.7
BeatDivisor: 4
GridSize: 4

[Metadata]
Title:Not That Big
Artist:Temposhark & Imogen Heap
Creator:NotShinta
Version:Hard
Source:
Tags:

[Difficulty]
HPDrainRate:7
CircleSize:4
OverallDifficulty:7
ApproachRate:8
SliderMultiplier:2.4
SliderTickRate:2

[Events]
//Background and Video events
0,0,"temposhark_03.jpg"
//Break Periods
2,69950,82715
2,124808,137572
//Storyboard Layer 0 (Background)
//Storyboard Layer 1 (Fail)
//Storyboard Layer 2 (Pass)
//Storyboard Layer 3 (Foreground)
//Storyboard Sound Samples
//Background Colour Transformations
3,100,163,162,255

[TimingPoints]
14894,428.571428571429,4,1,0,41,1,0
30332,-100,4,2,0,41,0,0
30761,-100,4,1,0,41,0,0
33761,-100,4,2,0,41,0,0
34189,-100,4,1,0,41,0,0
37189,-100,4,2,0,41,0,0
37618,-100,4,1,0,41,0,0
55832,-117.647058823529,4,1,0,31,0,0
62689,-117.647058823529,4,1,0,36,0,0
69868,-100,4,1,0,41,0,0
85189,-100,4,2,0,41,0,0
85618,-100,4,1,0,41,0,0
95796,-100,4,2,0,36,0,0
96439,-100,4,2,0,56,0,0
96654,-100,4,2,0,66,0,0
97082,-100,4,1,0,41,0,0
110894,-100,4,1,0,51,0,1
124608,-100,4,1,0,41,0,0
137904,-100,4,2,0,61,0,0
152046,-100,4,1,0,36,0,0
162225,-100,4,1,0,51,0,0
162650,-100,4,1,0,61,0,0
165654,-100,4,2,0,41,0,0
167261,-117.647058823529,4,2,0,41,0,0
180332,-100,4,1,0,51,0,0
181179,-100,4,1,0,51,0,1
194894,-100,4,1,0,41,0,0

[HitObjects]
297,211,28608,6,0,B|342:256|410:228|450:132|382:126|314:121|353:25|421:-3|466:42,3,360,4|0|0|0
380,356,30965,5,0
296,356,31179,1,0
256,284,31394,1,0
340,284,31608,1,0
296,212,31822,1,0
215,211,32036,2,0,B|170:256|102:228|62:132|130:126|198:121|159:25|91:-3|46:42,3,360,4|0|0|0
132,356,34394,5,0
216,356,34608,1,0
172,284,34822,1,0
256,284,35036,1,0
216,212,35251,1,0
296,211,35465,2,0,B|341:256|409:228|449:132|381:126|313:121|352:25|420:-3|466:42,3,360,4|0|0|0
380,356,37822,5,0
340,284,38036,1,0
296,356,38251,1,0
256,284,38465,1,0
296,212,38679,1,0
215,211,38894,2,0,B|170:256|102:228|62:132|130:126|198:121|159:25|91:-3|46:42,3,360,4|0|0|8
192,304,41465,1,8
276,304,41679,1,2
232,376,41894,1,2
316,376,42108,1,0
360,304,42322,6,0,B|330:208|222:178|114:208|83:304,3,360,4|0|0|0
364,8,44679,5,0
320,80,44893,1,8
236,80,45108,1,0
280,8,45322,1,0
196,8,45536,1,0
152,80,45751,2,0,B|182:176|290:206|398:176|428:80,3,360,4|0|0|0
364,376,48108,5,0
320,304,48322,1,8
236,304,48536,1,0
280,376,48751,1,0
196,376,48965,1,0
152,304,49179,2,0,B|182:208|290:178|398:208|428:304,3,360,4|0|0|0
148,8,51536,5,0
232,8,51751,1,0
192,80,51965,1,8
276,80,52179,1,0
316,8,52393,1,0
360,80,52608,2,0,B|330:176|222:206|114:176|83:80,3,360,4|0|0|8
172,308,54965,5,0
172,308,55179,1,0
340,308,55608,1,0
256,20,56036,5,0
216,84,56251,1,0
296,84,56465,1,0
176,16,56893,1,8
336,16,57322,1,8
256,156,57751,5,0
216,220,57965,1,0
296,220,58179,1,0
176,152,58608,1,8
336,152,59036,1,8
256,288,59465,5,0
216,352,59679,1,0
296,352,59893,1,0
176,284,60322,1,8
336,284,60751,1,4
376,348,60965,2,0,B|451:298|455:212|422:132|333:111,1,305.999987232686
304,180,61822,1,8
256,240,62036,1,0
176,152,62465,1,0
256,20,62893,5,0
296,84,63108,1,0
216,84,63322,1,0
336,16,63751,1,8
176,16,64179,1,8
256,156,64608,5,0
296,220,64822,1,0
216,220,65036,1,0
336,152,65465,1,8
176,152,65893,1,8
256,288,66322,5,0
296,352,66536,1,0
216,352,66751,1,0
336,284,67179,1,8
176,284,67608,1,4
128,348,67822,2,8,B|40:288|0:172|60:72|144:0|256:-24|368:0|452:72|512:172|472:288|384:348,1,917.999961698057,8|4
324,188,83465,6,0,B|212:136|147:251|169:380|293:370,3,360,4|0|0|0
4,108,85822,5,0
36,184,86036,1,0
80,116,86251,1,0
112,192,86465,1,0
156,124,86679,1,0
188,196,86893,2,0,B|300:248|365:133|343:4|219:14,3,360,4|0|0|0
508,108,89251,5,0
476,184,89465,1,0
432,116,89679,1,0
400,192,89893,1,0
356,124,90108,1,0
324,196,90322,2,0,B|211:248|146:133|168:4|292:14,3,360,4|0|0|0
4,276,92679,5,0
36,200,92893,1,0
80,268,93108,1,0
112,192,93322,1,0
156,260,93536,1,0
188,188,93751,2,0,B|300:135|365:250|343:379|219:369,3,360,4|0|0|8
224,284,95893,5,0
156,332,96108,1,0
68,332,96322,1,8
0,284,96536,1,0
52,216,96751,1,0
108,152,96965,1,0
44,80,97179,6,0,B|44:16|111:-11|208:27|164:80|119:131|215:171|283:143|283:79,3,360,4|0|0|0
107,307,99536,5,0
197,274,99751,1,0
287,241,99965,1,0
377,208,100179,1,0
468,176,100393,1,0
468,80,100608,2,0,B|468:16|400:-11|303:27|347:80|392:131|296:171|228:143|228:80,3,360,4|0|0|0
405,307,102965,5,0
315,274,103179,1,0
225,241,103393,1,0
135,208,103608,1,0
44,176,103822,1,0
44,80,104036,2,0,B|44:16|111:-11|208:27|164:80|119:131|215:171|283:143|283:80,3,360,4|0|0|0
107,307,106393,5,0
197,274,106608,1,0
287,241,106822,1,0
377,208,107036,1,0
468,176,107251,1,0
468,80,107465,2,0,B|468:16|400:-11|303:27|347:80|392:131|296:171|228:143|228:80,3,360,4|0|8|8
460,360,109822,5,0
460,360,110036,1,0
460,192,110465,1,0
26,18,110893,5,0
105,47,111108,1,8
184,76,111322,1,0
40,164,111751,1,4
198,222,112179,1,4
486,94,112608,5,0
407,123,112822,1,8
328,152,113036,1,0
472,240,113465,1,4
314,298,113893,1,4
24,164,114322,5,0
103,193,114536,1,8
182,222,114751,1,0
38,310,115179,1,4
196,368,115608,1,4
256,308,115822,2,0,B|289:219|245:114|140:70|52:104,1,360
52,360,116679,5,0
52,360,116893,1,0
52,192,117322,1,0
486,18,117751,5,0
407,47,117965,1,8
328,76,118179,1,0
472,164,118608,1,4
314,222,119036,1,4
26,94,119465,5,0
105,123,119679,1,8
184,152,119893,1,0
40,240,120322,1,4
198,298,120751,1,4
488,164,121179,5,0
409,193,121393,1,8
330,222,121608,1,0
474,310,122036,1,4
316,368,122465,1,4
256,192,122679,12,0,124608
416,336,138322,5,4
504,192,138751,1,8
504,192,138965,1,8
416,48,139393,1,4
148,204,140036,2,0,B|228:204|228:204|290:204|321:219|348:256|348:282,1,240
376,364,140679,2,0,B|256:364|256:364|162:364|115:340|75:285|76:240,1,360,0|4
256,16,141751,5,2
76,192,142393,1,0
436,192,143036,1,2
256,368,143679,1,0
176,192,144751,5,0
96,336,145179,1,4
8,192,145608,1,8
8,192,145822,1,8
96,48,146251,1,4
364,204,146894,2,0,B|284:204|284:204|221:204|190:219|163:256|163:282,1,240
136,364,147537,2,0,B|256:364|256:364|349:364|396:340|436:285|436:240,1,360,0|4
256,16,148608,5,2
436,192,149251,1,0
76,192,149894,1,2
256,368,150536,1,0
256,192,151394,5,0
256,192,151608,1,0
24,192,152036,5,0
104,140,152251,1,0
104,244,152465,1,0
340,192,152894,1,0
256,364,153322,1,0
256,268,153536,1,0
392,192,153965,5,0
351,95,154179,1,8
256,54,154394,1,0
159,95,154608,1,8
119,191,154822,1,0
159,287,155036,1,8
256,328,155251,1,0
351,287,155465,1,8
298,223,155679,1,8
213,241,155894,1,8
213,156,156108,1,0
298,138,156322,1,8
256,67,156536,1,8
170,85,156751,1,0
100,24,156965,2,0,B|20:53|-27:125|28:245|100:189|172:133|228:253|180:325|100:354,1,480,0|0
448,132,158251,5,0
480,224,158465,1,0
460,316,158679,1,8
368,340,158894,1,4
308,264,159108,1,0
204,264,159322,1,0
144,340,159536,1,0
52,316,159751,1,8
64,132,160179,1,0
32,224,160394,1,8
147,83,160822,5,8
256,37,161036,1,0
365,83,161251,1,8
410,191,161465,1,0
365,300,161679,1,8
256,346,161894,1,0
148,300,162108,1,8
204,220,162322,2,0,B|84:220,1,120,0|8
308,220,162751,2,0,B|428:220,1,120,0|8
256,164,163179,1,4
256,192,163608,12,0,165751
256,344,166394,5,0
256,344,166608,1,0
256,152,167036,1,0
256,20,167465,5,0
296,84,167679,1,0
216,84,167894,1,0
336,16,168322,1,8
176,16,168751,1,8
256,156,169179,5,0
296,220,169394,1,0
216,220,169608,1,0
336,152,170036,1,8
176,152,170465,1,8
256,288,170894,5,0
296,352,171108,1,0
216,352,171322,1,0
336,284,171751,1,8
176,284,172179,1,4
136,348,172394,2,0,B|61:298|57:212|90:132|179:111,1,305.999987232686
208,176,173251,1,8
256,228,173465,1,0
304,176,173679,1,8
352,228,173894,1,0
256,20,174322,5,0
216,84,174536,1,0
296,84,174751,1,0
176,16,175179,1,8
336,16,175608,1,8
256,156,176036,5,0
216,220,176251,1,0
296,220,176465,1,0
176,152,176894,1,8
336,152,177322,1,8
256,288,177751,5,0
216,352,177965,1,0
296,352,178179,1,0
176,284,178608,1,8
336,284,179036,1,4
256,192,179251,12,0,180751
486,18,181179,5,0
407,47,181394,1,8
328,76,181608,1,0
472,164,182036,1,4
314,222,182465,1,4
26,94,182894,5,0
105,123,183108,1,8
184,152,183322,1,0
40,240,183751,1,4
198,298,184179,1,4
488,164,184608,5,0
409,193,184822,1,8
330,222,185036,1,0
474,310,185465,1,4
316,368,185894,1,4
256,308,186108,2,0,B|222:219|266:114|371:70|459:104,1,360
460,360,186965,5,0
460,360,187179,1,0
460,192,187608,1,0
26,18,188036,5,0
105,47,188251,1,8
184,76,188465,1,0
40,164,188894,1,4
198,222,189322,1,4
486,94,189751,5,0
407,123,189965,1,8
328,152,190179,1,0
472,240,190608,1,4
314,298,191036,1,4
24,164,191465,5,0
103,193,191679,1,8
182,222,191894,1,0
38,310,192322,1,4
196,368,192751,1,4
256,192,192965,12,0,194894
