osu file format v9

[General]
AudioFilename: Not Big.mp3
AudioLeadIn: 0
PreviewTime: 110475
Countdown: 0
SampleSet: Normal
StackLeniency: 0.4
Mode: 0
LetterboxInBreaks: 1

[Editor]
Bookmarks: 28618,31082,69761,83475,84118,112082,112189,116475,117761,119046,141332,157832,159118,179046,180761,181189
DistanceSpacing: 0.8
BeatDivisor: 4
GridSize: 4

[Metadata]
Title:Not That Big
Artist:Temposhark & Imogen Heap
Creator:NotShinta
Version:Easy
Source:
Tags:

[Difficulty]
HPDrainRate:3
CircleSize:3
OverallDifficulty:3
ApproachRate:4
SliderMultiplier:1.6
SliderTickRate:2

[Events]
//Background and Video events
0,0,"temposhark_03.jpg"
//Break Periods
2,69761,82145
2,124808,137002
//Storyboard Layer 0 (Background)
//Storyboard Layer 1 (Fail)
//Storyboard Layer 2 (Pass)
//Storyboard Layer 3 (Foreground)
//Storyboard Sound Samples
//Background Colour Transformations
3,100,163,162,255

[TimingPoints]
14894,428.571428571429,4,1,0,41,1,0
30332,-100,4,2,0,51,0,0
30761,-100,4,1,0,41,0,0
33761,-100,4,2,0,51,0,0
34189,-100,4,1,0,41,0,0
37189,-100,4,2,0,51,0,0
37618,-100,4,1,0,41,0,0
55832,-117.647058823529,4,1,0,31,0,0
62689,-117.647058823529,4,1,0,36,0,0
69868,-100,4,1,0,41,0,0
85189,-100,4,2,0,41,0,0
85618,-100,4,1,0,41,0,0
95796,-100,4,2,0,56,0,0
97082,-100,4,1,0,41,0,0
110894,-100,4,1,0,51,0,1
124608,-100,4,1,0,41,0,0
137904,-100,4,2,0,61,0,0
152046,-100,4,1,0,36,0,0
162225,-100,4,1,0,51,0,0
162868,-100,4,1,0,61,0,0
165654,-100,4,2,0,41,0,0
167261,-117.647058823529,4,2,0,31,0,0
180332,-100,4,1,0,51,0,0
181179,-100,4,1,0,51,0,1
194904,-100,4,1,0,51,0,0

[HitObjects]
76,68,28608,1,0
256,4,29251,1,0
436,68,29894,1,0
256,360,31179,5,8
192,248,31608,1,0
320,248,32036,1,4
160,352,32679,1,0
352,352,33322,1,0
256,24,34608,5,8
192,136,35036,1,0
320,136,35465,1,4
160,32,36108,1,0
352,32,36751,1,0
256,360,38036,5,8
320,248,38465,1,0
192,248,38894,1,4
352,352,39536,1,0
160,352,40179,1,0
56,192,40822,5,8
256,32,41679,1,0
256,32,41894,1,0
380,48,42322,5,0
256,192,42965,1,0
132,336,43608,1,0
128,32,44893,5,8
256,32,45322,1,0
384,32,45751,1,4
492,192,46393,1,0
316,116,47036,1,0
384,32,48322,5,8
256,32,48751,1,0
128,32,49179,1,4
20,192,49822,1,0
196,116,50465,1,0
128,32,51751,5,8
256,32,52179,1,0
384,32,52608,1,4
492,192,53251,1,0
316,116,53893,1,0
52,36,56036,6,0,B|460:36,1,407.999982976914,0|8
460,140,57751,2,0,B|52:140,1,407.999982976914,0|8
120,224,59465,2,0,B|392:224,1,271.999988651276
256,316,60751,1,0
256,316,60965,1,0
412,140,62036,5,4
412,140,62465,1,4
460,36,62893,2,0,B|52:36,1,407.999982976914,0|8
52,140,64608,2,0,B|460:140,1,407.999982976914,0|8
392,224,66322,2,0,B|120:224,1,271.999988651276
256,316,67608,1,0
256,316,67822,1,0
120,320,83465,5,0
256,192,84108,1,0
392,64,84751,1,0
256,368,86036,5,8
256,240,86465,1,0
256,112,86893,1,4
152,272,87536,1,0
360,272,88179,1,0
256,12,89465,5,8
256,140,89893,1,0
256,268,90322,1,4
360,108,90965,1,0
152,108,91608,1,0
256,368,92893,5,8
256,240,93322,1,0
256,112,93751,1,4
360,272,94393,1,0
152,272,95036,1,0
52,352,95465,6,0,B|56:32,1,320
340,88,97179,5,0
176,192,97822,1,0
340,296,98465,1,0
32,352,99751,5,8
160,352,100179,1,0
96,240,100608,1,4
256,348,101251,1,0
168,176,101893,1,0
480,352,103179,5,8
352,352,103608,1,0
416,240,104036,1,4
256,348,104679,1,0
344,176,105322,1,0
32,352,106608,5,8
160,352,107036,1,0
96,240,107465,1,4
256,348,108108,1,0
160,176,108751,1,4
96,360,110036,5,0
96,360,110465,1,0
16,256,110893,2,0,B|16:179|107:126|232:174|174:256|116:337|241:385|332:332|332:256,1,480,0|8
496,128,112608,2,0,B|496:204|404:257|280:209|337:128|395:46|270:-1|179:51|179:128,1,480,0|8
16,256,114322,2,0,B|16:179|107:126|232:174|174:256|116:337|241:385|332:332|332:256,1,480,0|8
288,192,115822,1,0
416,360,116894,5,0
416,360,117323,1,0
496,256,117751,2,0,B|496:179|405:126|280:174|338:256|396:337|271:385|180:332|180:256,1,480,0|8
16,128,119466,2,0,B|16:204|108:257|232:209|175:128|117:46|242:-1|333:51|333:128,1,480,0|8
496,256,121180,2,0,B|496:179|405:126|280:174|338:256|396:337|271:385|180:332|180:256,1,480,0|8
256,192,122679,12,0,124608
416,72,138322,5,0
224,72,138965,1,0
96,72,139393,1,8
69,237,140036,2,0,B|82:206|114:192|156:192|156:192|212:192,1,160
299,192,140679,2,0,B|356:192|356:192|397:192|429:206|442:237,1,160
212,360,141751,2,0,B|184:320|200:272|256:244|312:272|328:320|300:360,4,240,4|0|0|0|4
96,72,145179,5,0
288,72,145822,1,8
416,72,146251,1,8
442,237,146894,2,0,B|429:206|397:192|356:192|356:192|300:192,1,160
212,192,147537,2,0,B|156:192|156:192|114:192|82:206|69:237,1,160
300,360,148608,2,0,B|328:320|312:272|256:244|200:272|184:320|212:360,4,240,0|4|0|4|0
404,80,152036,6,0,B|336:28|256:8|176:28|108:80,1,320,0|8
56,264,153536,2,0,B|460:264,1,400
404,148,155036,2,0,B|336:96|256:76|176:96|108:148,1,320,0|8
256,196,156322,1,0
372,348,156965,1,8
120,92,158894,6,0,B|168:24|256:-12|344:24|392:92,1,320,0|8
192,140,160179,2,0,B|208:104|256:84|304:104|320:144,1,160
384,256,161036,2,0,B|368:292|320:312|272:292|256:252,1,160
260,380,161894,1,0
156,304,162322,1,0
52,228,162751,1,0
176,192,163179,2,0,B|336:192,1,160
256,192,164036,12,0,165751
412,140,166608,5,0
412,140,167036,1,0
460,36,167465,2,0,B|52:36,1,407.999982976914,0|8
52,140,169179,2,0,B|460:140,1,407.999982976914,0|8
392,224,170894,2,0,B|120:224,1,271.999988651276
256,316,172179,1,0
256,316,172394,1,0
412,140,173465,5,4
412,140,173894,1,4
460,36,174322,2,0,B|52:36,1,407.999982976914,0|8
52,140,176036,2,0,B|460:140,1,407.999982976914,0|8
392,224,177751,2,0,B|120:224,1,271.999988651276
16,252,179036,6,0,B|84:340|176:368|256:372|336:368|428:340|496:252,1,543.999977302552
512,112,181179,6,0,B|512:189|421:242|296:194|354:112|412:31|287:-17|196:36|196:112,1,480,0|8
0,272,182894,2,0,B|0:196|92:143|216:191|159:272|101:354|226:401|317:349|317:272,1,480,0|8
512,112,184608,2,0,B|512:189|421:242|296:194|354:112|412:31|287:-17|196:36|196:112,1,480,0|8
272,136,186108,1,0
104,16,187179,5,4
104,16,187608,1,4
0,112,188036,2,0,B|0:189|92:242|216:194|159:112|101:31|226:-17|317:36|317:112,1,480,0|8
512,272,189751,2,0,B|512:196|421:143|296:191|354:272|412:354|287:401|196:349|196:272,1,480,0|8
0,112,191465,2,0,B|0:188|91:241|216:193|158:112|100:30|225:-17|316:35|316:112,1,480,0|8
256,192,192965,12,4,194893
