osu file format v14

[General]
AudioFilename: Teminite - Ascent.mp3
AudioLeadIn: 0
PreviewTime: 74292
Countdown: 0
SampleSet: Normal
StackLeniency: 0.7
Mode: 0
LetterboxInBreaks: 1
WidescreenStoryboard: 0

[Editor]
Bookmarks: 21929,39383,56838,74292,113565,165929
DistanceSpacing: 0.5
BeatDivisor: 4
GridSize: 4
TimelineZoom: 1.7

[Metadata]
Title:Ascent
TitleUnicode:Ascent
Artist:Teminite
ArtistUnicode:Teminite
Creator:Sauziteoi
Version:Extra
Source:
Tags:
BeatmapID:986245
BeatmapSetID:460523

[Difficulty]
HPDrainRate:6
CircleSize:3
OverallDifficulty:8
ApproachRate:9.4
SliderMultiplier:1.9
SliderTickRate:1

[Events]
//Background and Video events
0,0,"BG.jpg",0,0
//Break Periods
2,35219,38434
//Storyboard Layer 0 (Background)
//Storyboard Layer 1 (Fail)
//Storyboard Layer 2 (Pass)
//Storyboard Layer 3 (Foreground)
//Storyboard Sound Samples

[TimingPoints]
111,545.454545454546,4,2,0,50,1,0
21929,-100,4,2,1,50,0,0
39383,-200,4,1,2,70,0,0
39792,-66.6666666666667,4,1,2,70,0,0
41565,-200,4,1,2,70,0,0
41974,-66.6666666666667,4,1,2,70,0,0
43747,-200,4,1,2,70,0,0
44156,-66.6666666666667,4,1,2,70,0,0
45929,-200,4,1,2,70,0,0
46338,-66.6666666666667,4,1,2,70,0,0
48111,-200,4,1,2,70,0,0
48520,-66.6666666666667,4,1,2,70,0,0
50292,-200,4,1,2,70,0,0
50701,-66.6666666666667,4,1,2,70,0,0
52474,-200,4,1,2,70,0,0
52883,-66.6666666666667,4,1,2,70,0,0
54656,-200,4,1,2,70,0,0
55065,-66.6666666666667,4,1,2,70,0,0
56838,-100,4,1,2,70,0,0
59020,-200,4,1,2,70,0,0
59429,-100,4,1,2,70,0,0
61201,-200,4,1,2,70,0,0
61747,-100,4,1,2,70,0,0
63383,-200,4,1,2,70,0,0
63792,-100,4,1,2,70,0,0
67747,-200,4,1,2,70,0,0
68156,-100,4,1,2,70,0,0
69929,-200,4,1,2,70,0,0
70338,-100,4,1,2,70,0,0
72111,-200,4,1,2,70,0,0
72520,-100,4,1,2,70,0,0
74292,-66.6666666666667,4,1,2,80,0,1
91747,-100,4,1,2,70,0,0

[HitObjects]
194,98,4474,6,0,P|106:86|66:86,2,95,4|0|0,0:0|0:0|0:0,0:0:0:0:
334,158,5292,1,0,0:0:0:0:
334,158,5429,1,0,0:0:0:0:
334,158,5565,2,0,P|384:137|446:108,1,95
239,178,6111,2,0,P|192:264|255:368,1,190
222,344,7201,6,0,P|146:300|71:309,1,142.5
93,301,7747,1,0,0:0:0:0:
137,158,8020,1,0,0:0:0:0:
300,297,8292,2,0,P|383:329|479:257,1,190
465,282,9383,6,0,P|439:218|485:140,1,142.5
466,153,9929,1,0,0:0:0:0:
350,224,10201,1,0,0:0:0:0:
188,122,10474,2,0,P|120:108|40:206,1,190
41,186,11565,6,0,P|48:131|46:37,1,142.5
46,44,12111,1,0,0:0:0:0:
135,202,12383,1,0,0:0:0:0:
260,124,12656,2,0,P|315:115|369:117,1,95
354,115,13065,1,0,0:0:0:0:
354,115,13201,1,4,0:0:0:0:
458,273,13474,6,0,L|467:155,1,95
382,324,14020,1,0,0:0:0:0:
382,324,14156,1,0,0:0:0:0:
382,324,14292,2,0,P|330:326|281:300,1,95
90,264,14838,2,0,P|132:212|273:238,1,190
247,213,15929,6,0,P|277:156|241:53,1,142.5
264,81,16474,1,0,0:0:0:0:
373,225,16747,1,0,0:0:0:0:
185,133,17020,2,0,P|121:120|26:211,1,190
30,193,18111,6,0,P|27:243|39:345,1,142.5
36,334,18656,1,0,0:0:0:0:
196,299,18929,1,0,0:0:0:0:
112,155,19201,2,0,P|100:87|190:18,1,190
186,18,20292,6,0,P|243:43|347:22,1,142.5
321,35,20838,1,0,0:0:0:0:
112,155,21111,1,0,0:0:0:0:
323,173,21383,2,0,P|344:233|331:275,1,95
274,324,21792,1,0,0:0:0:0:
180,338,21929,6,0,L|62:323,1,95,4|0,0:0|0:0,0:0:0:0:
44,247,22338,2,0,P|30:195|63:128,1,95,2|0,0:0|0:0,0:0:0:0:
97,85,22747,2,0,L|314:99,2,190,2|2|2,0:0|0:0|0:0,0:0:0:0:
44,247,24111,6,0,P|30:195|63:128,1,95,2|0,0:0|0:0,0:0:0:0:
125,199,24520,2,0,P|176:204|225:176,1,95,2|0,0:0|0:0,0:0:0:0:
273,96,24929,2,0,P|309:136|270:278,2,190,2|2|2,0:0|0:0|0:0,0:0:0:0:
125,199,26292,6,0,L|133:306,1,95,2|0,0:0|0:0,0:0:0:0:
208,347,26701,2,0,P|249:322|309:337,1,95,2|0,0:0|0:0,0:0:0:0:
412,324,27111,2,0,P|385:259|264:217,2,190,2|2|2,0:0|0:0|0:0,0:0:0:0:
462,147,28474,6,0,P|470:82|465:39,1,95,2|0,0:0|0:0,0:0:0:0:
366,93,28883,2,0,P|326:137|290:165,1,95,2|0,0:0|0:0,0:0:0:0:
208,122,29292,2,0,P|140:100|34:196,2,190,2|2|2,0:0|0:0|0:0,0:0:0:0:
208,122,30520,1,0,0:0:0:0:
208,122,30656,6,0,P|210:188|210:246,1,95,2|0,0:0|0:0,0:0:0:0:
148,293,31065,1,2,0:0:0:0:
148,293,31201,1,0,0:0:0:0:
346,340,31474,1,2,0:0:0:0:
346,340,31611,1,0,0:0:0:0:
346,340,31747,2,0,L|466:330,1,95,0|2,0:0|0:0,0:0:0:0:
308,199,32292,1,0,0:0:0:0:
250,345,32565,1,2,0:0:0:0:
308,199,32838,6,0,P|325:147|302:94,1,95,2|0,0:0|0:0,0:0:0:0:
241,53,33247,1,2,0:0:0:0:
149,49,33383,2,0,L|22:46,1,95,0|2,0:0|0:0,0:0:0:0:
96,229,33929,1,0,0:0:0:0:
240,142,34201,1,2,0:0:0:0:
189,326,34474,1,0,0:0:0:0:
147,143,34747,2,0,L|148:48,1,95,2|4,0:0|0:0,0:0:0:0:
110,231,38974,6,0,L|100:175,2,47.5,4|8|4,0:3|0:3|0:3,0:0:0:0:
213,319,39383,6,0,L|302:325,1,71.25,4|0,0:0|0:0,0:0:0:0:
359,277,39929,5,8,0:0:0:0:
414,78,40065,1,0,0:0:0:0:
306,114,40201,1,2,0:0:0:0:
468,246,40338,2,0,P|484:310|488:346,1,71.2500027179719,0|4,0:0|0:0,0:0:0:0:
278,211,40611,1,0,0:0:0:0:
498,145,40747,1,2,0:0:0:0:
325,19,40883,1,0,0:0:0:0:
359,277,41020,2,0,P|405:288|450:289,1,71.2500027179719,8|0,0:0|0:0,0:0:0:0:
278,211,41292,1,2,0:0:0:0:
414,78,41429,1,2,0:0:0:0:
284,323,41565,6,0,P|241:318|205:320,1,71.25,4|0,0:0|0:0,0:0:0:0:
130,344,42111,5,8,0:0:0:0:
56,151,42247,1,0,0:0:0:0:
169,254,42383,1,2,0:0:0:0:
95,61,42520,2,0,P|85:10|83:-15,1,71.2500027179719,0|4,0:0|0:0,0:0:0:0:
220,85,42792,1,0,0:0:0:0:
56,151,42929,1,2,0:0:0:0:
228,173,43065,1,0,0:0:0:0:
64,239,43201,2,0,P|56:283|53:320,1,71.2500027179719,8|0,0:0|0:0,0:0:0:0:
95,61,43474,1,2,0:0:0:0:
95,61,43611,1,2,0:0:0:0:
221,284,43747,6,0,P|256:286|291:281,1,71.25,4|0,0:0|0:0,0:0:0:0:
364,229,44292,5,8,0:0:0:0:
285,64,44429,1,0,0:0:0:0:
405,316,44565,1,2,0:0:0:0:
399,105,44701,2,0,P|408:61|423:23,1,71.2500027179719,0|4,0:0|0:0,0:0:0:0:
466,169,44974,1,0,0:0:0:0:
323,145,45111,1,2,0:0:0:0:
483,258,45247,1,0,0:0:0:0:
285,64,45383,2,0,P|277:29|276:-12,1,71.2500027179719,8|0,0:0|0:0,0:0:0:0:
466,169,45656,2,0,P|474:134|475:93,1,71.2500027179719,2|2,0:0|0:0,0:0:0:0:
256,274,45929,6,0,P|248:239|246:203,1,71.2500027179719,4|0,0:0|0:0,0:0:0:0:
189,337,46474,5,8,0:0:0:0:
183,115,46611,1,0,0:0:0:0:
96,334,46747,1,2,0:0:0:0:
91,109,46883,2,0,L|86:25,1,71.2500027179719,0|4,0:0|0:0,0:0:0:0:
241,187,47156,1,0,0:0:0:0:
26,172,47292,1,2,0:0:0:0:
167,269,47429,2,0,P|183:311|192:365,1,71.2500027179719,0|8,0:0|0:0,0:0:0:0:
74,251,47701,1,0,0:0:0:0:
232,35,47838,1,2,0:0:0:0:
30,36,47974,1,2,0:0:0:0:
241,187,48111,6,0,P|258:228|262:274,1,71.2500027179719,4|0,0:0|0:0,0:0:0:0:
333,102,48656,5,8,0:0:0:0:
326,323,48792,1,0,0:0:0:0:
417,182,48929,2,0,P|451:135|481:111,1,71.2500027179719,2|0,0:0|0:0,0:0:0:0:
402,275,49201,1,4,0:0:0:0:
406,40,49338,1,0,0:0:0:0:
331,224,49474,2,0,P|297:271|267:295,1,71.2500027179719,2|0,0:0|0:0,0:0:0:0:
345,94,49747,2,0,P|413:66|485:100,1,142.500005435944,8|2,0:0|0:0,0:0:0:0:
475,328,50156,1,2,0:0:0:0:
299,212,50292,6,0,L|206:208,1,71.2500027179719,4|0,0:0|0:0,0:0:0:0:
133,197,50838,5,8,0:0:0:0:
133,197,50974,1,0,0:0:0:0:
106,82,51111,1,2,0:0:0:0:
155,290,51247,2,0,P|161:325|160:367,1,71.2500027179719,0|4,0:0|0:0,0:0:0:0:
45,173,51520,1,0,0:0:0:0:
201,95,51656,1,2,0:0:0:0:
27,35,51792,1,0,0:0:0:0:
226,235,51929,2,0,P|243:309|190:378,1,142.500005435944,8|2,0:0|0:0,0:0:0:0:
67,263,52338,1,2,0:0:0:0:
221,141,52474,6,0,B|239:144|239:144|272:140|272:140|299:145,1,71.25,4|0,0:0|0:0,0:0:0:0:
372,99,53020,5,8,0:0:0:0:
372,99,53156,1,0,0:0:0:0:
372,99,53292,1,2,0:0:0:0:
451,258,53429,2,0,L|448:356,1,71.2500027179719,0|4,0:0|0:0,0:0:0:0:
477,80,53701,1,0,0:0:0:0:
477,80,53838,1,2,0:0:0:0:
477,80,53974,1,0,0:0:0:0:
353,281,54111,2,0,L|350:379,1,71.2500027179719,8|0,0:0|0:0,0:0:0:0:
372,99,54383,1,2,0:0:0:0:
451,258,54520,1,2,0:0:0:0:
276,119,54656,6,0,L|199:113,1,71.2500027179719,4|0,0:0|0:0,0:0:0:0:
117,104,55201,5,8,0:0:0:0:
90,318,55338,1,0,0:0:0:0:
105,213,55474,1,2,0:0:0:0:
188,301,55611,2,0,P|206:315|260:346,1,71.2500027179719,0|4,0:0|0:0,0:0:0:0:
247,340,56020,5,2,0:0:0:0:
217,217,56156,1,0,0:0:0:0:
27,259,56292,1,8,0:0:0:0:
57,136,56428,1,0,0:0:0:0:
234,136,56565,1,2,0:0:0:0:
204,13,56701,1,2,0:0:0:0:
102,320,56838,5,4,0:0:0:0:
102,320,57111,2,0,L|176:326,1,47.5,2|0,0:0|0:0,0:0:0:0:
242,263,57383,2,0,P|289:251|341:271,1,95,8|2,0:0|0:0,0:0:0:0:
413,335,57792,1,0,0:0:0:0:
467,231,57929,2,0,L|407:236,1,47.5,4|0,0:0|0:0,0:0:0:0:
286,345,58201,2,0,L|226:340,1,47.5,2|0,0:0|0:0,0:0:0:0:
95,245,58474,2,0,P|64:296|123:368,1,142.5,8|0,0:0|0:0,0:0:0:0:
182,224,59020,6,0,L|174:146,1,71.25,4|0,0:0|0:0,0:0:0:0:
241,77,59565,6,0,P|199:54|103:81,1,142.5,8|0,0:0|0:0,0:0:0:0:
306,151,60111,1,4,0:0:0:0:
306,151,60247,1,0,0:0:0:0:
425,39,60383,1,2,0:0:0:0:
425,39,60520,1,0,0:0:0:0:
488,162,60656,2,0,L|432:159,1,47.5,8|0,0:0|0:0,0:0:0:0:
315,40,60929,2,0,L|259:43,1,47.5,2|0,0:0|0:0,0:0:0:0:
170,162,61201,6,0,P|177:206|176:247,1,71.25,4|0,0:0|0:0,0:0:0:0:
244,307,61747,6,0,P|202:330|106:303,1,142.5,8|0,0:0|0:0,0:0:0:0:
306,233,62293,1,4,0:0:0:0:
306,233,62429,1,0,0:0:0:0:
425,345,62565,1,2,0:0:0:0:
425,345,62702,1,0,0:0:0:0:
488,222,62838,2,0,L|432:225,1,47.5,8|0,0:0|0:0,0:0:0:0:
315,344,63111,2,0,L|259:341,1,47.5,2|0,0:0|0:0,0:0:0:0:
139,244,63383,6,0,P|129:196|143:160,1,71.25,4|0,0:0|0:0,0:0:0:0:
193,64,63929,6,0,P|245:89|326:49,1,142.5,8|0,0:0|0:0,0:0:0:0:
484,71,64474,2,0,L|420:84,1,47.5,4|0,0:0|0:0,0:0:0:0:
178,158,64747,2,0,L|242:171,1,47.5,2|0,0:0|0:0,0:0:0:0:
496,168,65020,2,0,L|432:181,1,47.5,8|0,0:0|0:0,0:0:0:0:
193,64,65292,1,2,0:0:0:0:
379,145,65429,1,0,0:0:0:0:
217,248,65565,1,4,0:0:0:0:
217,248,65838,6,0,L|210:317,1,47.5,2|0,0:0|0:0,0:0:0:0:
108,342,66111,2,0,L|103:294,1,47.5,8|0,0:0|0:0,0:0:0:0:
19,251,66383,1,2,0:0:0:0:
204,373,66520,1,0,0:0:0:0:
343,247,66656,2,0,L|397:240,1,47.5,4|0,0:0|0:0,0:0:0:0:
502,319,66929,2,0,L|448:312,1,47.5,2|0,0:0|0:0,0:0:0:0:
290,321,67201,2,0,P|256:273|292:175,1,142.5,8|0,0:0|0:0,0:0:0:0:
418,121,67747,6,0,L|415:204,1,71.25,4|0,0:0|0:0,0:0:0:0:
343,247,68292,6,0,L|167:237,1,142.5,8|0,0:0|0:0,0:0:0:0:
46,315,68838,1,4,0:0:0:0:
30,227,68974,1,0,0:0:0:0:
141,320,69111,1,2,0:0:0:0:
166,228,69247,1,0,0:0:0:0:
259,298,69383,2,0,P|291:243|257:154,1,142.5,8|0,0:0|0:0,0:0:0:0:
73,127,69929,6,0,L|80:209,1,71.25,4|0,0:0|0:0,0:0:0:0:
129,290,70474,6,0,P|193:268|280:333,1,142.5,8|0,0:0|0:0,0:0:0:0:
345,358,71020,1,4,0:0:0:0:
330,243,71156,1,0,0:0:0:0:
442,350,71292,1,2,0:0:0:0:
457,235,71428,1,0,0:0:0:0:
258,297,71565,2,0,P|239:243|276:168,1,142.5,8|0,0:0|0:0,0:0:0:0:
396,105,72111,6,0,L|389:193,1,71.25,4|0,0:0|0:0,0:0:0:0:
258,297,72656,6,0,P|185:283|103:282,1,142.5,8|0,0:0|0:0,0:0:0:0:
35,208,73201,2,0,P|94:200|109:202,1,47.5,4|0,0:0|0:0,0:0:0:0:
214,202,73474,2,0,P|240:206|281:217,1,47.5,2|0,0:0|0:0,0:0:0:0:
384,291,73747,2,0,P|415:315|433:344,1,47.5,8|0,0:0|0:0,0:0:0:0:
258,297,74020,1,2,0:0:0:0:
461,218,74156,1,0,0:0:0:0:
268,122,74292,1,4,0:0:0:0:
289,29,74565,5,2,0:0:0:0:
357,213,74838,2,0,L|356:133,1,71.2500027179719,8|0,0:0|0:0,0:0:0:0:
289,29,75111,1,2,0:0:0:0:
191,160,75247,2,0,P|172:166|108:161,1,71.2500027179719,0|4,0:0|0:0,0:0:0:0:
248,241,75520,1,0,0:0:0:0:
289,29,75656,1,2,0:0:0:0:
412,134,75792,1,0,0:0:0:0:
208,71,75929,2,0,B|134:80|134:80|83:124|83:124|-4:133,1,213.750008153916,8|0,0:0|0:0,0:0:0:0:
52,309,76474,5,4,0:0:0:0:
106,223,76611,1,0,0:0:0:0:
181,301,76747,1,2,0:0:0:0:
235,215,76884,1,0,0:0:0:0:
308,286,77020,1,8,0:0:0:0:
362,200,77157,1,0,0:0:0:0:
437,278,77293,1,2,0:0:0:0:
450,274,77565,1,4,0:0:0:0:
463,270,77838,1,2,0:0:0:0:
476,267,78111,1,8,0:0:0:0:
489,264,78383,2,0,P|501:203|495:172,1,71.2500027179719,2|0,0:0|0:0,0:0:0:0:
430,133,78656,6,0,P|362:149|260:36,1,213.750008153916,4|0,0:0|0:0,0:0:0:0:
140,201,79201,2,0,P|208:217|310:104,1,213.750008153916,8|0,0:0|0:0,0:0:0:0:
432,269,79747,2,0,P|364:285|262:172,1,213.750008153916,4|0,0:0|0:0,0:0:0:0:
138,339,80292,2,0,P|206:355|308:242,1,213.750008153916,8|0,0:0|0:0,0:0:0:0:
154,196,80838,6,0,P|173:222|207:261,1,71.2500027179719,4|0,0:0|0:0,0:0:0:0:
113,87,81111,1,2,0:0:0:0:
113,87,81247,1,0,0:0:0:0:
254,185,81383,2,0,P|273:211|307:250,1,71.2500027179719,8|0,0:0|0:0,0:0:0:0:
213,76,81656,1,2,0:0:0:0:
213,76,81792,1,0,0:0:0:0:
179,272,81929,6,0,P|160:298|126:337,1,71.2500027179719,4|0,0:0|0:0,0:0:0:0:
220,163,82202,1,2,0:0:0:0:
220,163,82338,1,0,0:0:0:0:
83,266,82474,2,0,P|64:292|30:331,1,71.2500027179719,8|0,0:0|0:0,0:0:0:0:
124,157,82747,1,2,0:0:0:0:
124,157,82883,1,0,0:0:0:0:
298,264,83020,6,0,B|338:288|338:288|365:334|365:334|395:341|437:330|461:285,1,213.750008153916,4|0,0:0|0:0,0:0:0:0:
304,145,83565,2,0,L|214:158,1,71.2500027179719,8|0,0:0|0:0,0:0:0:0:
435,57,83838,1,2,0:0:0:0:
470,216,83974,2,0,L|455:314,1,71.2500027179719,0|4,0:0|0:0,0:0:0:0:
300,129,84247,1,0,0:0:0:0:
431,41,84383,1,2,0:0:0:0:
466,200,84520,1,0,0:0:0:0:
230,67,84656,2,0,B|218:64|218:64|218:67|218:67|212:62|212:62|212:67|212:67|205:60|205:60|200:72|200:72|149:58|149:58|108:75|108:75|-2:69,1,213.750008153916,8|0,0:0|0:0,0:0:0:0:
65,257,85201,5,4,0:0:0:0:
151,171,85338,1,0,0:0:0:0:
178,283,85474,1,2,0:0:0:0:
64,168,85611,1,0,0:0:0:0:
227,213,85748,1,8,0:0:0:0:
106,334,85884,1,0,0:0:0:0:
182,89,86020,1,2,0:0:0:0:
196,87,86292,1,4,0:0:0:0:
90,108,86565,1,2,0:0:0:0:
210,85,86838,1,8,0:0:0:0:
224,83,87111,2,0,P|272:89|307:101,1,71.2500027179719,2|0,0:0|0:0,0:0:0:0:
465,132,87383,6,0,L|445:358,1,213.750008153916,4|0,0:0|0:0,0:0:0:0:
329,204,87929,2,0,P|249:177|149:297,1,213.750008153916,8|0,0:0|0:0,0:0:0:0:
366,291,88474,2,0,P|420:231|359:104,1,213.750008153916,4|0,0:0|0:0,0:0:0:0:
259,286,89020,2,0,B|220:328|220:328|126:330|66:282,1,213.750008153916,8|0,0:0|0:0,0:0:0:0:
200,143,89565,6,0,P|205:89|201:48,1,71.2500027179719,4|0,0:0|0:0,0:0:0:0:
281,197,89838,1,2,0:0:0:0:
147,224,89974,1,0,0:0:0:0:
288,108,90111,2,0,P|293:54|289:13,1,71.2500027179719,8|0,0:0|0:0,0:0:0:0:
369,162,90384,1,2,0:0:0:0:
235,189,90520,1,0,0:0:0:0:
355,257,90656,6,0,P|366:298|372:342,1,71.2500027179719,4|0,0:0|0:0,0:0:0:0:
416,188,90929,1,2,0:0:0:0:
270,242,91065,1,0,0:0:0:0:
442,264,91201,2,0,P|453:305|459:349,1,71.2500027179719,8|0,0:0|0:0,0:0:0:0:
503,195,91474,1,2,0:0:0:0:
357,249,91610,1,0,0:0:0:0:
