osu file format v8

[General]
AudioFilename: Teletubbies - Teletubbies say 'Eh Oh!'.mp3
AudioLeadIn: 0
PreviewTime: 40064
Countdown: 1
SampleSet: Normal
StackLeniency: 0.7
Mode: 0
LetterboxInBreaks: 0

[Editor]
Bookmarks: 40070,55430,59256,74630,89964,105317,120710,136070,153298,170571,185925
DistanceSpacing: 1.20000004768372
BeatDivisor: 4
GridSize: 8

[Metadata]
Title:Teletubbies Say "Eh-oh"
Artist:Teletubbies
Creator:Mashley
Version:Normal
Source:
Tags:0_o gladi mariobros777 randomjibberish notshinta doomsday larto

[Difficulty]
HPDrainRate:4
CircleSize:3
OverallDifficulty:3
ApproachRate:4
SliderMultiplier:1.6
SliderTickRate:2

[Events]
//Background and Video events
0,0,"bg.jpg"
Video,560,"Teletubbies .flv"
//Break Periods
2,53698,57926
2,135745,151968
//Storyboard Layer 0 (Background)
//Storyboard Layer 1 (Fail)
//Storyboard Layer 2 (Pass)
//Storyboard Layer 3 (Foreground)
//Storyboard Sound Samples
//Background Colour Transformations
3,100,163,162,255

[TimingPoints]
24700.2362204724,479.808076769292,4,1,0,70,1,0
97401,-100,4,2,0,70,0,0
104718,-100,4,1,0,70,0,0
170571,-100,4,1,0,70,0,1
185925,-100,4,1,0,70,0,0

[Colours]
Combo1 : 223,0,0
Combo2 : 84,0,168
Combo3 : 0,221,0
Combo4 : 221,221,0

[HitObjects]
48,56,40054,2,0,B|48:128|128:152|128:152,1,120,4|0
152,144,40533,2,0,B|224:64|312:160|312:160,1,160,0|0
216,280,41493,1,8
360,352,41973,6,0,B|376:272|464:328|480:232|480:232,1,160
472,88,42932,1,2
328,152,43412,1,0
192,72,43892,6,0,B|112:24|32:72|32:72,1,160
72,144,44612,1,0
112,216,44852,2,2,B|192:168|272:216|272:216,1,160
256,376,45811,5,4
184,64,46771,2,2,B|256:16|336:64|336:64,1,160,0|0
481,151,47731,6,0,B|505:231|441:271,1,120,4|0
417,271,48210,1,8
369,206,48450,1,0
327,137,48690,2,0,B|263:97|231:193|151:129|151:129,1,160,0|8
48,38,49650,6,2,B|-16:78|16:166|16:166,1,120
22,182,50130,1,0
61,251,50369,1,2
123,300,50609,2,0,B|197:348|307:296|307:296,1,160,0|8
164,218,51569,5,0
356,166,52529,1,0
256,40,53488,1,2
197,79,59246,6,0,B|213:127|261:143|309:119|317:71,1,160,4|8
472,192,60206,1,0
336,328,60685,1,8
256,152,61165,1,0
176,328,61645,1,8
40,192,62125,1,4
472,192,63084,6,0,B|424:240|392:200|392:200|344:192|328:288|328:288|208:352|144:160|64:232,1,480,4|8
256,128,65004,5,0
200,312,65483,1,8
352,200,65963,1,4
160,200,66443,1,12
312,312,66923,5,4
312,312,67403,2,0,B|344:232|304:144,1,160,8|0
344,64,68122,1,0
344,64,68362,2,0,B|304:112|232:56|232:56|248:112|160:160|120:88|120:88|88:192|136:296|136:296|216:272|208:192|208:192|288:256|376:192,1,800,8|4
432,160,71001,5,0
448,256,71241,1,8
416,72,71721,1,0
448,256,72201,1,8
416,72,72681,6,0,B|328:56,1,80
280,136,73160,2,0,B|192:96,1,80,0|0
120,160,73640,6,0,B|72:88,2,80,4|0|4
249,143,74600,38,2,L|185:31|329:31|289:103,1,320
368,360,76519,6,4,L|368:184,1,160
256,360,77479,2,2,B|256:184,1,160
48,256,78438,6,0,B|70:83|216:95|232:233|124:306|48:256|32:96|168:48,1,480,2|0
312,160,80357,6,4,B|250:94|297:4|415:-1|473:111|372:178,1,320
64,320,82277,5,2
256,320,82757,1,8
312,240,82996,1,0
368,320,83236,1,0
312,96,83716,1,8
168,88,84196,6,0,B|16:96|16:296|80:336,1,320,4|8
312,336,86115,5,6
480,240,86595,1,0
410,57,87075,2,6,B|336:104|176:104|101:56,1,320
72,304,88514,5,8
256,368,88994,1,0
256,272,89234,2,8,B|256:176,1,80
192,128,89714,5,0
256,56,89954,2,0,B|392:72|384:224,1,200
304,304,90913,1,0
208,304,91153,1,8
256,224,91393,1,0
96,328,91873,6,0,B|8:288|40:176,2,160,0|8|4
256,224,93312,1,4
256,56,93792,6,0,B|120:72|128:224,1,200
208,304,94752,1,0
304,304,94992,1,8
256,224,95232,1,0
416,328,95711,6,0,B|504:288|472:176,2,160,0|8|4
256,224,97151,1,4
88,320,97631,6,0,B|272:320,1,160,2|0
424,240,98590,2,0,B|240:240,1,160,2|0
256,48,99550,1,2
440,96,100030,1,0
256,144,100509,1,2
72,104,100989,1,0
256,144,101469,6,0,B|448:144,1,160,2|0
256,224,102429,2,0,B|64:224,1,160,2|0
256,304,103388,2,0,B|432:304,1,160,2|0
256,384,104348,1,4
176,32,105307,6,0,B|344:32,2,160,2|0|2
256,192,106747,1,0
336,352,107227,2,4,B|168:352,2,160
32,192,109146,5,0
144,32,109626,1,0
256,192,110106,1,0
368,352,110585,1,0
480,192,111065,1,0
480,192,111545,1,0
480,192,112025,1,4
48,192,112984,5,0
48,192,113464,2,0,B|224:192,1,160,8|0
464,192,114424,2,0,B|288:192,1,160,8|0
152,264,115383,6,2,B|192:320|256:352|320:320|360:256,2,240,2|0|2
152,120,117303,2,0,B|192:64|256:32|320:64|360:128,2,240
72,296,119222,1,8
256,360,119702,1,8
440,296,120182,1,8
256,240,120661,38,0,B|200:272|136:256|104:176,1,160,4|8
256,72,121621,1,0
256,72,122101,1,8
256,240,122581,6,0,B|312:272|376:256|408:176,1,160,2|8
256,72,123540,1,2
256,72,124020,1,8
64,88,124500,6,0,B|48:152|96:208|184:176,1,160,0|8
352,184,125459,2,0,B|417:192|457:144|441:80,1,160,0|8
256,120,126419,5,0
120,320,127379,2,2,B|168:248|256:224|344:248|392:320,1,320,2|4
496,192,128818,5,8
496,192,129058,1,0
216,128,129778,6,0,B|160:152|160:232|216:254,1,160,8|4
32,192,130737,1,8
32,192,130977,1,0
256,344,131697,1,8
256,192,132177,12,0,135535
48,128,153288,6,0,B|112:48|208:80,1,160,6|0
224,168,154008,2,0,B|160:248|64:216,1,160,6|0
64,312,154728,1,8
160,336,154968,1,0
256,312,155208,22,0,B|344:272|344:176,1,160,6|8
256,72,156167,2,0,B|168:112|168:208,1,160,6|2
336,104,157127,5,6
496,192,157607,1,8
416,240,157846,1,0
336,280,158086,1,2
176,280,158566,1,2
56,144,159046,6,2,B|72:72|120:48|200:48,1,160
152,144,159766,1,0
176,232,160006,2,4,B|368:232,1,160
256,368,160965,1,2
40,232,161925,6,2,B|40:120|96:64|184:40|288:40,1,320,2|6
256,216,163364,5,8
328,264,163604,1,0
336,176,163844,1,6
352,88,164084,1,0
424,144,164324,1,2
440,320,164804,5,2
256,312,165284,1,8
184,360,165523,1,0
176,272,165763,1,6
160,184,166003,1,0
88,240,166243,1,2
88,64,166723,5,4
256,64,167683,2,2,B|288:120|360:168|480:128,1,240,2|0
424,64,168642,1,6
352,224,169122,1,8
176,192,169602,1,4
32,0,170561,22,0,B|-32:48|-24:136|24:192|80:192,1,240,4|0
144,136,171521,1,8
224,192,171761,1,0
304,136,172001,1,2
352,384,172481,5,8
160,384,172960,1,0
256,216,173440,1,2
256,24,173920,1,4
360,104,174400,6,2,B|400:152|392:216|328:248,1,160
256,216,175120,1,0
172,241,175359,2,2,B|119:215|111:151|151:103,1,160,2|0
8,232,176319,5,4
160,344,176799,1,8
352,344,177279,1,0
504,232,177759,1,8
368,96,178238,6,0,B|336:56|272:56|240:128|176:128|120:80,1,240,4|0
200,24,179198,1,8
144,312,180158,6,2,B|176:272|240:272|272:344|336:344|392:296,1,240,6|0
312,240,181117,1,8
200,376,181597,1,0
256,192,182077,12,4,185915
