osu file format v8

[General]
AudioFilename: Teletubbies - Teletubbies say 'Eh Oh!'.mp3
AudioLeadIn: 0
PreviewTime: 40064
Countdown: 1
SampleSet: Normal
StackLeniency: 0.7
Mode: 0
LetterboxInBreaks: 0

[Editor]
Bookmarks: 40070,55430,59256,74630,89964,105317,120710,136070,153298,170571,185925
DistanceSpacing: 1.29999995231628
BeatDivisor: 4
GridSize: 8

[Metadata]
Title:Teletubbies Say "Eh-oh"
Artist:Teletubbies
Creator:Mashley
Version:Easy
Source:
Tags:0_o gladi mariobros777 randomjibberish notshinta doomsday larto

[Difficulty]
HPDrainRate:2
CircleSize:3
OverallDifficulty:2
ApproachRate:2
SliderMultiplier:1.1
SliderTickRate:2

[Events]
//Background and Video events
0,0,"bg.jpg"
Video,560,"Teletubbies .flv"
//Break Periods
2,53688,57686
2,135735,151728
//Storyboard Layer 0 (Background)
//Storyboard Layer 1 (Fail)
//Storyboard Layer 2 (Pass)
//Storyboard Layer 3 (Foreground)
//Storyboard Sound Samples
//Background Colour Transformations
3,100,163,162,255

[TimingPoints]
24700.2362204724,479.808076769292,4,1,0,70,1,0
97401,-100,4,2,0,70,0,0
104497,-100,4,1,0,70,0,0
170571,-100,4,1,0,70,0,1
185925,-100,4,1,0,70,0,0

[Colours]
Combo1 : 223,0,0
Combo2 : 84,0,168
Combo3 : 0,221,0
Combo4 : 221,221,0

[HitObjects]
48,56,40054,2,0,B|48:128|128:192|216:152|216:152,1,220
296,64,41493,1,8
416,48,41973,6,0,B|472:96|368:104|432:168|432:168,1,110,0|0
488,248,42932,2,0,B|432:296|536:304|472:368|472:368,1,110,2|0
360,352,43892,6,0,B|312:296|264:352|264:352,1,110
264,232,44852,2,2,B|216:176|168:232|168:232,1,110,2|2
88,144,45811,5,4
312,64,46771,2,2,B|368:56|416:112,1,110,0|0
472,224,47731,6,0,B|472:304|408:328|408:328,2,110,4|0|0
360,184,49170,1,8
304,76,49650,6,2,B|256:32|200:76|200:76,2,110,2|2|2
254,186,51089,1,8
168,264,51569,5,0
256,80,52529,1,0
344,264,53488,1,2
96,128,59246,6,0,B|176:112|216:240|312:176,1,220,4|0
408,96,60685,1,8
408,96,61165,2,0,B|424:152|432:216,1,110,0|8
368,336,62125,1,4
368,336,62605,1,4
248,256,63084,6,0,B|176:240|136:304|136:304|88:264|128:192|72:112,1,330,0|8
216,72,65004,5,0
360,88,65483,1,8
216,72,65963,1,4
360,88,66443,1,4
432,208,66923,6,4,B|296:168|248:304,1,220,4|0
120,336,68362,2,0,B|72:272|208:184|80:136|80:136|32:200|120:272|224:232|224:136|224:136|272:96|272:96,1,550,8|4
384,56,71241,5,8
384,56,71721,2,0,B|400:168,1,110,0|8
504,264,72681,2,0,B|488:376,2,110
256,360,74600,5,4
256,216,75080,1,0
384,152,75559,2,2,B|360:104|296:88,1,110
152,88,76519,6,0,B|90:103|66:151,1,110,4|0
64,296,77479,2,2,B|87:343|149:359,1,110
256,264,78438,6,4,B|314:287|338:335,2,110,4|4|0
256,120,79878,1,0
144,200,80357,6,0,B|96:152|104:40|208:16,1,220,6|2
432,176,82277,6,0,B|412:263|300:271|252:223,1,220,4|0
312,96,83716,1,8
168,88,84196,6,0,B|16:96|16:296|104:336,1,330,4|8
256,344,86115,2,4,B|312:307|364:333|364:333|424:361|480:322,2,220,6|6|6
256,200,88514,6,8,B|256:80,1,110,8|0
152,320,89954,6,0,B|68:301|40:190|96:120,1,220,4|0
224,104,91393,1,8
360,64,91873,2,0,B|444:83|472:194|416:264,1,220,0|4
288,280,93312,1,4
144,288,93792,6,0,B|48:216|272:192|48:168|144:96,1,220,0|0
256,192,95232,1,0
368,288,95711,2,0,B|464:216|240:192|464:168|368:96,1,220,0|4
256,24,97151,1,4
136,104,97631,6,0,B|80:128|64:192|80:256|136:280,1,220,2|2
376,280,99550,2,0,B|432:256|448:192|432:128|376:104,1,220,2|2
136,102,101469,6,0,B|143:42|199:8|265:4|305:51,1,220,2|2
375,281,103388,2,0,B|368:341|312:375|246:379|206:332,1,220,2|2
128,192,105307,5,0
384,192,106267,1,0
256,328,107227,1,0
256,64,108186,1,4
48,32,109146,5,0
256,192,110106,1,0
456,72,111065,1,8
496,200,111545,1,0
456,328,112025,1,4
256,152,112984,6,0,B|24:152,1,220
40,288,114424,2,0,B|272:288,1,220
352,192,115863,6,0,B|464:192,2,110,0|8|0
256,96,117303,1,8
160,192,117783,1,0
256,280,118262,2,0,B|368:280,1,110,8|0
256,360,119222,2,0,B|144:360,1,110,8|0
200,240,120182,22,0,B|320:240,1,110,8|4
256,112,121141,1,0
256,112,121621,1,8
8,248,122581,6,0,B|112:192|112:304|216:248,1,220,0|8
504,136,124500,6,0,B|400:192|400:80|296:136,1,220,0|8
56,296,126419,6,0,B|112:224|216:224|184:352|328:352|296:224|400:224|456:296,1,440,0|4
480,152,128818,5,8
256,16,129778,1,8
112,264,130737,1,8
392,256,131697,1,8
256,192,132177,12,0,135535
256,8,153288,37,6
384,192,154008,1,2
384,192,154248,2,0,B|392:280|352:328|256:336,1,220,0|6
128,304,155687,5,8
56,192,156167,2,2,B|88:144|152:120|240:120|272:144,1,220,2|6
368,216,157607,5,8
456,104,158087,2,2,B|424:56|360:32|272:32|240:56,1,220,2|6
256,192,159526,5,8
312,312,160006,2,2,B|176:312,1,110
72,312,160965,5,4
440,312,161925,1,6
216,232,162884,5,6
88,280,163364,1,8
88,200,163604,1,0
296,152,164324,1,2
288,296,164804,5,6
416,344,165284,1,8
416,264,165524,1,2
208,216,166244,1,2
176,96,166723,6,4,B|184:40|256:0|328:40|336:96,2,220,4|6|6
432,48,170561,22,0,B|496:80|488:192|432:224|384:232,1,220
288,168,172001,1,0
200,56,172481,6,2,B|168:88|200:152|160:160,1,110,2|4
48,104,173440,1,2
64,232,173920,1,4
192,304,174400,6,0,B|248:352|328:336|344:280,1,165,8|0
384,232,175359,1,8
464,352,175839,1,0
472,208,176319,5,4
40,208,177279,1,6
152,56,178238,6,0,B|208:8|304:8|360:56,1,220
256,192,179678,1,8
152,328,180158,6,2,B|208:376|304:376|360:328,1,220,2|0
256,192,181598,1,0
256,192,182077,12,4,185915
