osu file format v5

[General]
AudioFilename: 05 Alleycat Blues.mp3
AudioLeadIn: 0
PreviewTime: -1
Countdown: 1
SampleSet: Normal
StackLeniency: 0.7
Mode: 0
LetterboxInBreaks: 1

[Metadata]
Title:Alleycat Blues
Artist:Teenage Mutant Ninja Turtles IV: Turtles in Time
Creator:0_o
Version:Normal
Source:Teenage Mutant Ninja Turtles IV - Turtles in Time
Tags:ninja turtles time

[Difficulty]
HPDrainRate:5
CircleSize:3
OverallDifficulty:4
SliderMultiplier:1
SliderTickRate:1

[Events]
//Background and Video events
//Break Periods
2,44843,48078
//Storyboard Layer 0 (Background)
//Storyboard Layer 1 (Failing)
//Storyboard Layer 2 (Passing)
//Storyboard Layer 3 (Foreground)
//Storyboard Sound Samples
//Background Colour Transformations
3,100,163,162,255

[TimingPoints]
2440,297.191539947496,4,1,0,100,1

[Colours]
Combo1 : 255,150,0
Combo2 : 68,123,253
Combo3 : 208,36,179
Combo4 : 240,5,5

[HitObjects]
112,80,6006,1,0
128,224,6600,2,0,B|128:336|256:336,1,150
384,304,7789,2,0,B|464:240|368:144,1,150
256,48,8978,1,0
256,192,9572,2,0,B|256:48,3,100
400,96,10984,5,0
400,192,11355,1,0
224,288,12173,1,0
224,192,12544,1,0
256,192,13138,12,0,14922
256,192,15516,5,0
112,192,16110,2,0,B|80:304|192:320,1,150
336,336,17299,2,0,B|432:320|448:192,1,150
256,192,18488,1,0
208,320,19082,2,0,B|272:368|336:288,3,100
400,240,20494,5,0
400,152,20865,1,0
200,152,21683,1,0
200,240,22054,1,0
256,192,22649,12,0,24432
88,96,25026,6,0,B|40:248|208:344|376:344,1,400
408,216,26809,1,0
344,88,27404,2,0,B|184:0|40:16|16:224,1,400
24,320,29187,1,0
192,176,30078,6,0,B|192:64,2,100
320,224,31267,2,0,B|320:336,2,100
176,224,32456,2,0,B|304:224,6,100
96,224,34536,5,0
240,224,35131,1,0
384,224,35725,2,0,B|384:96,1,100
384,48,36319,2,0,B|336:112|288:32,1,100
224,48,36914,5,0
224,192,37508,1,0
368,192,38102,2,0,B|448:240|320:272,1,100
288,256,38697,2,0,B|208:304|336:336,1,100
368,320,39291,5,0
368,176,39886,1,0
224,176,40480,5,0
224,320,41074,1,0
80,320,41669,5,0
80,176,42263,1,0
256,192,42858,12,0,44641
96,192,49396,6,0,B|96:304|272:304,1,200
352,304,50585,1,0
352,240,50882,1,0
352,176,51179,1,0
272,48,51699,2,0,B|176:144|64:32,1,225
80,192,52962,1,0
80,256,53259,1,0
144,256,53556,2,0,B|144:176,1,75
256,96,54374,5,0
256,96,54745,1,0
256,288,55562,1,0
256,288,55934,1,0
256,192,56528,12,0,58312
80,80,58906,6,0,B|16:208|80:288,1,200
208,288,60095,1,0
256,336,60392,1,0
304,288,60689,1,0
400,208,61209,2,0,B|272:144|464:96|224:96,1,225
112,80,62472,1,0
160,48,62769,1,0
160,112,63067,2,0,B|160:192,1,75
160,336,63884,5,0
240,272,64255,1,0
352,112,65073,1,0
272,64,65444,1,0
256,192,66038,12,0,67822
64,128,68416,6,0,B|288:16|464:144,1,400
448,272,70199,1,0
416,336,70496,1,0
383,272,70794,2,0,B|307:299|211:283|99:171|195:43,1,400
336,48,72577,1,0
336,48,72874,1,0
336,192,73468,6,0,B|288:224|240:192,1,100
176,192,74063,1,0
176,336,74657,2,0,B|224:368|272:336,1,100
336,336,75252,1,0
448,256,75846,2,0,B|479:211|447:163,1,100,0|0
400,112,76440,2,0,B|352:80|304:112,1,100,0|0
240,112,77035,2,0,B|192:144|144:112,3,100
144,256,78521,5,0
288,256,79115,2,0,B|288:144,1,100
224,160,79709,2,0,B|224:272,2,100
224,16,80898,1,0
368,16,81492,2,0,B|368:128,1,100
368,192,82087,1,0
304,192,82384,1,0
240,192,82681,6,0,B|272:240|240:288,1,100
288,336,83276,6,0,B|336:304|384:336,1,100,0|0
432,288,83870,6,0,B|400:240|432:192,1,100
384,144,84464,6,0,B|336:176|288:144,1,100
288,208,85059,6,0,L|400:208,1,100
336,256,85653,6,0,L|336:128,1,100
256,192,86248,12,0,88031
