osu file format v14

[General]
AudioFilename: teemix.mp3
AudioLeadIn: 0
PreviewTime: -1
Countdown: 0
SampleSet: None
StackLeniency: 0.7
Mode: 0
LetterboxInBreaks: 1
StoryFireInFront: 0
WidescreenStoryboard: 1

[Editor]
DistanceSpacing: 0.8
BeatDivisor: 4
GridSize: 16
TimelineZoom: 1.1

[Metadata]
Title:Teemix
TitleUnicode:Teemix
Artist:Teemo ft. Domics
ArtistUnicode:Teemo ft. Domics
Creator:[ sk ]
Version:Who Fed Teemo
Source:League of Legends
Tags:teemo, teemix, hard, satan, league of legends, league, lol, champion
BeatmapID:748851
BeatmapSetID:338482

[Difficulty]
HPDrainRate:5
CircleSize:4
OverallDifficulty:6
ApproachRate:8
SliderMultiplier:1.4
SliderTickRate:1

[Events]
//Background and Video events
0,0,"rhrrthrh.jpg",0,0
//Break Periods
//Storyboard Layer 0 (Background)
//Storyboard Layer 1 (Fail)
//Storyboard Layer 2 (Pass)
//Storyboard Layer 3 (Foreground)
//Storyboard Sound Samples

[TimingPoints]
3823.94084539568,461.538461538462,4,2,0,100,1,0
14876,-100,4,2,0,100,0,0

[Colours]
Combo1 : 123,62,62
Combo2 : 160,66,255
Combo3 : 252,232,88
Combo4 : 52,201,104
Combo5 : 255,100,100

[HitObjects]
256,192,16,12,0,3247,0:0:0:0:
128,64,3708,5,8,0:0:0:0:
224,128,4170,1,0,0:0:0:0:
352,96,4400,1,8,0:0:0:0:
352,224,4631,1,8,0:0:0:0:
192,224,5093,5,0,0:0:0:0:
160,192,5323,1,8,0:0:0:0:
224,128,5785,1,8,0:0:0:0:
320,32,6016,6,0,P|352:64|352:96,1,70
384,160,6477,2,0,P|352:192|320:192,1,70
256,192,6939,2,0,P|224:192|192:160,1,70
176,128,7400,5,8,0:0:0:0:
256,64,7862,1,0,0:0:0:0:
288,128,8093,1,8,0:0:0:0:
256,192,8323,1,8,0:0:0:0:
128,96,8785,5,0,0:0:0:0:
160,128,9016,1,8,0:0:0:0:
368,256,9477,1,8,0:0:0:0:
320,128,9708,6,0,P|288:160|288:192,1,70
224,224,10170,2,0,P|192:224|160:256,1,70
128,192,10631,2,0,P|160:160|192:160,1,70
190,158,11093,1,8,0:0:0:0:
304,80,11785,5,0,0:0:0:0:
336,112,12016,1,8,0:0:0:0:
320,144,12247,1,0,0:0:0:0:
288,144,12477,1,0,0:0:0:0:
272,112,12708,1,8,0:0:0:0:
240,112,12939,5,0,0:0:0:0:
176,176,13170,1,8,0:0:0:0:
208,256,13400,2,0,P|272:256|304:240,1,70
368,240,13862,2,0,P|400:224|416:192,1,70
336,128,14323,2,0,B|304:128|256:144|256:144,1,70
96,320,14785,6,0,L|176:320,1,70
224,320,15247,1,0,0:0:0:0:
304,288,15477,5,0,0:0:0:0:
324,254,15708,1,8,0:0:0:0:
336,224,15939,1,0,0:0:0:0:
336,192,16170,1,0,0:0:0:0:
320,160,16400,1,8,0:0:0:0:
256,112,16631,5,0,0:0:0:0:
192,112,16862,1,8,0:0:0:0:
128,144,17093,6,0,P|112:176|128:208,1,70
128,208,17554,1,0,0:0:0:0:
128,208,17785,1,0,0:0:0:0:
192,240,18016,5,0,0:0:0:0:
272,240,18247,1,0,0:0:0:0:
352,224,18477,2,0,B|400:208|416:192|416:192,1,70
416,176,18939,5,0,0:0:0:0:
240,128,19170,1,0,0:0:0:0:
416,48,19400,1,8,0:0:0:0:
304,192,19631,1,0,0:0:0:0:
288,32,19862,1,0,0:0:0:0:
208,80,20093,5,0,0:0:0:0:
160,160,20323,1,8,0:0:0:0:
96,240,20554,1,0,0:0:0:0:
160,304,20785,6,0,L|224:240|224:240,1,70
144,208,21247,2,0,L|80:144,1,70
160,128,21708,2,0,L|224:80,1,70
256,64,22170,2,0,L|336:64,1,70
352,128,22631,5,0,0:0:0:0:
320,176,22862,1,0,0:0:0:0:
272,192,23093,1,8,0:0:0:0:
224,176,23323,1,0,0:0:0:0:
192,144,23554,1,0,0:0:0:0:
128,160,23785,5,0,0:0:0:0:
224,144,24016,5,8,0:0:0:0:
320,48,24247,1,0,0:0:0:0:
368,208,24477,1,0,0:0:0:0:
224,64,24708,1,0,0:0:0:0:
288,224,24939,1,0,0:0:0:0:
400,96,25170,1,0,0:0:0:0:
240,208,25400,1,0,0:0:0:0:
128,256,25631,1,0,0:0:0:0:
128,160,25862,6,0,L|192:128,1,70
224,192,26323,2,0,L|144:240,1,70
192,288,26785,2,0,L|272:240,1,70
288,304,27247,2,0,L|224:352,1,70
353,255,27708,5,8,0:0:0:0:
336,176,27939,1,0,0:0:0:0:
256,128,28170,2,0,P|224:128|208:160,1,70
160,176,28631,6,0,P|128:176|128:208,1,70
112,272,29093,6,0,P|128:304|160:288,1,70
224,272,29554,1,0,0:0:0:0:
352,256,29785,2,0,L|320:176,1,70
272,112,30247,1,0,0:0:0:0:
174,147,30477,5,8,0:0:0:0:
96,208,30708,1,0,0:0:0:0:
176,256,30939,1,0,0:0:0:0:
256,256,31170,6,8,L|326:256,1,70
384,256,31631,1,0,0:0:0:0:
336,192,31862,2,0,L|256:192,1,70
256,128,32323,2,0,L|336:128,1,70
160,128,32785,6,0,P|144:176|176:272,1,140
