osu file format v14

[General]
AudioFilename: teemix.mp3
AudioLeadIn: 0
PreviewTime: -1
Countdown: 0
SampleSet: None
StackLeniency: 0.7
Mode: 0
LetterboxInBreaks: 1
WidescreenStoryboard: 0

[Editor]
DistanceSpacing: 0.8
BeatDivisor: 4
GridSize: 32
TimelineZoom: 0.6999999

[Metadata]
Title:Teemix
TitleUnicode:Teemix
Artist:Teemo ft. Domics
ArtistUnicode:Teemo ft. Domics
Creator:[ sk ]
Version:Normal
Source:League of Legends
Tags:teemo, teemix, league of legends, lol, league, satan,
BeatmapID:748850
BeatmapSetID:338482

[Difficulty]
HPDrainRate:5
CircleSize:4
OverallDifficulty:6
ApproachRate:5
SliderMultiplier:1.4
SliderTickRate:1

[Events]
//Background and Video events
0,0,"rhrrthrh.jpg",0,0
//Break Periods
//Storyboard Layer 0 (Background)
//Storyboard Layer 1 (Fail)
//Storyboard Layer 2 (Pass)
//Storyboard Layer 3 (Foreground)
//Storyboard Sound Samples

[TimingPoints]
3823.94084539568,461.538461538462,4,2,0,100,1,0
14876,-100,4,2,0,100,0,0

[Colours]
Combo1 : 128,64,64
Combo2 : 160,66,255
Combo3 : 252,232,88
Combo4 : 69,207,118
Combo5 : 255,100,100

[HitObjects]
160,128,3708,5,0,0:0:0:0:
256,128,4400,1,0,0:0:0:0:
256,128,4631,1,0,0:0:0:0:
352,128,5323,1,0,0:0:0:0:
416,128,5785,1,0,0:0:0:0:
352,224,6016,6,0,L|192:224,2,140
192,96,7400,5,0,0:0:0:0:
256,128,8093,1,0,0:0:0:0:
256,128,8323,1,0,0:0:0:0:
192,192,9016,1,0,0:0:0:0:
256,256,9477,1,0,0:0:0:0:
352,256,9708,6,0,L|288:128,2,140
352,96,11093,5,0,0:0:0:0:
192,224,11785,1,0,0:0:0:0:
192,224,12016,1,0,0:0:0:0:
192,224,12247,1,0,0:0:0:0:
192,224,12477,1,0,0:0:0:0:
192,224,12708,1,0,0:0:0:0:
288,192,13170,5,0,0:0:0:0:
320,224,13400,1,0,0:0:0:0:
384,256,13862,1,0,0:0:0:0:
448,288,14323,1,0,0:0:0:0:
256,288,14785,2,0,P|192:288|160:224,1,140
96,160,15477,2,0,L|96:64,4,70
160,96,16862,5,0,0:0:0:0:
256,96,17093,2,0,L|352:96,1,70
320,96,17554,1,0,0:0:0:0:
320,96,17785,1,0,0:0:0:0:
416,160,18016,2,0,L|288:256,1,140
128,224,18939,5,0,0:0:0:0:
128,224,19170,1,0,0:0:0:0:
128,224,19400,1,0,0:0:0:0:
128,224,19631,2,0,P|128:192|160:160,1,70
160,64,20323,5,0,0:0:0:0:
256,64,20785,1,0,0:0:0:0:
320,96,21247,1,0,0:0:0:0:
384,128,21708,1,0,0:0:0:0:
352,160,21939,1,0,0:0:0:0:
320,192,22170,1,0,0:0:0:0:
320,192,22285,1,0,0:0:0:0:
224,224,22631,5,0,0:0:0:0:
160,192,22862,1,0,0:0:0:0:
224,160,23093,1,0,0:0:0:0:
256,128,23323,1,0,0:0:0:0:
256,128,23554,1,0,0:0:0:0:
352,96,24016,5,0,0:0:0:0:
416,160,24477,1,0,0:0:0:0:
352,224,24939,1,0,0:0:0:0:
288,160,25400,1,0,0:0:0:0:
256,96,25862,6,0,L|160:96,1,70
160,160,26323,2,0,P|160:256|192:288,1,140
186,284,27016,1,0,0:0:0:0:
199,289,27247,2,0,L|344:252,1,140
288,160,28170,5,0,0:0:0:0:
128,192,28631,1,0,0:0:0:0:
288,288,29093,1,0,0:0:0:0:
384,256,29554,1,0,0:0:0:0:
352,192,29785,2,0,L|320:128,1,70
320,96,30247,1,0,0:0:0:0:
96,128,31170,5,0,0:0:0:0:
128,224,31862,1,0,0:0:0:0:
224,256,32323,1,0,0:0:0:0:
334,202,32785,2,0,P|270:157|244:193,1,140
