osu file format v9

[General]
AudioFilename: 08.D City Rock.mp3
AudioLeadIn: 0
PreviewTime: 63222
Countdown: 1
SampleSet: Soft
StackLeniency: 0.6
Mode: 0
LetterboxInBreaks: 1

[Editor]
Bookmarks: 192110
DistanceSpacing: 1
BeatDivisor: 4
GridSize: 8

[Metadata]
Title:D City Rock
Artist:Teddyloid feat. Debra Zeer
Creator:ztrot
Version:Panty
Source:Panty and Stocking with Garterbelt
Tags:anarchy yunacat

[Difficulty]
HPDrainRate:3
CircleSize:4
OverallDifficulty:4
ApproachRate:5
SliderMultiplier:1.6
SliderTickRate:2

[Events]
//Background and Video events
0,0,"sample-cdb9d6a91afdd58b2afeb3523eb17a56.jpg"
//Break Periods
2,92779,105601
2,178112,190935
//Storyboard Layer 0 (Background)
//Storyboard Layer 1 (Fail)
//Storyboard Layer 2 (Pass)
//Storyboard Layer 3 (Foreground)
//Storyboard Sound Samples
//Background Colour Transformations
3,100,163,162,255

[TimingPoints]
135,444.444444444444,4,1,1,100,1,0
39333,-100,4,2,1,10,0,0
39999,-100,4,1,1,100,0,0
64134,-100,4,1,1,100,0,1
78246,-100,4,1,1,100,0,0
78357,-100,4,1,1,100,0,1
92579,-100,4,1,1,100,0,0
149468,-100,4,1,1,100,0,1
163579,-100,4,1,1,100,0,0
163690,-100,4,1,1,100,0,1
177912,-100,4,1,1,100,0,0
197888,-111.111111111111,4,2,0,100,0,0
198999,-125,4,2,0,100,0,0
199333,-125,4,2,0,0,0,0
200444,-125,4,2,0,100,0,0
200888,-142.857142857143,4,2,0,100,0,0
201110,-142.857142857143,4,2,0,0,0,0
202222,-142.857142857143,4,2,0,100,0,0
202666,-166.666666666667,4,2,0,100,0,0
202888,-166.666666666667,4,2,0,0,0,0
203999,-166.666666666667,4,2,0,100,0,0
204444,-200,4,2,0,100,0,0
204666,-200,4,2,0,0,0,0
205777,-200,4,2,0,100,0,0
206444,-200,4,2,0,0,0,0
207555,-200,4,2,0,100,0,0
208222,-200,4,2,0,0,0,0
209333,-200,4,2,0,100,0,0
209999,-200,4,2,0,0,0,0
211110,-200,4,2,0,100,0,0
211777,-200,4,2,0,0,0,0
212888,-200,4,2,0,100,0,0
213555,-200,4,2,0,0,0,0
214666,-200,4,2,0,100,0,0
215333,-200,4,2,0,0,0,0
216444,-200,4,2,0,100,0,0
217110,-200,4,2,0,0,0,0
218222,-200,4,2,0,100,0,0
218888,-200,4,2,0,0,0,0
219999,-200,4,2,0,100,0,0
220666,-200,4,2,0,0,0,0
221777,-200,4,2,0,100,0,0
222444,-100,4,1,1,100,0,0
227690,-100,4,1,1,100,0,1
241801,-100,4,1,1,100,0,0
241912,-100,4,1,1,100,0,1
256134,-100,4,1,1,100,0,0

[HitObjects]
336,344,3690,2,0,B|168:344,1,160,4|8
176,272,4357,2,0,B|336:272,1,160,4|0
336,200,5023,1,8
192,200,5468,6,0,B|88:216|120:312,1,160,4|8
176,360,6134,2,0,B|344:360,1,160,4|0
336,288,6801,1,8
456,208,7246,5,4
328,136,7690,1,8
184,136,8135,1,4
56,208,8579,1,8
184,280,9023,6,0,B|272:280|320:360,1,160,4|8
408,248,9912,2,0,B|312:240|288:160,1,160,0|8
208,40,10801,2,0,B|120:72|104:160,1,160,4|8
256,312,11912,1,4
256,312,12135,1,8
176,192,12579,6,0,B|344:192,1,160,4|8
176,48,13690,1,4
176,48,13912,1,8
64,136,14357,5,4
64,280,14801,1,8
256,368,15468,1,4
256,368,15690,1,8
256,224,16135,6,0,B|328:272|424:216,1,160,4|8
328,24,17246,1,4
328,24,17468,1,8
256,144,17912,6,0,B|160:128|112:224,1,160,4|8
304,328,19023,1,4
304,328,19246,1,8
424,248,19690,6,0,B|424:80,1,160,4|8
256,224,20801,1,4
256,224,21023,1,8
144,136,21468,5,0
144,280,21912,1,8
256,376,22357,1,0
368,280,22801,1,8
368,280,23023,1,0
256,192,23468,1,4
112,32,24357,5,0
256,32,24801,1,0
400,32,25246,1,0
256,280,26134,5,0
256,280,26579,1,0
256,280,27023,1,0
72,56,27912,1,4
72,56,28134,1,8
72,200,28579,5,4
72,344,29023,1,8
216,344,29468,1,4
216,200,29912,1,8
216,200,30134,2,0,B|296:200|352:272,3,160
224,344,31912,1,0
256,128,32579,5,8
56,56,33246,1,0
56,128,33468,1,8
56,200,33690,1,0
256,280,34357,5,8
256,280,34579,2,0,B|328:224|328:328|416:264,2,160
176,80,36134,6,0,B|360:80,2,160,8|0|8
176,152,37246,2,0,B|352:152,1,160
336,296,38134,1,4
336,296,38357,1,0
192,296,38801,1,8
192,296,39023,1,0
256,168,39468,6,0,B|256:8,1,160
136,192,40579,5,8
136,192,40801,1,0
256,272,41246,1,4
376,192,41690,1,4
256,112,42134,1,0
256,112,42357,1,8
176,240,42801,6,0,B|88:272|64:352,1,160,4|8
256,216,43912,1,4
256,216,44134,1,8
256,72,44579,2,0,B|168:80|112:8,1,160,4|8
328,32,45690,1,4
328,32,45912,1,8
384,168,46357,5,4
384,168,46801,1,8
128,168,47468,5,0
128,312,47912,1,0
256,240,48357,1,0
384,312,48801,1,0
384,168,49246,1,0
192,48,49912,5,2
256,176,50357,1,2
320,48,50801,1,2
392,176,51246,1,2
392,248,51468,1,0
392,320,51690,5,2
256,280,52134,1,2
120,320,52579,1,2
120,176,53023,1,2
256,136,53468,6,0,B|408:64,1,160,2|2
256,136,54357,2,0,B|104:56,1,160,2|2
48,88,55023,1,2
48,160,55246,1,2
136,272,55690,1,2
256,352,56134,6,0,B|256:272,4,80,2|0|2|0|2
376,272,57468,1,2
464,160,57912,1,2
464,160,58357,1,2
464,88,58579,1,0
464,16,58801,5,2
344,96,59246,1,2
256,208,59690,1,2
168,96,60134,1,2
80,208,60579,6,0,B|80:296|168:336,1,160,2|2
256,208,61468,2,0,B|256:296,1,80,2|0
256,360,61912,1,2
400,328,62357,1,6
432,40,63246,5,0
432,40,63690,1,0
432,40,64134,2,0,B|440:128|456:192|368:304|256:240|136:304|48:192|64:128|80:48,1,640,0|4
184,152,66357,1,2
256,32,66801,1,4
328,152,67246,1,2
256,280,67690,5,4
400,280,68134,1,2
256,280,68579,1,4
256,280,68801,2,0,B|96:280,1,160
112,64,69912,5,2
40,192,70357,1,4
40,336,70801,1,2
176,376,71246,2,0,B|296:384|448:360|496:208|456:80,1,480,4|2
392,96,72801,1,0
320,96,73023,6,0,B|272:256,1,160,4|2
240,112,73912,2,0,B|192:272,1,160,4|2
160,128,74801,2,0,B|112:288,1,160,4|2
256,320,75690,1,4
328,320,75912,2,0,B|416:312|448:216,1,160
256,120,77023,5,2
136,32,77468,1,4
16,120,77912,1,6
136,200,78357,2,0,B|184:256|256:208|256:208|328:256|368:200|368:200|408:256,3,320,4|0|4|0
336,120,81468,6,0,B|168:120,2,160,2|4|2
336,264,82801,1,0
336,264,83023,2,0,B|152:264,2,160
336,192,84134,2,0,B|160:192,2,160,2|4|2
336,48,85468,6,0,B|416:48|416:48|464:96|416:136|416:136|456:168|456:168|416:192|416:192|448:216,2,320,4|0|4
256,168,87690,1,2
176,48,88134,2,0,B|104:88|104:88|32:48,3,160,0|2|0|2
24,192,89912,1,0
24,192,90134,1,0
96,320,90579,6,0,B|424:320,1,320,4|2
392,248,91690,1,0
256,208,92134,1,2
120,248,92579,1,4
40,192,106801,6,0,B|200:192,1,160,4|8
200,264,107468,2,0,B|368:264,1,160,4|4
432,264,108134,2,0,B|496:192|440:112,2,160,8|4|8
360,264,109246,2,0,B|288:192|344:120,1,160,4|4
392,72,109912,1,8
256,32,110357,5,4
120,72,110801,1,8
256,240,111468,1,4
256,240,111690,1,8
144,336,112134,2,0,B|48:336|48:232,1,160,4|8
48,160,112801,2,0,B|47:58|143:58,1,160,4|4
144,128,113468,6,0,B|176:208|272:208,2,160,8|4|8
256,312,115023,1,4
256,312,115246,1,8
400,312,115690,2,0,B|496:312|496:208,1,160,4|8
496,136,116357,2,0,B|496:34|400:34,2,160
304,32,117912,5,8
256,240,118579,1,4
256,240,118801,1,8
256,240,119023,1,0
176,40,119690,5,0
176,40,119912,2,0,B|352:40,2,160
184,248,121468,6,0,B|256:312|336:248,2,160,8|4|8
184,176,122579,2,0,B|256:112|336:184,2,160,0|4|0
256,48,123912,1,4
256,48,124134,1,8
256,48,124357,2,0,B|168:48|120:128,2,160,0|4|0
256,192,125690,5,0
256,192,125912,1,8
256,192,126134,2,0,B|344:192|392:112,2,160,0|4|0
216,328,127468,1,4
296,328,127690,1,8
416,248,128134,5,4
416,248,128579,1,8
256,104,129246,1,4
256,104,129468,1,8
144,192,129912,1,4
144,192,130357,1,8
256,376,131023,1,4
256,376,131246,1,8
352,264,131690,5,4
352,264,132134,1,8
256,72,132801,2,0,B|200:144|296:144|256:232,4,160,4|0|4|0|4
80,192,135246,5,2
184,288,135690,1,2
328,288,136134,1,2
432,192,136579,1,2
432,120,136801,1,0
432,48,137023,5,2
312,120,137468,1,2
184,48,137912,2,0,B|184:136,4,80,2|0|2|0|2
64,128,139246,5,2
64,272,139690,1,2
192,344,140134,1,2
256,312,140357,1,0
320,344,140579,2,0,B|416:344|448:256,1,160,2|2
328,176,141468,5,2
296,112,141690,1,0
216,112,141912,1,2
184,176,142134,1,0
256,192,142357,2,0,B|208:272|288:272|256:352,2,160,2|2|2
256,48,143690,5,2
256,48,143912,1,0
256,48,144134,2,0,B|168:48|120:120,1,160,2|2
72,256,145023,5,2
128,304,145246,1,0
200,304,145468,1,2
256,256,145690,1,2
200,208,145912,2,0,B|200:112|304:112,2,160,2|2|2
128,208,147023,1,2
256,32,147690,1,2
80,344,148579,5,0
80,344,149023,1,0
80,344,149468,2,0,B|72:256|56:192|144:80|256:144|376:80|464:192|448:256|432:336,1,640,0|4
328,232,151690,1,2
256,352,152135,1,4
184,232,152579,1,2
256,104,153023,5,4
112,104,153468,1,2
256,104,153912,1,4
256,104,154135,2,0,B|416:104,1,160
400,320,155246,5,2
472,192,155690,1,4
472,48,156135,1,2
336,8,156579,2,0,B|216:0|64:24|16:176|56:304,1,480,4|2
120,288,158135,1,0
192,288,158357,6,0,B|240:128,1,160,4|2
272,272,159246,2,0,B|320:112,1,160,4|2
352,256,160135,2,0,B|400:96,1,160,4|2
256,64,161023,1,4
184,64,161246,2,0,B|96:72|64:168,1,160
256,264,162357,5,2
376,352,162801,1,4
496,264,163246,1,6
376,184,163690,2,0,B|328:128|256:176|256:176|184:128|144:184|144:184|104:128,3,320,4|0|4|0
176,264,166801,6,0,B|344:264,2,160,2|4|2
176,120,168135,1,0
176,120,168357,2,0,B|360:120,2,160
176,192,169468,2,0,B|352:192,2,160,2|4|2
176,336,170801,6,0,B|96:336|96:336|48:288|96:248|96:248|56:216|56:216|96:192|96:192|64:168,2,320,4|0|4
256,216,173023,1,2
336,336,173468,2,0,B|408:296|408:296|480:336,3,160,0|2|0|2
488,192,175246,1,0
488,192,175468,1,0
416,64,175912,6,0,B|88:64,1,320,4|2
120,136,177023,1,0
256,176,177468,1,2
392,136,177912,1,4
64,336,192135,6,0,B|224:336,1,160,4|8
224,264,192801,2,0,B|48:264,1,160,4|4
64,192,193468,1,8
184,112,193912,5,4
256,88,194135,1,4
328,112,194357,1,8
400,88,194579,1,0
400,232,195023,1,4
328,248,195246,1,8
232,352,195690,6,0,B|408:352,1,160,4|8
392,280,196357,2,0,B|224:280,1,160,4|4
232,208,197023,1,8
392,208,197468,1,4
40,48,199246,6,0,B|424:48,1,384
472,136,201023,2,0,B|128:136,1,335.999991989136
80,224,202801,2,0,B|376:224,1,288.000006866455
440,312,204579,2,0,B|192:312,1,240
112,312,206357,6,0,B|16:216|80:72,1,240
136,32,208135,2,0,B|384:32,1,240
439,90,209912,2,0,B|496:216|400:312,1,240
376,224,211690,2,0,B|136:224,1,240
136,144,213468,6,0,B|400:144,1,240,4|0
376,64,215246,2,0,B|136:64,1,240
64,104,217023,2,0,B|64:344,1,240
136,328,218801,2,0,B|376:328,1,240
376,248,220579,2,0,B|128:248,1,240
256,192,222357,12,4,225468
80,40,226801,5,0
80,40,227246,1,0
80,40,227690,2,0,B|72:128|56:192|144:304|256:240|376:304|464:192|448:128|432:48,1,640,0|4
328,152,229912,1,2
256,32,230357,1,4
184,152,230801,1,2
256,280,231246,5,4
112,280,231690,1,2
256,280,232135,1,4
256,280,232357,2,0,B|416:280,1,160
400,64,233468,5,2
472,192,233912,1,4
472,336,234357,1,2
336,376,234801,2,0,B|216:384|64:360|16:208|56:80,1,480,4|2
120,96,236357,1,0
192,96,236579,6,0,B|240:256,1,160,4|2
272,112,237468,2,0,B|320:272,1,160,4|2
352,128,238357,2,0,B|400:288,1,160,4|2
256,320,239246,1,4
184,320,239468,2,0,B|96:312|64:216,1,160
256,120,240579,5,2
376,32,241023,1,4
496,120,241468,1,6
376,200,241912,2,0,B|328:256|256:208|256:208|184:256|144:200|144:200|104:256,3,320,4|0|4|0
176,120,245023,6,0,B|344:120,2,160,2|4|2
176,264,246357,1,0
176,264,246579,2,0,B|360:264,2,160
176,192,247690,2,0,B|352:192,2,160,2|4|2
176,48,249023,6,0,B|96:48|96:48|48:96|96:136|96:136|56:168|56:168|96:192|96:192|64:216,2,320,4|0|4
256,168,251246,1,2
336,48,251690,2,0,B|408:88|408:88|480:48,3,160,0|2|0|2
488,192,253468,1,0
488,192,253690,1,0
416,320,254135,6,0,B|88:320,1,320,4|2
120,248,255246,1,0
256,208,255690,1,2
392,248,256135,1,4
