osu file format v9

[General]
AudioFilename: 654.mp3
AudioLeadIn: 2382
PreviewTime: 149230
Countdown: 0
SampleSet: Normal
StackLeniency: 0.7
Mode: 0
LetterboxInBreaks: 1

[Editor]
DistanceSpacing: 0.8
BeatDivisor: 4
GridSize: 8

[Metadata]
Title:D City Rock
Artist:TeddyLoid feat. Debra Zeer
Creator:LunaticSHIKI
Version:Chuck
Source:PSG
Tags:Panty&Stocking with Garterbelt Anarchy sandpig

[Difficulty]
HPDrainRate:8
CircleSize:5
OverallDifficulty:7
ApproachRate:8
SliderMultiplier:2
SliderTickRate:1

[Events]
//Background and Video events
0,0,"123.jpg"
Video,499,"Final.FLV"
//Break Periods
2,93371,104881
2,178813,184983
2,198394,199224
2,257135,263305
//Storyboard Layer 0 (Background)
//Storyboard Layer 1 (Fail)
//Storyboard Layer 2 (Pass)
//Storyboard Layer 3 (Foreground)
//Storyboard Sound Samples
//Background Colour Transformations
3,100,163,162,255

[TimingPoints]
609,445.01142195983,4,1,0,32,1,0
831,-200,4,2,0,32,0,0
1276,-200,4,1,0,32,0,0
1943,-200,4,2,0,32,0,0
2132,-200,4,1,0,32,0,0
2722,-200,4,2,0,32,0,0
3056,-200,4,1,0,32,0,0
3723,-200,4,2,0,32,0,0
3946,-200,4,1,0,32,0,0
4391,-200,4,2,0,32,0,0
4725,-200,4,1,0,32,0,0
5392,-200,4,2,0,32,0,0
5726,-200,4,1,0,32,0,0
6282,-200,4,2,0,32,0,0
6505,-200,4,1,0,32,0,0
7172,-200,4,2,0,32,0,0
7506,-133.333333333333,4,1,0,32,0,0
7951,-133.333333333333,4,2,0,32,0,0
8396,-133.333333333333,4,1,0,32,0,0
8507,-133.333333333333,4,2,0,32,0,0
8730,-133.333333333333,4,1,0,32,0,0
8952,-133.333333333333,4,2,0,32,0,0
9175,-133.333333333333,4,1,0,32,0,0
9731,-133.333333333333,4,2,0,32,0,0
10176,-133.333333333333,4,1,0,32,0,0
10287,-133.333333333333,4,2,0,32,0,0
10510,-133.333333333333,4,1,0,32,0,0
10732,-133.333333333333,4,2,0,32,0,0
10955,-133.333333333333,4,1,0,32,0,0
11733,-133.333333333333,4,2,0,32,0,0
11831,-133.333333333333,4,1,0,32,0,0
12512,-133.333333333333,4,2,0,32,0,0
12735,-133.333333333333,4,1,0,32,0,0
13513,-133.333333333333,4,2,0,32,0,0
13625,-133.333333333333,4,1,0,32,0,0
14292,-133.333333333333,4,2,0,32,0,0
14515,-133.333333333333,4,1,0,32,0,0
15071,-133.333333333333,4,2,0,32,0,0
15516,-133.333333333333,4,1,0,32,0,0
15627,-133.333333333333,4,2,0,32,0,0
15850,-133.333333333333,4,1,0,32,0,0
16072,-133.333333333333,4,2,0,32,0,0
16295,-133.333333333333,4,1,0,32,0,0
16851,-133.333333333333,4,2,0,32,0,0
17296,-133.333333333333,4,1,0,32,0,0
17407,-133.333333333333,4,2,0,32,0,0
17630,-133.333333333333,4,1,0,32,0,0
17852,-133.333333333333,4,2,0,32,0,0
18075,-133.333333333333,4,1,0,32,0,0
18631,-133.333333333333,4,2,0,32,0,0
19076,-133.333333333333,4,1,0,32,0,0
19187,-133.333333333333,4,2,0,32,0,0
19521,-133.333333333333,4,1,0,32,0,0
19632,-133.333333333333,4,2,0,32,0,0
19966,-133.333333333333,4,1,0,32,0,0
20412,-133.333333333333,4,2,0,32,0,0
20857,-133.333333333333,4,1,0,32,0,0
20967,-133.333333333333,4,2,0,32,0,0
21302,-133.333333333333,4,1,0,32,0,0
21412,-133.333333333333,4,2,0,32,0,0
21747,-133.333333333333,4,1,0,32,0,0
22080,-133.333333333333,4,2,0,32,0,0
22637,-133.333333333333,4,1,0,32,0,0
22747,-133.333333333333,4,2,0,32,0,0
23304,-133.333333333333,4,1,0,32,0,0
23637,-133.333333333333,4,2,0,32,0,0
24304,-133.333333333333,4,1,0,32,0,0
24527,-133.333333333333,4,2,0,32,0,0
24862,-133.333333333333,4,1,0,32,0,0
25417,-133.333333333333,4,2,0,32,0,0
25695,-133.333333333333,4,1,0,32,0,0
27197,-133.333333333333,4,2,0,32,0,0
27475,-133.333333333333,4,1,0,32,0,0
29867,-133.333333333333,4,2,0,32,0,0
30202,-133.333333333333,4,1,0,32,0,0
30757,-133.333333333333,4,2,0,32,0,0
30979,-133.333333333333,4,1,0,32,0,0
32316,-133.333333333333,4,2,0,32,0,0
32648,-133.333333333333,4,1,0,32,0,0
32761,-133.333333333333,4,2,0,32,0,0
33094,-133.333333333333,4,1,0,32,0,0
35319,-133.333333333333,4,2,0,32,0,0
35429,-133.333333333333,4,1,0,32,0,0
35764,-133.333333333333,4,2,0,32,0,0
35874,-133.333333333333,4,1,0,32,0,0
36987,-133.333333333333,4,2,0,32,0,0
37322,-133.333333333333,4,1,0,32,0,0
37877,-133.333333333333,4,2,0,32,0,0
38322,-133.333333333333,4,1,0,32,0,0
38767,-133.333333333333,4,2,0,32,0,0
39102,-133.333333333333,4,1,0,32,0,0
39992,-200,4,2,0,32,0,0
41105,-133.333333333333,4,1,0,32,0,0
41214,-133.333333333333,4,2,0,32,0,0
41437,-133.333333333333,4,1,0,32,0,0
41771,-133.333333333333,4,2,0,32,0,0
41882,-133.333333333333,4,1,0,32,0,0
44107,-133.333333333333,4,2,0,32,0,0
44442,-133.333333333333,4,1,0,32,0,0
45887,-133.333333333333,4,2,0,32,0,0
46222,-133.333333333333,4,1,0,32,0,0
46777,-133.333333333333,4,2,0,32,0,0
47055,-133.333333333333,4,1,0,32,0,0
50337,-133.333333333333,4,1,0,23,0,0
63800,-100,4,2,0,23,0,0
64465,-100,4,1,0,32,0,0
64690,-100,4,1,0,32,0,1
93171,-100,4,1,0,32,0,0
106962,-200,4,2,0,40,0,0
135664,-133.333333333333,4,1,0,24,0,0
149242,-100,4,2,0,33,0,0
149904,-100,4,1,0,33,0,0
150132,-100,4,1,0,33,0,1
178613,-100,4,1,0,33,0,0
184836,-133.333333333333,4,2,0,35,0,0
199521,-200,4,2,0,16,0,0
213991,-133.333333333333,4,2,0,27,0,0
221215,-200,4,2,0,16,0,0
222772,-200,4,2,0,16,0,0
223114,-200,4,1,0,28,0,0
223551,-133.333333333333,4,1,0,21,0,0
224330,-133.333333333333,4,1,0,27,0,0
224775,-133.333333333333,4,1,0,37,0,0
225220,-100,4,1,0,42,0,0
226666,-133.333333333333,4,2,0,33,0,0
228223,-100,4,1,0,33,0,0
228454,-100,4,1,0,33,0,1
256935,-100,4,1,0,33,0,0
263600,-133.333333333333,4,1,0,33,0,0

[Colours]
Combo1 : 0,128,255
Combo2 : 255,128,128
Combo3 : 255,128,64

[HitObjects]
256,72,609,1,0
256,72,1054,2,0,B|256:144,1,50,8|0
256,312,1721,2,0,B|256:240,1,50,0|8
184,312,2389,5,0
256,200,2611,1,0
328,312,2834,2,0,B|328:256,1,50,8|0
256,72,3501,2,0,B|256:128,1,50,0|8
256,312,4169,5,0
416,192,4614,1,8
312,192,4836,1,0
96,192,5281,1,0
200,192,5504,1,8
416,192,5949,5,0
312,192,6171,1,0
200,192,6394,1,8
96,192,6616,1,0
96,192,7061,5,0
200,192,7284,1,8
416,192,7729,6,0,B|416:112,1,74.9999977648259
336,192,8174,2,0,B|336:280,1,74.9999977648259,8|0
416,272,8619,1,0
496,192,8841,1,0
416,112,9064,1,8
496,192,9286,1,0
416,272,9509,6,0,B|416:184,1,74.9999977648259
496,280,9954,2,0,B|496:376,1,74.9999977648259,8|0
384,352,10399,1,0
272,352,10621,1,0
328,256,10844,1,8
272,352,11066,1,0
160,352,11289,6,0,B|160:288|160:288|216:272|216:192,1,149.999995529652,0|8
331,226,11956,2,0,B|328:272|384:288|384:288|384:352,1,149.999995529652
272,352,12624,1,8
160,352,12846,1,0
168,72,13069,6,0,B|240:72|240:72|240:104|312:104,1,149.999995529652,0|8
440,160,13736,2,0,B|368:160|368:160|368:192|296:192,1,149.999995529652
192,192,14404,1,8
80,192,14626,1,0
192,192,14849,6,0,B|272:192,1,74.9999977648259
344,272,15294,2,0,B|248:272,1,74.9999977648259,8|0
192,352,15739,1,0
272,272,15961,1,0
192,192,16184,1,8
112,272,16406,1,0
192,352,16629,6,0,B|272:352,1,74.9999977648259
344,272,17074,2,0,B|248:272,1,74.9999977648259,8|0
192,192,17519,1,0
288,128,17741,1,0
192,64,17964,1,8
288,128,18186,1,0
384,192,18409,6,0,B|384:288,1,74.9999977648259
464,192,18854,2,0,B|464:272,1,74.9999977648259,8|0
304,192,19299,6,0,B|304:112,1,74.9999977648259
216,192,19744,2,0,B|216:104,1,74.9999977648259,8|0
384,192,20189,6,0,B|384:288,1,74.9999977648259
304,192,20634,2,0,B|304:272,1,74.9999977648259,8|0
472,312,21079,6,0,B|472:237,1,74.9999977648259,0|0
232,320,21524,2,0,B|232:232,1,74.9999977648259,8|0
352,64,21969,5,0
352,64,22192,2,0,B|352:144,2,74.9999977648259,0|8|0
240,64,22859,2,0,B|176:136,2,74.9999977648259,0|0|8
352,64,23527,2,0,B|416:104|416:200,1,149.999995529652
416,304,24194,1,8
416,304,24417,2,0,B|352:264|352:168,1,149.999995529652
352,175,25084,1,8
256,64,25307,6,0,B|192:88|168:136,1,112.499996647239
160,176,25752,2,0,B|160:264,1,74.9999977648259,0|8
128,336,26197,1,0
256,288,26642,6,0,B|256:184,1,74.9999977648259,0|8
256,64,27087,2,0,B|320:88|344:136,1,112.499996647239
352,176,27532,2,0,B|352:264,1,74.9999977648259,0|8
384,336,27977,1,0
256,288,28422,5,0
256,288,28644,2,0,B|160:288,1,74.9999977648259,8|0
72,288,29089,1,0
128,112,29534,5,8
128,112,29757,2,0,B|144:73|184:65,2,74.9999977648259,0|0|0
128,240,30424,1,8
32,176,30647,2,0,B|184:176,1,149.999995529652
256,256,31314,1,8
328,168,31537,1,0
256,256,31982,5,0
328,168,32204,1,8
256,80,32427,2,0,B|344:80,1,74.9999977648259
440,176,32872,2,0,B|344:176,1,74.9999977648259,0|8
256,176,33317,1,0
80,328,33762,5,0
144,232,33984,1,8
208,328,34207,2,0,B|368:328,1,149.999995529652
431,269,34874,2,0,B|457:274|472:328,2,74.9999977648259,8|0|0
288,208,35542,2,0,B|304:264|352:280,1,74.9999977648259,0|8
432,264,35987,2,0,B|457:259|473:203,1,74.9999977648259,0|0
376,88,36654,5,8
264,88,36877,1,0
320,184,37099,2,0,B|240:184,2,74.9999977648259,0|0|8
472,184,37767,6,0,B|520:224|520:280|520:280|456:280,1,149.999995529652
328,280,38434,1,8
416,280,38657,2,0,B|416:205,1,74.9999977648259
304,168,39102,2,0,B|304:248,1,74.9999977648259,0|8
416,120,39547,2,0,B|344:120|344:120|320:168|264:168,1,149.999995529652
192,176,40215,6,0,B|175:192|175:192|197:215|175:238|175:238|197:260|175:283|175:283|197:306|175:328|175:328|197:351,1,200,8|0
304,344,41327,1,0
416,344,41550,2,0,B|416:240,1,74.9999977648259
304,184,41995,2,0,B|304:280,1,74.9999977648259,8|0
480,184,42662,6,0,B|480:80,1,74.9999977648259,0|8
480,224,43107,2,0,B|480:312,1,74.9999977648259,0|0
304,80,43775,5,8
192,80,43997,1,0
192,192,44220,2,0,B|144:192|120:160,2,74.9999977648259,0|0|8
304,192,44887,2,0,B|392:192|448:128,1,149.999995529652
304,288,45555,5,8
192,288,45777,2,0,B|112:288,1,74.9999977648259
304,288,46222,2,0,B|400:288,1,74.9999977648259,0|8
304,176,46667,2,0,B|256:224|176:224,1,112.499996647239
152,224,47112,2,0,B|152:136,1,74.9999977648259,0|8
152,40,47557,1,0
424,144,48002,5,0
480,240,48225,1,8
424,336,48447,1,0
88,48,48892,5,0
32,144,49115,1,8
88,240,49337,1,0
256,80,49782,5,0
256,192,50005,1,8
256,304,50227,1,0
360,136,50450,6,0,B|384:56,1,74.9999977648259,6|0
152,136,50895,2,0,B|128:56,1,74.9999977648259,2|0
384,232,51340,2,0,B|448:152,1,74.9999977648259,2|0
128,232,51785,2,0,B|64:152,1,74.9999977648259,2|2
184,80,52230,6,0,B|216:160,1,74.9999977648259,0|2
328,80,52675,2,0,B|296:160,1,74.9999977648259,0|2
96,176,53120,2,0,B|168:248,1,74.9999977648259,0|2
416,176,53565,2,0,B|344:248,1,74.9999977648259,2|2
256,288,54010,5,2
144,288,54232,1,0
256,192,54455,5,2
368,192,54677,1,0
256,96,54900,5,2
144,96,55122,1,0
256,192,55345,5,2
368,192,55567,2,0,B|432:192|432:264|472:312,1,149.999995529652,2|2
352,296,56235,2,0,B|272:296,1,74.9999977648259,0|2
200,192,56680,2,0,B|288:192,1,74.9999977648259,0|2
200,296,57125,2,0,B|96:296,1,74.9999977648259,2|2
112,136,57570,6,0,B|156:59,1,74.9999977648259,6|0
143,173,58015,2,0,B|225:142,1,74.9999977648259,2|0
143,222,58460,2,0,B|225:252,1,74.9999977648259,2|0
112,260,58905,2,0,B|156:336,1,74.9999977648259,2|2
360,64,59350,6,0,B|398:130,1,74.9999977648259,0|2
296,140,59795,2,0,B|367:167,1,74.9999977648259,0|2
296,241,60240,2,0,B|367:216,1,74.9999977648259,0|2
359,318,60685,2,0,B|398:254,1,74.9999977648259,2|2
432,192,61130,5,6
80,192,61575,1,2
256,192,62020,5,6
256,192,62243,1,2
256,192,62354,12,2,63800
256,192,64245,5,2
64,96,64690,6,0,B|128:48|288:48,2,200,6|8|2
224,112,66025,5,8
288,272,66248,1,2
448,288,66470,2,0,B|384:336|224:336,2,200,2|8|2
192,104,67805,5,8
320,104,68028,1,2
184,296,68250,2,0,B|149:282|125:218,1,100,2|0
328,296,68695,2,0,B|364:282|388:218,1,100,10|0
256,192,69140,1,2
168,312,69363,1,2
80,192,69585,1,8
256,168,69808,1,2
256,200,69919,1,0
256,232,70030,2,0,B|256:352,1,100,4|2
368,328,70475,2,0,B|424:240,1,100,8|2
496,144,70920,6,0,B|392:144,1,100,2|0
360,144,71254,1,0
320,144,71365,1,14
256,248,71588,1,0
296,248,71699,1,0
336,248,71810,2,0,B|304:336|192:336,1,150,6|0
256,360,72255,2,0,B|280:288|216:216,1,150,10|0
208,256,72700,2,0,B|272:240|312:144,1,150,2|0
328,192,73145,2,0,B|240:160|240:80,1,150,10|0
280,80,73590,2,0,B|392:80,1,100,2|0
496,192,74035,2,0,B|376:192,1,100,10|2
280,304,74480,5,0
352,208,74703,1,0
280,304,74925,1,10
160,304,75148,1,2
72,216,75370,2,0,B|72:96,1,100
192,112,75815,2,0,B|192:232,1,100,10|2
72,168,76260,5,0
192,112,76483,1,2
224,136,76594,1,0
240,168,76705,1,12
176,272,76928,1,2
144,248,77039,1,0
128,208,77150,1,4
160,96,77373,5,2
352,96,77595,1,8
192,232,77818,1,2
280,104,78040,1,0
392,200,78263,1,2
392,248,78374,1,0
368,280,78485,1,12
360,136,78708,1,2
368,280,78931,6,0,B|256:312|160:304,2,200,6|8|2
168,240,80266,5,8
344,144,80488,1,2
144,104,80711,2,0,B|256:72|352:80,2,200,2|8|2
344,128,82046,5,8
168,256,82268,1,2
192,96,82491,1,2
304,224,82713,1,0
256,104,82936,1,10
256,232,83158,1,0
312,152,83381,1,2
200,232,83603,1,2
344,128,83826,5,8
200,232,84048,1,2
224,216,84159,1,0
248,200,84271,1,4
344,128,84493,1,2
344,128,84716,2,0,B|400:144|424:216,1,100,8|2
392,336,85161,6,0,B|336:320|312:248,1,100,0|0
312,232,85494,1,0
312,192,85606,1,14
392,96,85828,1,0
392,136,85939,1,0
384,176,86051,2,0,B|304:224|232:176,1,150,6|0
272,152,86496,2,0,B|280:232|184:264,1,150,10|0
200,224,86941,2,0,B|240:304|112:360,1,150,2|0
144,304,87386,2,0,B|224:344|304:328,1,150,10|0
328,320,87831,2,0,B|328:200,1,100,2|0
256,112,88276,2,0,B|256:232,1,100,10|2
400,208,88721,2,0,B|400:104,1,100
192,112,89166,2,0,B|192:224,1,100,10|2
328,208,89611,5,0
328,88,89833,1,2
328,208,90056,1,8
256,304,90278,1,2
328,208,90501,5,0
256,304,90723,1,2
216,304,90835,1,0
176,304,90946,1,8
328,208,91168,1,0
360,184,91280,1,0
392,160,91391,1,4
256,192,91502,12,4,93171
256,192,105631,12,4,107411
256,112,107856,6,0,B|256:56,1,50,8|0
256,168,108301,1,0
256,264,108524,1,2
256,360,108746,2,0,B|304:360,1,50,8|2
256,264,109191,2,0,B|200:264,1,50,0|0
328,360,109636,2,0,B|384:360,1,50,10|0
400,192,110304,5,0
448,104,110526,1,10
400,192,110749,1,0
296,192,110971,2,0,B|296:128,1,50
400,192,111416,2,0,B|400:248,1,50,10|0
208,192,112084,5,0
160,104,112306,1,10
112,192,112529,1,0
112,296,112751,2,0,B|112:360,1,50
208,296,113196,2,0,B|208:360,1,50,10|0
296,184,113864,6,0,B|344:184,1,50,2|10
256,232,114309,2,0,B|256:296,1,50,2|0
456,320,114976,5,8
456,320,115199,2,0,B|456:264,2,50,0|0|2
392,320,115866,2,0,B|328:320,2,50,8|2|0
416,240,116534,2,0,B|360:240,1,50,2|8
440,160,116979,2,0,B|320:160,1,100,0|2
288,72,117647,2,0,B|288:136,1,50,8|0
288,248,118092,2,0,B|288:192,1,50,0|0
200,248,118537,2,0,B|200:304,1,50,10|0
384,248,119204,6,0,B|434:248,1,50,0|8
336,248,119649,1,2
256,128,120094,1,0
256,128,120317,2,0,B|256:72,2,50,8|2|0
256,192,120984,2,0,B|256:248,1,50,0|10
256,304,121429,2,0,B|256:368,1,50,2|0
432,240,122097,6,0,B|432:128,1,100,8|2
344,192,122764,1,2
240,192,122987,1,8
344,192,123209,2,0,B|344:312,1,100,0|2
240,288,123877,1,10
144,288,124099,2,0,B|144:238,2,50,0|0|2
48,288,124767,1,10
144,288,124989,2,0,B|200:288,1,50,0|0
312,216,125434,2,0,B|262:216,1,50,0|10
168,216,125879,1,0
376,216,126324,6,0,B|440:216,1,50,0|8
424,344,126769,2,0,B|360:344,1,50,2|0
288,280,127214,2,0,B|344:280,1,50,0|10
440,280,127659,1,0
440,280,128104,6,0,B|440:208,1,50,0|10
440,128,128549,2,0,B|440:192,1,50,2|0
272,280,129217,5,8
176,280,129439,2,0,B|128:280,1,50,2|0
272,280,129884,2,0,B|336:280,1,50,2|8
224,192,130329,2,0,B|224:80,1,100,0|2
336,192,130997,5,8
432,192,131219,2,0,B|488:192,1,50,0|0
336,192,131664,2,0,B|336:136,1,50,2|8
432,192,132109,2,0,B|432:296,1,100,0|2
344,296,132777,1,8
256,296,132999,1,0
256,112,133444,5,2
256,208,133667,2,0,B|256:264,1,50,8|0
256,112,134334,2,0,B|256:56,1,50,2|8
256,160,134779,1,0
256,288,135224,2,0,B|256:336,1,50,0|8
384,104,135892,6,0,B|440:160,1,74.9999977648259,2|0
336,248,136337,2,0,B|279:191,1,74.9999977648259,2|0
248,64,136782,2,0,B|304:120,1,74.9999977648259,2|0
200,208,137227,2,0,B|143:151,1,74.9999977648259,2|2
280,288,137672,6,0,B|336:232,1,74.9999977648259,0|2
232,144,138117,2,0,B|175:201,1,74.9999977648259,0|2
144,328,138562,2,0,B|200:272,1,74.9999977648259,0|2
96,184,139007,2,0,B|39:241,1,74.9999977648259,0|2
144,328,139452,5,2
280,328,139675,1,0
416,224,139897,5,2
280,224,140120,1,0
144,120,140342,5,2
280,120,140565,1,0
416,224,140787,5,2
280,224,141010,2,0,B|216:224|216:296|128:296,1,149.999995529652,2|2
56,296,141677,2,0,B|56:208,1,74.9999977648259,0|2
128,104,142122,2,0,B|128:200,1,74.9999977648259,0|2
200,296,142567,2,0,B|200:200,1,74.9999977648259,0|2
280,88,143012,6,0,B|320:18,1,74.9999977648259,2|0
300,164,143457,2,0,B|383:212,1,74.9999977648259,2|0
224,184,143902,2,0,B|184:253,1,74.9999977648259,2|0
203,108,144347,2,0,B|126:64,1,74.9999977648259,2|2
272,152,144792,6,0,B|309:216,1,74.9999977648259,0|2
225,330,145237,2,0,B|289:292,1,74.9999977648259,0|2
403,380,145682,2,0,B|365:314,1,74.9999977648259,0|2
451,200,146127,2,0,B|385:237,1,74.9999977648259,0|2
256,320,146572,5,2
256,64,147017,1,2
256,192,147462,5,2
256,192,147685,1,2
256,192,147796,12,2,149242
256,192,149687,5,2
408,72,150132,6,0,B|472:128|472:264,2,200,6|8|2
256,112,151467,5,8
256,272,151690,1,2
104,312,151912,2,0,B|40:256|40:120,2,200,2|8|2
256,112,153247,5,8
256,272,153470,1,2
336,128,153692,2,0,B|384:152|408:208,1,100,2|0
176,256,154137,2,0,B|128:232|104:176,1,100,10|0
256,112,154582,5,2
384,192,154805,1,2
256,272,155027,1,8
128,192,155250,1,2
128,168,155361,1,0
128,144,155472,2,0,B|128:40,1,100,4|2
256,192,155917,2,0,B|256:304,1,100,8|2
384,192,156362,6,0,B|304:120,1,100,2|0
280,96,156696,1,0
248,72,156808,1,14
160,152,157030,1,0
176,184,157141,1,0
200,216,157253,2,0,B|232:288|352:288,1,150,6|0
312,328,157698,2,0,B|384:328|432:224,1,150,10|0
456,264,158143,2,0,B|472:176|432:104,1,150,2|0
480,112,158588,2,0,B|448:168|336:184,1,150,10|0
312,184,159033,2,0,B|312:80,1,100,2|0
184,144,159478,2,0,B|232:240,1,100,10|2
120,280,159923,5,0
264,320,160145,1,0
288,216,160368,1,10
184,320,160590,1,2
112,232,160813,6,0,B|80:184|96:128,1,100
208,40,161258,2,0,B|240:88|224:144,1,100,10|2
272,304,161703,2,0,B|240:256|256:200,1,100,0|2
272,176,162036,1,0
296,144,162148,1,12
416,168,162370,1,2
448,192,162481,1,0
464,232,162593,1,4
440,344,162815,5,2
376,240,163038,1,8
312,344,163260,1,2
248,240,163483,1,0
184,344,163705,1,2
160,312,163816,1,0
136,280,163928,1,12
256,288,164150,1,2
136,216,164373,6,0,B|176:112|272:56,2,200,6|8|2
320,112,165708,5,8
192,272,165930,1,2
376,168,166153,2,0,B|336:272|240:328,2,200,2|8|2
256,88,167488,5,8
256,240,167710,1,2
168,168,167933,1,2
256,272,168155,1,0
344,192,168378,1,10
256,304,168600,1,0
256,128,168823,5,2
256,240,169045,1,2
256,272,169157,1,0
256,304,169268,1,12
144,352,169490,1,2
144,352,169713,2,0,B|112:312|144:256,1,100,0|2
256,304,170158,2,0,B|288:264|256:208,1,100,8|2
136,224,170603,6,0,B|104:184|136:128,1,100,0|0
160,104,170937,1,0
192,80,171048,1,14
312,80,171270,1,0
344,96,171382,1,0
376,120,171493,2,0,B|304:200|216:192,1,150,6|0
248,152,171938,2,0,B|336:208|272:296,1,150,10|0
256,248,172383,2,0,B|352:288|432:264,1,150,2|0
392,232,172828,2,0,B|344:304|272:328,1,150,10|0
240,328,173273,2,0,B|128:328,1,100,2|0
56,248,173718,2,0,B|168:248,1,100,10|2
248,144,174163,2,0,B|136:144,1,100
200,248,174608,2,0,B|312:248,1,100,10|2
424,248,175053,5,0
480,144,175275,1,2
424,248,175498,1,8
368,144,175720,1,2
424,248,175943,5,0
480,144,176166,1,2
480,104,176277,1,0
480,64,176388,1,8
368,144,176611,1,0
336,168,176722,1,0
304,192,176833,1,4
256,192,176944,12,4,178613
80,64,185733,6,0,B|80:112,3,37.4999988824129,2|2|2|2
96,128,186178,2,0,B|128:176,3,37.4999988824129,2|2|2|2
136,184,186623,2,0,B|152:240,3,37.4999988824129,2|2|2|2
160,248,187068,2,0,B|200:288,3,37.4999988824129,2|2|2|2
216,288,187513,6,0,B|296:288,1,74.9999977648259,2|0
288,216,187958,2,0,B|368:168,1,74.9999977648259,2|0
400,120,188403,2,0,B|344:80|288:80,1,112.499996647239,2|0
256,80,188848,2,0,B|168:80,1,74.9999977648259,2|0
88,224,189293,6,0,B|144:264|200:264,1,112.499996647239,2|0
232,264,189738,2,0,B|328:264,1,74.9999977648259,2|0
384,184,190183,2,0,B|288:184,1,74.9999977648259,2|0
232,96,190628,2,0,B|328:96,1,74.9999977648259,2|0
256,192,191073,12,4,192853
256,192,193298,5,8
256,128,194188,1,8
256,192,195078,5,8
256,256,195969,1,8
256,192,196859,5,8
256,128,197749,1,8
256,256,198194,1,4
128,136,199974,6,0,B|152:56|360:56|384:136,1,300,0|2
384,168,201754,6,0,B|360:88|152:88|128:168,1,300,0|2
216,272,203534,2,0,B|232:304|280:304|298:272,1,100,0|2
296,224,204424,5,2
296,224,204646,2,0,B|277:256|229:256|213:224,1,100,0|2
256,144,205536,1,2
256,48,205981,1,2
256,48,206204,2,0,B|256:160,1,100,0|2
128,248,207094,6,0,B|152:328|360:328|384:248,1,300,0|2
384,216,208874,6,0,B|360:296|152:296|128:216,1,300,0|2
216,112,210654,2,0,B|232:80|280:80|298:112,1,100,0|2
296,160,211544,5,2
296,160,211766,2,0,B|277:128|229:128|213:160,1,100,0|2
256,240,212656,1,2
256,336,213101,1,0
256,336,213324,2,0,B|256:224,1,100,0|2
256,72,214214,6,0,B|288:176|432:200,1,224.999993294478,0|2
408,248,215104,2,0,B|376:328|288:336,1,149.999995529652,0|2
40,248,215994,2,0,B|72:328|160:336,2,149.999995529652,0|2|0
40,96,217329,5,2
104,56,217552,1,2
168,96,217774,2,0,B|168:192,1,74.9999977648259,0|2
224,216,218219,2,0,B|224:304,1,74.9999977648259,0|2
288,336,218664,1,0
288,336,218887,2,0,B|392:336|416:272,1,149.999995529652,0|2
416,128,219777,1,0
280,64,220222,1,2
280,64,220444,2,0,B|208:112,1,74.9999977648259,0|2
256,168,220889,2,0,B|256:248,1,74.9999977648259,0|2
128,288,221334,6,0,B|152:368|360:368|384:288,1,300,0|2
384,256,222892,2,0,B|384:192,1,50,2|4
200,72,224004,6,0,B|257:23,1,74.9999977648259,4|0
180,300,224449,2,0,B|109:275,1,74.9999977648259,4|0
387,203,224894,2,0,B|401:277,1,74.9999977648259,4|0
256,23,225339,6,0,B|256:144,1,100,4|0
109,276,225784,2,0,B|214:216,1,100,4|0
401,277,226229,1,4
256,192,226341,12,2,227564
256,192,228009,5,2
168,96,228454,6,0,B|216:40|296:40|344:96,2,200,6|8|2
256,192,229789,5,8
256,192,230012,1,2
344,288,230234,2,0,B|296:344|216:344|168:288,2,200,2|8|2
368,64,231569,5,8
408,176,231792,1,2
368,64,232014,2,0,B|312:168,1,100,2|0
208,120,232459,2,0,B|248:216,1,100,10|0
352,264,232904,1,2
320,144,233127,1,2
352,264,233349,1,8
240,248,233572,1,2
212,277,233683,1,0
184,304,233794,2,0,B|144:344|96:344,1,100,4|2
120,224,234239,2,0,B|160:184|208:184,1,100,8|2
320,192,234685,6,0,B|368:191|408:151,1,100,2|0
440,128,235018,1,0
464,96,235130,1,14
352,64,235352,1,0
320,80,235463,1,0
288,96,235575,2,0,B|144:176,1,150,6|0
152,128,236020,2,0,B|304:192,1,150,10|0
296,144,236465,2,0,B|176:264,1,150,2|0
176,216,236910,2,0,B|272:336,1,150,10|0
312,336,237355,2,0,B|416:336,1,100,2|0
480,240,237800,2,0,B|368:240,1,100,10|2
256,240,238245,5,0
328,144,238467,1,0
256,240,238690,1,10
136,240,238912,1,2
112,120,239135,2,0,B|160:80|208:80,1,100
256,192,239580,2,0,B|208:232|160:232,1,100,10|2
176,96,240025,5,0
296,96,240247,1,2
328,120,240358,1,0
344,160,240470,1,12
216,288,240692,1,2
184,264,240803,1,0
168,224,240915,1,4
280,192,241137,1,2
360,280,241360,1,8
280,192,241582,1,2
400,216,241805,5,0
320,304,242027,1,2
320,304,242138,1,0
320,304,242250,1,12
400,216,242472,1,2
320,304,242695,6,0,B|224:344|112:352,2,200,6|8|2
256,192,244030,5,8
256,192,244252,1,2
192,80,244475,2,0,B|288:40|400:32,2,200,2|8|2
328,192,245810,5,8
256,288,246032,1,2
328,192,246255,1,2
256,288,246477,1,0
184,192,246700,1,10
112,288,246922,1,0
40,192,247145,1,2
112,288,247367,1,2
184,192,247590,5,8
256,288,247812,1,2
296,288,247924,1,0
336,288,248035,1,4
408,192,248257,1,2
408,192,248480,2,0,B|304:192,1,100,8|2
104,192,248925,6,0,B|128:264|192:264,1,100,0|0
208,264,249259,1,0
248,264,249370,1,14
336,344,249592,1,0
376,344,249704,1,0
416,344,249815,2,0,B|488:344|512:232,1,150,6|0
472,264,250260,2,0,B|416:120,1,150,10|0
384,152,250705,2,0,B|280:32,1,150,2|0
264,72,251150,2,0,B|80:32,1,150,10|0
88,72,251595,2,0,B|88:184,1,100,2|0
136,328,252040,2,0,B|136:224,1,100,10|2
136,72,252485,2,0,B|136:184,1,100
184,328,252930,2,0,B|184:224,1,100,10|2
184,72,253375,5,0
248,168,253597,1,2
368,168,253820,1,8
432,72,254043,1,2
368,168,254265,5,0
304,264,254488,1,2
304,304,254599,1,0
328,336,254710,1,8
208,264,254933,1,0
208,304,255044,1,0
184,336,255155,1,4
256,192,255266,12,4,256935
256,64,264055,5,4
256,64,264500,2,0,B|256:144,1,74.9999977648259,8|0
256,320,265168,2,0,B|256:240,1,74.9999977648259,0|8
184,320,265835,5,0
256,192,266058,1,0
328,320,266280,2,0,B|328:240,1,74.9999977648259,8|0
256,64,266948,2,0,B|256:144,1,74.9999977648259,0|8
256,320,267615,5,0
416,192,268060,1,8
312,192,268283,1,0
96,192,268728,1,0
200,192,268950,1,8
416,192,269395,5,0
312,192,269618,1,0
200,192,269840,1,8
96,192,270063,1,0
96,192,270508,5,0
200,192,270730,1,8
