osu file format v9

[General]
AudioFilename: 654.mp3
AudioLeadIn: 0
PreviewTime: 149230
Countdown: 0
SampleSet: Soft
StackLeniency: 0.7
Mode: 0
LetterboxInBreaks: 1

[Editor]
DistanceSpacing: 1
BeatDivisor: 4
GridSize: 16

[Metadata]
Title:D City Rock
Artist:TeddyLoid feat. Debra Zeer
Creator:LunaticSHIKI
Version:Brief
Source:PSG
Tags:Panty&Stocking with Garterbelt Anarchy sandpig

[Difficulty]
HPDrainRate:1
CircleSize:3
OverallDifficulty:2
ApproachRate:2
SliderMultiplier:1.2
SliderTickRate:1

[Events]
//Background and Video events
0,0,"123.jpg"
Video,499,"Final.FLV"
//Break Periods
2,43085,48890
//Storyboard Layer 0 (Background)
//Storyboard Layer 1 (Fail)
//Storyboard Layer 2 (Pass)
//Storyboard Layer 3 (Foreground)
//Storyboard Sound Samples
//Background Colour Transformations
3,100,163,162,255

[TimingPoints]
609,445.01142195983,4,2,0,85,1,0
50450,-100,4,1,0,48,0,0
61019,-100,4,1,0,48,0,0
64690,-100,4,1,0,48,0,1
93171,-100,4,1,0,48,0,0

[Colours]
Combo1 : 0,128,255
Combo2 : 255,128,128
Combo3 : 255,128,64

[HitObjects]
112,64,22414,6,2,B|48:224|128:320,2,240,0|2|0
400,128,24862,6,0,B|448:192|384:272,1,120
304,192,25752,1,2
80,192,26642,6,0,B|0:192,2,60,0|0|2
208,192,27532,1,2
384,128,28199,2,2,B|432:208|352:272,1,120
272,192,29089,5,4
160,192,29534,1,2
216,86,29979,2,2,B|216:214,1,120,0|2
160,304,30869,2,0,B|304:304,1,120,0|2
368,224,31759,2,0,B|400:160|352:80,2,120,0|2|0
256,176,33094,1,2
432,176,33762,6,0,B|352:176,2,60,0|2|0
192,208,35097,6,2,B|130:194|152:127|197:129,2,120
352,192,36654,5,4
352,192,37099,2,0,B|496:192,1,120,0|8
432,80,37989,1,0
320,80,38434,2,2,B|240:48|176:96,1,120,8|2
256,192,39324,1,8
192,304,39770,2,2,B|272:336|336:288,1,120,2|8
400,128,41105,5,8
288,80,41550,1,0
176,128,41995,1,8
231,234,42440,2,0,B|295:266|375:218,1,120,0|4
64,256,50450,5,0
160,320,50895,1,0
256,256,51340,1,0
160,192,51785,1,0
256,128,52230,5,0
352,192,52675,1,0
448,128,53120,1,0
352,64,53565,1,0
256,128,54010,6,2,B|192:96|112:144,1,120
208,224,54900,2,2,B|272:256|352:208,1,120
432,160,55790,2,2,B|496:224|400:304,3,120
320,224,57570,6,0,B|224:224,2,60,0|0|8
352,336,58460,2,0,B|208:336,1,120,0|8
256,224,59350,2,0,B|352:224,2,60,0|0|8
240,112,60240,2,0,B|368:112,1,120,0|8
368,240,61130,5,2
256,208,61575,1,2
144,240,62020,1,2
32,208,62465,1,4
256,192,62910,12,0,64690
304,240,65580,5,2
304,128,66025,1,2
416,64,66470,2,2,B|448:208|416:304,1,240
352,208,67805,5,8
240,240,68250,1,0
128,208,68695,1,8
176,112,69140,1,0
304,112,69585,1,8
304,224,70030,2,0,B|224:256|144:208,1,120,0|8
240,128,70920,2,0,B|240:288,1,120,0|8
144,192,71810,6,0,B|48:192,2,60,0|0|8
272,192,72700,1,0
384,192,73145,1,8
272,192,73590,2,0,B|144:192,1,120,0|8
152,193,74480,1,0
153,193,74925,1,8
272,144,75370,6,2,B|304:208|256:288,3,120
160,208,77150,1,0
160,320,77595,1,8
48,320,78040,1,0
48,208,78485,1,8
160,208,78931,6,2,B|288:208,1,120
400,208,79821,1,0
400,96,80266,1,0
400,208,80711,6,2,B|272:208,1,120
160,208,81601,1,0
48,208,82046,1,0
112,112,82491,2,0,B|175:88|240:118,1,120,0|8
166,215,83381,1,0
285,216,83826,1,8
405,216,84271,6,0,B|469:216,4,60,0|0|8|0|0
284,218,85606,1,8
256,192,86051,8,4,87831
96,128,89166,6,2,B|224:128,1,120
304,208,90056,1,2
224,288,90501,2,0,B|128:288,2,60,0|0|8
224,288,91391,1,0
112,240,91836,1,8
176,144,92281,1,0
288,192,92726,1,8
384,128,93171,6,0,B|384:272,1,120,0|8
272,272,94061,1,0
160,240,94506,1,8
272,192,94951,2,0,B|272:96,4,60,0|0|8|0|0
272,64,96286,1,8
160,128,96731,6,0,B|112:192|176:256,1,120,0|8
256,176,97621,1,0
256,176,98066,1,8
352,224,98511,2,0,B|416:160|320:96,1,120,0|8
256,176,99401,1,0
256,176,99846,1,8
256,176,100291,5,4
144,176,100736,1,8
304,256,101404,2,0,B|304:320,1,60,0|8
304,192,102071,1,4
416,192,102516,1,8
256,112,103184,2,0,B|256:48,1,60,0|8
256,176,103851,5,4
368,208,104296,1,8
336,320,104741,1,0
224,288,105186,1,8
256,176,105631,2,0,B|256:112,2,60,0|8|8
256,304,106521,1,0
256,304,106744,1,8
256,304,106966,1,8
256,192,107411,5,4
