osu file format v14

[General]
AudioFilename: test number 1.mp3
AudioLeadIn: 0
PreviewTime: 64036
Countdown: 0
SampleSet: Soft
StackLeniency: 0.5
Mode: 0
LetterboxInBreaks: 0
WidescreenStoryboard: 1

[Editor]
Bookmarks: 21703,32370,43036,53703,61703,64370
DistanceSpacing: 1
BeatDivisor: 4
GridSize: 4
TimelineZoom: 1.6

[Metadata]
Title:Pipo Password
TitleUnicode:Pipo Password
Artist:TeddyLoid feat. Bonjour Suzuki
ArtistUnicode:TeddyLoid feat. ボンジュール鈴木
Creator:Renumi
Version:Hard
Source:宇宙パトロールルル子
Tags:uchuu patororu ruruco space patrol luluco ed ending tv size renigar ora
BeatmapID:1317759
BeatmapSetID:625336

[Difficulty]
HPDrainRate:4
CircleSize:3.5
OverallDifficulty:6
ApproachRate:7
SliderMultiplier:2.4
SliderTickRate:1

[Events]
//Background and Video events
0,0,"maybe.jpg",0,0
Video,0,"music.avi"
//Break Periods
//Storyboard Layer 0 (Background)
//Storyboard Layer 1 (Fail)
//Storyboard Layer 2 (Pass)
//Storyboard Layer 3 (Foreground)
//Storyboard Sound Samples

[TimingPoints]
369,666.666666666667,4,2,1,80,1,0
11035,-100,4,2,1,80,0,1
11369,-100,4,2,1,80,0,0
21702,-100,4,2,4,60,0,0
22035,-100,4,2,1,60,0,0
31036,-133.333333333333,4,2,1,60,0,0
32369,-100,4,2,1,60,0,0
41702,-133.333333333333,4,2,1,60,0,0
43035,-100,4,2,1,60,0,0
53702,-100,4,2,5,60,0,0
54035,-100,4,2,3,60,0,0
61702,-100,4,2,1,60,0,0
64369,-100,4,2,1,80,0,1
74702,-100,4,2,1,80,0,0
75035,-100,4,2,1,80,0,1
83035,-100,4,2,4,60,0,0

[Colours]
Combo1 : 128,128,128
Combo2 : 255,121,121
Combo3 : 255,151,255
Combo4 : 151,151,255
Combo5 : 192,192,192

[HitObjects]
96,107,9535,5,0,3:2:0:0:
193,177,9869,1,2,3:2:0:0:
193,177,10035,1,0,3:2:0:0:
107,262,10369,1,0,3:2:0:0:
107,262,10535,2,0,L|112:338,1,60,0|2,3:2|3:2,0:0:0:0:
200,378,10869,1,2,3:0:0:0:
271,295,11035,6,0,L|394:289,1,120,6|0,3:2|0:0,0:0:0:0:
453,353,11535,1,0,0:0:0:0:
507,281,11702,1,8,0:0:0:0:
469,105,12035,1,0,0:0:0:0:
399,162,12202,2,0,L|279:167,1,120,2|0,3:2|0:0,0:0:0:0:
213,105,12702,2,0,P|202:70|187:50,1,60,2|0,3:2|0:0,0:0:0:0:
124,114,13035,2,0,P|95:93|71:85,1,60,8|0,0:0|0:0,0:0:0:0:
56,174,13369,1,0,0:0:0:0:
171,312,13702,6,0,B|227:307|227:307|234:311|234:311|291:305,1,120,2|0,3:2|0:0,0:0:0:0:
353,240,14202,1,0,0:0:0:0:
420,299,14369,2,0,L|426:363,2,60,8|0|0,0:0|0:0|0:0,0:0:0:0:
352,215,14869,1,0,3:0:0:0:
397,137,15035,2,0,L|392:72,2,60,2|0|0,0:0|3:0|3:0,0:0:0:0:
334,230,15536,1,2,0:0:0:0:
256,148,15702,2,0,B|199:153|199:153|192:149|192:149|137:154,1,120,8|0,0:0|0:0,0:0:0:0:
66,96,16202,1,0,0:0:0:0:
10,166,16369,38,0,L|21:310,1,120,2|0,3:2|0:0,0:0:0:0:
86,343,16869,1,0,0:0:0:0:
140,271,17035,1,8,0:0:0:0:
313,273,17369,1,2,0:0:0:0:
388,323,17536,2,0,P|400:250|358:196,1,120,0|0,3:0|0:0,0:0:0:0:
304,161,18036,2,0,P|284:132|279:88,1,60,2|0,3:2|0:0,0:0:0:0:
366,90,18369,2,0,P|369:54|393:18,1,60,8|0,0:0|0:3,0:0:0:0:
452,86,18702,2,0,P|463:76|505:61,1,60,2|0,0:0|3:0,0:0:0:0:
428,175,19036,6,0,P|375:195|313:175,1,120,2|0,3:2|0:0,0:0:0:0:
257,109,19536,1,0,0:0:0:0:
187,52,19702,2,0,P|166:111|197:177,1,120,8|0,0:0|0:0,0:0:0:0:
122,228,20202,1,0,3:0:0:0:
67,156,20369,2,0,L|7:154,2,60,0|0|0,0:0|3:0|3:0,0:0:0:0:
122,228,20869,1,0,0:0:0:0:
185,163,21036,2,0,L|245:165,1,60,8|0,0:0|0:0,0:0:0:0:
321,251,21369,2,0,L|261:249,1,60,0|2,0:0|0:0,0:0:0:0:
402,342,21702,22,0,B|386:274|426:282|394:210,1,120,6|0,0:0|0:0,0:0:0:0:
471,168,22202,1,0,0:0:0:0:
471,168,22369,1,2,0:0:0:0:
356,35,22702,1,0,0:0:0:0:
219,152,23036,2,0,P|163:132|99:156,1,120,2|0,0:0|0:0,0:0:0:0:
103,328,23702,2,0,P|159:348|223:324,1,120,2|0,0:0|0:0,0:0:0:0:
283,272,24202,1,0,0:0:0:0:
283,272,24369,6,0,P|339:254|394:274,1,120,0|0,3:0|0:0,0:0:0:0:
467,328,24869,1,0,0:0:0:0:
467,328,25036,1,2,0:0:0:0:
403,160,25369,1,0,0:0:0:0:
501,9,25702,2,0,B|447:12|447:12|442:9|442:9|365:13,1,120,2|0,0:0|0:0,0:0:0:0:
283,164,26369,2,0,B|336:160|336:160|341:163|341:163|419:160,1,120,2|0,0:0|0:0,0:0:0:0:
479,208,26869,1,0,0:0:0:0:
479,208,27036,54,0,L|483:276,1,60,0|0,3:0|0:0,0:0:0:0:
427,340,27369,2,0,B|304:345|304:345|294:340|294:340|186:346,1,240,2|0,0:0|0:0,0:0:0:0:
35,250,28369,2,0,P|11:193|35:133,1,120,2|0,0:0|0:0,0:0:0:0:
150,7,29036,2,0,L|157:126,1,120,2|0,0:0|0:0,0:0:0:0:
110,300,29702,5,6,3:2:0:0:
110,300,30369,2,0,L|103:181,1,120
191,68,31036,2,2,B|263:124|347:60|347:60|423:4|495:64,1,315.000012016297,2|0,0:0|0:0,0:0:0:0:
418,118,32369,54,0,P|414:154|423:190,1,60,0|0,3:0|0:0,0:0:0:0:
379,258,32702,2,0,P|383:287|379:317,1,60,2|0,0:0|0:0,0:0:0:0:
293,286,33036,2,0,P|237:267|163:299,1,120,2|0,0:0|0:0,0:0:0:0:
94,257,33536,6,0,P|89:286|94:316,1,60,0|2,3:0|0:0,0:0:0:0:
153,199,33869,1,0,0:0:0:0:
153,199,34036,2,0,P|157:163|148:127,1,60,0|0,3:2|0:0,0:0:0:0:
93,72,34369,2,0,P|154:51|221:83,1,120,2|0,0:0|0:0,0:0:0:0:
268,132,34869,1,0,3:0:0:0:
268,132,35036,54,0,B|326:130|326:130|337:134|337:134|407:132,1,120,0|2,3:0|0:0,0:0:0:0:
452,69,35535,1,0,0:0:0:0:
452,69,35702,2,0,B|514:66|514:66|515:143,1,120,2|0,0:0|0:0,0:0:0:0:
458,194,36202,2,0,L|462:277,1,60,0|2,3:0|0:0,0:0:0:0:
506,332,36536,1,0,3:0:0:0:
506,332,36702,1,0,3:0:0:0:
340,255,37036,2,0,L|208:258,1,120,2|0,0:0|0:0,0:0:0:0:
150,323,37536,1,0,0:0:0:0:
150,323,37702,5,0,3:0:0:0:
26,192,38035,2,0,P|9:143|40:74,1,120,2|0,0:0|0:0,0:0:0:0:
199,13,38702,1,2,0:0:0:0:
272,65,38869,2,0,L|391:62,1,120,0|0,3:0|0:0,0:0:0:0:
475,96,39369,1,2,3:2:0:0:
355,230,39702,1,0,0:0:0:0:
272,65,40035,2,0,L|211:68,2,60,2|0|0,0:0|3:0|3:0,0:0:0:0:
499,377,41702,2,2,P|523:291|471:199,1,180.000006866455,2|8,0:0|0:0,0:0:0:0:
486,212,43036,54,0,P|381:177|291:264,1,240,6|8,3:2|0:0,0:0:0:0:
143,357,44036,1,2,0:0:0:0:
213,301,44202,2,0,L|218:156,1,120,0|0,3:0|0:0,0:0:0:0:
253,98,44702,2,0,L|169:95,1,60,0|0,3:0|0:0,0:0:0:0:
124,31,45036,1,8,0:0:0:0:
3,164,45369,2,0,L|0:246,1,60,2|0,0:0|3:0,0:0:0:0:
58,293,45702,6,0,B|113:296|113:296|126:293|126:293|188:297,1,120,2|0,3:2|0:0,0:0:0:0:
254,249,46202,1,0,0:0:0:0:
254,250,46369,2,0,B|309:253|309:253|322:250|322:250|373:253,1,120,8|0,0:0|0:0,0:0:0:0:
453,293,46869,1,0,3:0:0:0:
381,127,47202,1,0,3:0:0:0:
381,127,47369,1,0,3:0:0:0:
254,250,47702,2,0,L|134:244,1,120,8|2,0:0|0:0,0:0:0:0:
57,292,48202,1,0,0:0:0:0:
57,292,48369,54,0,P|40:235|84:172,1,120,2|0,3:2|0:0,0:0:0:0:
130,120,48869,1,0,0:0:0:0:
130,120,49036,1,8,0:0:0:0:
254,250,49369,2,0,L|313:252,1,60,2|0,0:0|3:0,0:0:0:0:
382,311,49702,2,0,P|406:257|389:201,1,120,2|0,0:0|3:0,0:0:0:0:
276,27,50369,2,0,B|221:24|221:24|208:27|208:27|156:24,1,120,8|2,0:0|0:0,0:0:0:0:
108,103,50869,1,0,0:0:0:0:
108,103,51035,6,0,B|160:106|160:106|173:103|173:103|228:106,1,120,2|0,3:2|0:0,0:0:0:0:
271,188,51536,1,0,0:0:0:0:
271,188,51702,2,0,B|219:185|219:185|206:188|206:188|151:185,1,120,8|0,0:0|0:0,0:0:0:0:
100,259,52202,1,0,3:0:0:0:
250,335,52535,1,0,3:0:0:0:
323,282,52702,2,0,L|404:284,1,60,0|0,3:0|0:0,0:0:0:0:
469,311,53036,2,0,P|474:286|463:244,1,60,8|0,0:0|0:0,0:0:0:0:
416,177,53369,2,0,P|397:160|355:148,1,60,2|0,0:0|0:0,0:0:0:0:
277,126,53702,54,0,P|218:135|172:199,1,120,6|0,3:2|0:0,0:0:0:0:
262,211,54202,1,0,3:2:0:0:
262,211,54369,1,8,3:2:0:0:
123,326,54702,1,2,3:2:0:0:
3,191,55035,2,0,L|5:107,1,60,2|0,0:0|3:2,0:0:0:0:
51,53,55369,1,0,3:2:0:0:
178,177,55702,2,0,L|342:180,1,120,8|2,3:2|2:0,0:0:0:0:
370,233,56202,1,0,0:0:0:0:
370,233,56369,6,0,P|389:179|361:116,1,120,2|0,3:2|0:0,0:0:0:0:
422,51,56869,1,0,3:0:0:0:
422,51,57035,2,0,P|368:32|305:60,1,120,8|0,3:2|3:0,0:0:0:0:
209,201,57869,1,0,3:0:0:0:
209,201,58035,2,0,L|206:260,1,60,0|0,3:2|0:0,0:0:0:0:
293,236,58369,2,0,B|424:242,1,120,8|2,3:2|0:0,0:0:0:0:
492,283,58869,1,0,0:0:0:0:
492,283,59035,54,0,B|495:228|495:228|492:215|492:215|495:163,1,120,2|0,3:2|3:0,0:0:0:0:
436,58,59702,1,8,3:2:0:0:
357,149,60036,1,0,3:0:0:0:
292,47,60369,2,0,L|233:43,3,60,2|0|0|0,3:2|3:0|3:2|3:0,0:0:0:0:
163,93,61036,2,0,L|104:89,3,60,8|0|0|0,3:2|3:0|3:2|3:0,0:0:0:0:
228,145,61702,5,6,0:0:0:0:
421,101,62869,54,0,L|427:228,1,120,0|0,3:2|3:0,0:0:0:0:
488,294,63369,1,0,3:2:0:0:
398,373,63702,1,0,3:2:0:0:
398,373,63869,1,0,3:2:0:0:
313,341,64036,1,0,3:2:0:0:
367,269,64202,1,2,3:0:0:0:
296,212,64369,22,0,P|244:233|179:204,1,120,6|0,3:2|0:0,0:0:0:0:
99,53,65036,2,0,P|151:32|216:61,1,120,8|0,0:0|0:0,0:0:0:0:
279,109,65536,1,0,3:0:0:0:
355,155,65702,2,0,L|427:149,1,60,2|0,0:0|0:0,0:0:0:0:
497,112,66036,2,0,L|501:184,1,60,0|0,3:2|0:0,0:0:0:0:
433,233,66369,2,0,B|381:238|381:238|369:234|369:234|309:240,1,120,8|2,0:0|0:0,0:0:0:0:
260,311,66869,1,0,3:2:0:0:
195,248,67036,6,0,B|190:196|190:196|194:184|194:184|188:124,1,120,2|0,3:2|0:0,0:0:0:0:
244,59,67535,1,0,0:0:0:0:
308,120,67702,2,0,B|313:174|313:174|309:186|309:186|314:238,1,120,8|0,0:0|0:0,0:0:0:0:
260,311,68202,2,0,L|264:374,2,60,0|0|0,3:0|0:0|3:0,0:0:0:0:
314,238,68702,1,0,3:0:0:0:
483,177,69036,2,0,B|478:125|478:125|482:113|482:113|476:53,1,120,8|2,0:0|0:0,0:0:0:0:
405,2,69536,1,0,0:0:0:0:
350,73,69702,6,0,B|298:78|298:78|286:74|286:74|226:80,1,120,2|0,3:2|0:0,0:0:0:0:
173,147,70202,1,0,0:0:0:0:
238,208,70369,2,0,B|292:202|292:202|304:206|304:206|356:201,1,120,8|2,0:0|0:0,0:0:0:0:
444,221,70869,2,0,L|439:152,2,60,0|0|0,3:0|0:0|0:0,0:0:0:0:
381,285,71369,2,0,L|385:344,1,60,0|0,3:0|0:0,0:0:0:0:
466,384,71702,1,8,0:0:0:0:
296,323,72035,2,0,L|236:327,1,60,2|0,0:0|3:0,0:0:0:0:
164,382,72369,38,0,P|146:333|176:258,1,120,2|0,3:2|0:0,0:0:0:0:
222,200,72869,1,0,0:0:0:0:
164,132,73036,2,0,P|217:108|273:127,1,120,8|0,0:0|0:0,0:0:0:0:
330,195,73535,2,0,L|334:255,2,60,0|0|0,3:0|0:0|3:0,0:0:0:0:
392,129,74036,1,0,3:0:0:0:
253,7,74369,2,0,B|201:12|201:12|189:8|189:8|129:14,1,120,8|0,0:0|0:0,0:0:0:0:
68,74,74869,1,0,0:0:0:0:
138,130,75036,6,0,L|146:262,1,120,6|0,3:2|0:0,0:0:0:0:
208,314,75536,1,0,0:0:0:0:
268,247,75702,2,0,L|400:239,1,120,8|0,0:0|0:0,0:0:0:0:
466,284,76202,2,0,P|478:234|447:172,1,120,0|0,3:0|0:0,0:0:0:0:
364,150,76702,2,0,L|304:153,1,60,0|0,3:0|0:0,0:0:0:0:
241,89,77036,1,8,0:0:0:0:
133,233,77369,2,0,L|136:292,1,60,2|0,0:0|3:0,0:0:0:0:
54,329,77702,6,0,B|49:277|49:277|53:265|53:265|47:205,1,120,2|0,3:2|0:0,3:3:0:0:
93,132,78202,1,0,0:0:0:0:
48,53,78369,2,0,B|99:53|99:53|110:48|110:48|166:50,1,120,8|0,0:0|0:0,0:0:0:0:
232,112,78869,2,0,L|292:113,2,60,0|0|0,3:0|0:0|3:0,0:0:0:0:
168,176,79369,1,0,3:0:0:0:
271,323,79702,2,0,L|404:321,1,120,8|2,0:0|0:0,0:0:0:0:
453,384,80202,1,0,0:0:0:0:
512,317,80369,38,0,L|510:184,1,120,2|0,3:2|0:0,0:0:0:0:
458,122,80869,1,0,0:0:0:0:
403,193,81036,2,8,L|270:195,1,120,8|0,0:0|0:0,0:0:0:0:
200,159,81535,2,0,L|201:238,2,60,0|0|0,3:0|0:0|0:0,0:0:0:0:
257,89,82036,1,0,3:0:0:0:
403,193,82369,2,0,B|403:244|403:244|398:255|398:255|400:311,1,120,8|2,0:0|0:0,0:0:0:0:
336,375,82869,1,0,3:0:0:0:
336,375,83036,5,6,3:2:0:0:
256,192,83202,12,0,85702,0:0:0:0:
