osu file format v14

[General]
AudioFilename: test number 1.mp3
AudioLeadIn: 0
PreviewTime: 64036
Countdown: 0
SampleSet: Soft
StackLeniency: 0.7
Mode: 0
LetterboxInBreaks: 0
WidescreenStoryboard: 1

[Editor]
Bookmarks: 21703,32370,43036,53703,61703,64370
DistanceSpacing: 1
BeatDivisor: 4
GridSize: 4
TimelineZoom: 1

[Metadata]
Title:Pipo Password
TitleUnicode:Pipo Password
Artist:TeddyLoid feat. Bonjour Suzuki
ArtistUnicode:TeddyLoid feat. ボンジュール鈴木
Creator:Renumi
Version:Easy
Source:宇宙パトロールルル子
Tags:uchuu patororu ruruco space patrol luluco ed ending tv size renigar ora
BeatmapID:1317758
BeatmapSetID:625336

[Difficulty]
HPDrainRate:2.5
CircleSize:2.5
OverallDifficulty:2
ApproachRate:2.5
SliderMultiplier:1.2
SliderTickRate:1

[Events]
//Background and Video events
0,0,"maybe.jpg",0,0
Video,0,"music.avi"
//Break Periods
//Storyboard Layer 0 (Background)
//Storyboard Layer 1 (Fail)
//Storyboard Layer 2 (Pass)
//Storyboard Layer 3 (Foreground)
//Storyboard Sound Samples

[TimingPoints]
369,666.666666666667,4,2,1,80,1,0
11035,-100,4,2,1,80,0,1
11369,-100,4,2,1,80,0,0
21702,-100,4,2,4,60,0,0
22035,-100,4,2,1,60,0,0
53702,-100,4,2,5,60,0,0
54035,-100,4,2,3,60,0,0
61702,-100,4,2,1,60,0,0
64369,-100,4,2,1,80,0,1
74702,-100,4,2,1,80,0,0
75035,-100,4,2,1,80,0,1
83035,-100,4,2,4,80,0,0

[Colours]
Combo1 : 128,128,128
Combo2 : 255,121,121
Combo3 : 255,151,255
Combo4 : 151,151,255
Combo5 : 192,192,192

[HitObjects]
0,304,11035,6,0,B|112:299|112:299|127:306|127:306|238:301,1,240,6|0,3:2|0:0,0:0:0:0:
312,206,13035,1,8,0:0:0:0:
389,297,13702,2,0,L|519:295,2,120,0|8|2,3:0|0:0|0:0,0:0:0:0:
312,206,15702,1,8,0:0:0:0:
238,300,16369,6,0,P|187:197|261:100,1,240,2|0,3:2|0:0,0:0:0:0:
312,206,18369,1,8,0:0:0:0:
371,105,19035,2,0,L|501:103,2,120,0|8|2,3:2|0:0|0:0,0:0:0:0:
301,6,21036,1,8,0:0:0:0:
198,68,21702,22,0,B|165:128|200:183|200:183|234:244|197:306,1,240,6|2,0:0|0:0,0:0:0:0:
93,245,23702,1,0,0:0:0:0:
202,296,24369,2,0,B|314:291|314:291|329:298|329:298|440:293,1,240,2|2,3:2|0:0,0:0:0:0:
506,192,26369,1,0,0:0:0:0:
432,97,27036,6,0,B|321:102|321:102|306:95|306:95|194:100,1,240,2|2,3:2|0:0,0:0:0:0:
135,205,29036,1,0,0:0:0:0:
52,118,29702,1,6,3:2:0:0:
288,161,31036,2,2,P|344:178|401:161,1,120,2|0,0:0|0:0,0:0:0:0:
458,56,32369,70,0,P|520:159|453:270,1,240,0|2,3:0|0:0,0:0:0:0:
401,161,34369,1,2,0:0:0:0:
333,255,35036,2,0,B|155:249|155:249|196:300,1,240,0|2,3:0|0:0,0:0:0:0:
291,368,37036,1,2,0:0:0:0:
400,319,37702,54,0,B|403:207|403:207|412:193|412:193|417:81,1,240,0|2,3:0|0:0,0:0:0:0:
325,3,39702,1,2,0:0:0:0:
216,54,40369,1,0,3:0:0:0:
335,276,41702,2,2,L|454:278,1,120,2|8,0:0|0:0,0:0:0:0:
510,173,43036,6,0,B|387:170|387:170|371:161|371:161|263:159,1,240,6|2,3:2|0:0,0:0:0:0:
196,67,45036,1,8,0:0:0:0:
121,161,45702,2,0,L|119:290,1,120,2|8,3:2|0:0,0:0:0:0:
204,366,47036,2,0,L|323:367,1,120,0|8,0:0|0:0,0:0:0:0:
408,281,48369,54,0,B|453:323|453:323|454:136,1,240,2|2,3:2|0:0,0:0:0:0:
385,45,50369,1,8,0:0:0:0:
311,140,51036,2,0,B|191:137,1,120,2|8,3:2|0:0,0:0:0:0:
95,64,52369,2,0,B|92:184,1,120,0|8,0:0|0:0,0:0:0:0:
184,260,53702,70,0,P|258:303|350:257,2,180,2|2|8,3:2|3:2|3:2,0:0:0:0:
193,140,56369,2,0,P|273:107|349:150,2,180,2|0|8,3:2|3:0|3:2,0:0:0:0:
86,195,59036,2,0,P|70:138|91:75,1,120,2|8,3:2|3:2,0:0:0:0:
193,140,60369,2,0,P|234:97|299:84,1,120,0|8,3:0|3:2,0:0:0:0:
293,202,61702,5,6,0:0:0:0:
427,66,64369,6,0,L|305:68,1,120,6|8,3:2|0:0,0:0:0:0:
223,154,65702,2,0,L|101:156,1,120,2|8,0:0|0:0,0:0:0:0:
42,259,67036,2,0,B|146:257|146:257|161:264|161:264|172:256|172:256|284:254,1,240,2|0,3:2|0:0,0:0:0:0:
363,340,69036,1,8,0:0:0:0:
423,252,69702,6,0,L|421:130,1,120,2|8,3:2|0:0,0:0:0:0:
478,26,71035,2,0,L|358:27,1,120,0|8,0:0|0:0,0:0:0:0:
273,113,72369,2,0,B|221:112|221:112|217:114|217:114|150:113,2,120,2|8|0,3:2|0:0|3:0,0:0:0:0:
358,27,74369,1,8,0:0:0:0:
436,117,75035,6,0,L|437:236,1,120,6|8,3:2|0:0,0:0:0:0:
502,338,76369,2,0,L|382:339,1,120,2|8,0:0|0:0,0:0:0:0:
322,235,77702,2,0,B|217:236|217:236|202:229|202:229|191:237|191:237|86:239,1,240,2|0,3:2|0:0,0:0:0:0:
5,150,79702,1,8,0:0:0:0:
88,64,80369,38,0,B|186:62|186:62|205:70|205:70|222:60|222:60|324:58,1,240,2|0,3:2|0:0,0:0:0:0:
429,113,82369,1,8,0:0:0:0:
333,185,83036,5,6,3:2:0:0:
256,192,83202,12,0,85702,0:0:0:0:
