osu file format v14

[General]
AudioFilename: test number 1.mp3
AudioLeadIn: 0
PreviewTime: 64036
Countdown: 0
SampleSet: Soft
StackLeniency: 0.5
Mode: 0
LetterboxInBreaks: 0
WidescreenStoryboard: 1

[Editor]
Bookmarks: 21703,32370,43036,53703,61703,64370
DistanceSpacing: 2.2
BeatDivisor: 4
GridSize: 4
TimelineZoom: 2.4

[Metadata]
Title:Pipo Password
TitleUnicode:Pipo Password
Artist:TeddyLoid feat. Bonjour Suzuki
ArtistUnicode:TeddyLoid feat. ボンジュール鈴木
Creator:Renumi
Version:Collab Insane
Source:宇宙パトロールルル子
Tags:uchuu patororu ruruco space patrol luluco ed ending tv size renigar ora
BeatmapID:1345312
BeatmapSetID:625336

[Difficulty]
HPDrainRate:5
CircleSize:4
OverallDifficulty:7
ApproachRate:8.5
SliderMultiplier:3.1
SliderTickRate:1

[Events]
//Background and Video events
0,0,"maybe.jpg",0,0
Video,0,"music.avi"
//Break Periods
//Storyboard Layer 0 (Background)
//Storyboard Layer 1 (Fail)
//Storyboard Layer 2 (Pass)
//Storyboard Layer 3 (Foreground)
//Storyboard Sound Samples

[TimingPoints]
369,666.666666666667,4,2,1,80,1,0
11035,-100,4,2,1,80,0,1
11369,-100,4,2,1,80,0,0
21702,-125,4,2,4,60,0,0
22035,-125,4,2,1,60,0,0
31035,-133.333333333333,4,2,1,60,0,0
32369,-125,4,2,1,60,0,0
41702,-133.333333333333,4,2,1,60,0,0
43035,-111.111111111111,4,2,1,60,0,0
53702,-100,4,2,5,60,0,0
54035,-100,4,2,3,60,0,0
61702,-100,4,2,1,60,0,0
64369,-100,4,2,1,80,0,1
74702,-100,4,2,1,80,0,0
75035,-100,4,2,1,80,0,1
83035,-100,4,2,4,60,0,0

[Colours]
Combo1 : 128,128,128
Combo2 : 255,121,121
Combo3 : 255,151,255
Combo4 : 151,151,255
Combo5 : 192,192,192

[HitObjects]
83,295,9535,6,0,P|162:312|228:254,1,155,0|2,3:2|3:2,0:0:0:0:
236,120,10035,1,0,3:2:0:0:
137,197,10202,1,0,0:0:0:0:
138,208,10285,1,0,0:0:0:0:
139,219,10369,5,0,3:2:0:0:
224,36,10535,1,0,3:2:0:0:
158,103,10702,1,2,3:2:0:0:
284,188,10869,1,2,3:0:0:0:
361,84,11035,6,0,L|517:82,1,155,6|0,3:2|0:0,0:0:0:0:
284,188,11535,1,0,0:0:0:0:
284,188,11702,2,0,L|128:190,1,155,8|0,0:0|0:0,0:0:0:0:
43,256,12202,2,0,L|44:334,1,77.5,0|0,3:0|0:0,0:0:0:0:
128,112,12535,1,0,0:0:0:0:
128,112,12702,2,0,L|129:190,1,77.5,2|0,3:2|0:0,0:0:0:0:
48,41,13035,2,0,P|110:0|184:17,1,155,8|0,0:0|0:0,0:0:0:0:
288,84,13535,1,0,3:0:0:0:
288,84,13702,38,0,P|361:102|424:60,1,155,2|0,3:2|0:0,0:0:0:0:
344,8,14202,1,0,0:0:0:0:
222,162,14369,2,0,L|235:269,1,77.5,8|0,0:0|0:0,0:0:0:0:
134,343,14702,2,0,L|121:236,1,77.5,0|0,0:0|3:0,0:0:0:0:
188,124,15035,2,0,L|201:231,1,77.5,0|0,0:2|3:0,0:0:0:0:
100,305,15368,2,0,L|87:198,1,77.5,2|0,3:2|0:0,0:0:0:0:
214,84,15702,2,0,L|231:238,1,155,8|0,0:0|0:0,0:0:0:0:
320,325,16202,1,0,0:0:0:0:
320,325,16369,6,0,P|395:334|460:269,1,155,2|0,3:2|0:0,0:0:0:0:
412,101,16869,2,0,P|337:91|278:139,1,155,2|0,0:0|0:0,0:0:0:0:
368,251,17369,2,0,L|360:158,1,77.5,2|0,0:0|0:0,0:0:0:0:
271,60,17702,2,0,L|279:153,1,77.5
227,203,18035,2,0,L|235:296,1,77.5,2|0,3:2|0:0,0:0:0:0:
191,50,18369,2,0,L|199:143,1,77.5,8|0,0:0|0:3,0:0:0:0:
147,193,18702,2,0,L|155:286,1,77.5,0|0,0:0|3:0,0:0:0:0:
60,322,19035,6,0,B|55:249|55:249|52:242|52:242|47:161,1,155,2|0,3:2|0:0,0:0:0:0:
78,60,19536,1,0,0:0:0:0:
78,60,19702,2,0,L|0:66,2,77.5,8|0|0,0:0|0:0|0:0,0:0:0:0:
167,149,20202,1,0,3:0:0:0:
167,149,20369,2,0,L|173:226,2,77.5,0|0|0,0:0|3:0|3:0,0:0:0:0:
187,33,20869,1,0,0:0:0:0:
244,143,21035,38,0,L|166:149,1,77.5,8|0,0:0|0:0,0:0:0:0:
13,164,21369,2,0,L|90:157,1,77.5,0|2,0:0|0:0,0:0:0:0:
84,34,21702,38,0,P|92:95|89:170,1,124,6|0,3:2|0:0,0:0:0:0:
78,242,22202,1,0,0:0:0:0:
78,242,22369,2,0,P|72:305|83:378,1,124,2|0,0:0|0:0,0:0:0:0:
166,325,22869,1,0,0:0:0:0:
166,325,23036,2,0,P|225:307|286:313,1,124,2|0,0:0|0:0,0:0:0:0:
390,359,23536,1,0,0:0:0:0:
286,313,23702,2,0,P|270:280|258:239,1,62,2|0,0:0|0:0,0:0:0:0:
346,181,24036,2,0,P|361:213|373:254,1,62
260,168,24369,1,0,3:0:0:0:
260,168,24702,5,0,0:0:0:0:
293,81,24869,1,0,0:0:0:0:
188,96,25036,2,0,L|114:106,1,62,2|0,0:0|0:0,0:0:0:0:
260,168,25369,2,0,L|321:176,1,62,0|0,0:0|0:0,0:0:0:0:
429,66,25702,2,0,P|417:133|430:209,1,124,2|0,0:0|0:0,0:0:0:0:
450,283,26202,1,0,0:0:0:0:
450,283,26369,2,0,P|403:300|386:312,1,62,2|0,0:0|0:0,0:0:0:0:
241,271,26702,2,0,P|288:254|305:242,1,62,0|0,0:0|0:0,0:0:0:0:
349,147,27036,1,0,3:0:0:0:
349,147,27369,53,0,0:0:0:0:
279,84,27536,1,0,0:0:0:0:
389,68,27702,2,0,P|422:73|463:83,1,62,2|0,0:0|0:0,0:0:0:0:
508,189,28035,2,0,P|475:194|434:204,1,62
320,269,28369,2,0,P|259:272|205:206,1,124,2|0,0:0|0:0,0:0:0:0:
179,132,28869,1,0,0:0:0:0:
179,132,29036,2,0,P|144:142|93:145,1,62,2|0,0:0|0:0,0:0:0:0:
43,45,29369,2,0,P|78:35|112:33,1,62
263,54,29702,6,0,P|292:117|283:182,1,124,6|0,3:2|0:0,0:0:0:0:
235,261,30202,1,0,0:0:0:0:
235,261,30369,2,0,P|198:263|167:271,1,62,0|0,0:0|0:0,0:0:0:0:
317,328,30702,2,0,P|354:326|385:318,1,62,0|0,0:0|0:0,0:0:0:0:
489,236,31036,54,2,P|424:244|510:293,2,232.500008869171,2|0|0,0:0|0:0|3:0,0:0:0:0:
241,49,32702,5,2,0:0:0:0:
271,137,32869,1,0,0:0:0:0:
230,221,33036,2,0,P|195:220|152:214,1,62,2|0,0:0|0:0,0:0:0:0:
271,137,33369,1,0,0:0:0:0:
379,108,33536,1,0,3:0:0:0:
379,108,33703,2,0,P|414:109|457:115,1,62,2|0,0:0|0:0,0:0:0:0:
296,28,34036,2,0,P|326:11|367:-5,1,62,0|0,3:0|0:0,0:0:0:0:
271,137,34369,2,0,P|210:151|148:138,1,124,2|0,0:0|0:0,0:0:0:0:
57,89,34869,1,0,3:0:0:0:
57,89,35036,54,0,L|64:229,1,124,0|2,3:0|0:0,0:0:0:0:
166,282,35536,1,0,0:0:0:0:
166,282,35702,2,0,L|162:207,1,62,2|0,0:0|0:0,0:0:0:0:
249,334,36036,1,0,0:0:0:0:
249,334,36202,2,0,P|311:322|380:339,1,124,0|0,3:0|3:0,0:0:0:0:
479,243,36702,2,0,P|418:255|358:243,1,124,0|2,3:0|0:0,0:0:0:0:
120,107,37369,1,0,0:0:0:0:
210,83,37536,1,0,0:0:0:0:
189,192,37702,6,0,L|170:317,1,124,0|2,3:0|0:0,0:0:0:0:
253,333,38202,1,0,0:0:0:0:
253,333,38369,2,0,L|264:264,1,62
98,241,38702,2,0,L|87:310,1,62,2|0,0:0|3:0,0:0:0:0:
189,192,39036,2,0,P|138:145|77:139,1,124,0|2,0:0|3:0,0:0:0:0:
271,157,39536,1,0,0:0:0:0:
271,157,39702,2,0,P|259:121|234:81,1,62,2|0,0:0|0:0,0:0:0:0:
355,204,40036,2,0,P|371:170|382:124,1,62,0|0,0:0|3:0,0:0:0:0:
370,295,40369,1,0,3:0:0:0:
370,295,40702,53,0,0:0:0:0:
294,349,40869,1,0,0:0:0:0:
216,297,41036,1,0,0:0:0:0:
139,349,41202,1,0,0:0:0:0:
216,214,41369,1,0,0:0:0:0:
216,214,41536,2,0,P|231:151|213:82,1,124,0|0,3:0|3:0,0:0:0:0:
87,31,42036,2,0,P|72:94|86:151,2,116.250004434586,0|8|0,3:0|0:0|0:0,0:0:0:0:
87,31,43036,6,0,L|233:42,1,139.499995742798,6|0,3:2|0:0,0:0:0:0:
303,111,43536,1,0,0:0:0:0:
303,111,43702,2,0,L|376:116,1,69.749997871399,8|0,0:0|0:0,0:0:0:0:
238,184,44036,2,0,L|165:179,1,69.749997871399,2|0,0:0|3:1,0:0:0:0:
282,281,44369,2,0,B|345:284|345:284|358:292|358:292|428:296,1,139.499995742798,2|0,0:0|3:0,0:0:0:0:
504,342,44869,1,0,0:0:0:0:
493,191,45036,1,8,0:0:0:0:
493,191,45369,2,0,L|490:264,1,69.749997871399,2|0,0:0|3:0,0:0:0:0:
447,114,45702,54,0,B|392:111|392:111|377:99|377:99|311:93,1,139.499995742798,2|0,3:2|0:0,0:0:0:0:
188,170,46202,1,0,0:0:0:0:
188,170,46369,2,0,B|252:175|252:175|267:187|267:187|322:190,1,139.499995742798,8|0,0:0|0:0,0:0:0:0:
282,281,46869,2,0,B|246:285|246:285|215:270,1,69.749997871399,0|0,3:0|0:0,0:0:0:0:
246,80,47202,1,0,3:0:0:0:
246,80,47369,2,0,B|280:76|280:76|313:93,1,69.749997871399,0|0,3:0|0:0,0:0:0:0:
395,208,47702,1,8,0:0:0:0:
395,208,48036,2,0,L|392:284,1,69.749997871399,2|0,0:0|0:0,0:0:0:0:
294,335,48369,6,0,P|222:322|162:361,1,139.499995742798,2|0,3:2|0:0,0:0:0:0:
81,227,48869,1,0,0:0:0:0:
81,227,49036,2,0,L|88:297,1,69.749997871399,8|0,0:0|0:0,0:0:0:0:
172,188,49369,2,0,L|167:115,1,69.749997871399,2|0,0:0|3:0,0:0:0:0:
0,201,49702,2,0,L|10:340,1,139.499995742798,2|0,0:0|3:0,0:0:0:0:
96,384,50202,1,0,0:0:0:0:
168,288,50369,1,8,0:0:0:0:
168,288,50702,2,0,L|237:283,1,69.749997871399,2|0,0:0|0:0,0:0:0:0:
344,208,51036,54,0,P|376:264|349:336,1,139.499995742798,2|0,3:2|0:0,0:0:0:0:
237,282,51536,1,0,0:0:0:0:
237,282,51702,2,0,P|205:222|228:159,1,139.499995742798,8|0,0:0|0:0,0:0:0:0:
311,48,52202,2,0,L|309:118,1,69.749997871399,0|0,3:0|0:0,0:0:0:0:
228,158,52535,1,0,3:0:0:0:
228,158,52702,2,0,L|225:227,1,69.749997871399,0|0,3:0|0:0,0:0:0:0:
315,283,53035,2,0,L|384:285,1,69.749997871399,8|0,0:0|0:0,0:0:0:0:
224,227,53369,2,0,L|128:223,1,69.749997871399,2|0,0:0|0:0,0:0:0:0:
272,359,53702,6,0,B|345:361|345:361|355:366|355:366|435:369,1,155,6|0,3:2|0:0,0:0:0:0:
510,323,54202,1,0,3:2:0:0:
438,211,54369,1,8,3:2:0:0:
438,211,54702,2,0,L|433:289,1,77.5,2|0,3:2|0:0,0:0:0:0:
357,173,55036,2,0,L|362:95,1,77.5,2|0,0:0|3:2,0:0:0:0:
291,237,55369,1,0,3:2:0:0:
291,237,55702,2,0,B|220:235|220:235|210:229|210:229|137:227,1,155,8|2,3:2|2:0,0:0:0:0:
57,273,56202,1,0,0:0:0:0:
79,121,56369,53,2,3:2:0:0:
79,121,56869,1,0,3:0:0:0:
173,39,57036,2,0,L|350:42,2,155,8|0|0,3:2|3:0|0:0,0:0:0:0:
252,208,57869,1,0,3:0:0:0:
252,208,58035,2,0,L|253:99,1,77.5,0|0,3:2|0:0,0:0:0:0:
245,302,58369,2,0,L|323:306,1,77.5,8|0,3:2|0:0,0:0:0:0:
252,130,58702,2,0,L|174:126,1,77.5,2|0,0:2|0:0,0:0:0:0:
155,292,59035,5,2,3:2:0:0:
78,205,59369,1,0,3:0:0:0:
4,284,59702,1,8,3:2:0:0:
76,366,60035,1,0,3:0:0:0:
155,292,60369,53,2,3:2:0:0:
91,245,60536,1,0,3:2:0:0:
198,366,60702,1,0,3:0:0:0:
240,293,60869,1,0,3:0:0:0:
193,216,61035,5,8,3:2:0:0:
76,366,61202,1,0,3:0:0:0:
198,366,61369,1,0,3:2:0:0:
126,179,61536,1,0,3:0:0:0:
240,293,61702,53,6,0:0:0:0:
267,291,62869,6,0,L|427:284,1,155,0|0,3:2|3:0,0:0:0:0:
504,345,63369,1,0,3:2:0:0:
405,180,63536,1,0,0:0:0:0:
406,191,63619,1,0,0:0:0:0:
407,202,63702,53,0,3:2:0:0:
504,270,63869,1,0,3:2:0:0:
409,212,64036,1,0,3:2:0:0:
421,294,64202,1,2,3:0:0:0:
491,148,64369,22,0,P|431:104|342:120,1,155,6|0,3:2|0:0,0:0:0:0:
234,196,64869,1,0,0:0:0:0:
236,40,65036,2,0,P|256:82|270:124,1,77.5,8|0,0:0|0:0,0:0:0:0:
299,251,65369,1,0,0:0:0:0:
299,251,65536,2,0,P|240:226|158:290,1,155,0|0,3:0|0:0,0:0:0:0:
243,382,66036,2,0,P|244:344|238:304,1,77.5,0|0,3:2|0:0,0:0:0:0:
147,139,66369,1,8,0:0:0:0:
268,174,66536,1,0,0:0:0:0:
369,52,66702,1,2,0:0:0:0:
248,87,66869,1,0,3:0:0:0:
356,173,67035,6,0,P|314:101|219:98,1,155,2|0,3:2|0:0,0:0:0:0:
147,139,67536,1,0,0:0:0:0:
51,297,67702,2,0,P|46:252|34:210,1,77.5,8|0,0:0|0:0,0:0:0:0:
105,76,68036,1,0,0:0:0:0:
105,76,68202,2,0,P|111:162|136:247,1,155,0|0,3:0|3:0,0:0:0:0:
243,333,68702,1,0,3:0:0:0:
119,348,68869,1,0,0:0:0:0:
261,253,69036,2,0,P|303:276|322:310,1,77.5,8|0,0:0|0:0,0:0:0:0:
166,269,69369,2,0,P|124:246|105:212,1,77.5,2|0,0:0|0:0,0:0:0:0:
263,104,69702,6,0,B|286:145|263:183|263:183|247:214|262:257,1,155,2|0,3:2|0:0,0:0:0:0:
338,359,70202,1,0,0:0:0:0:
466,271,70369,2,0,P|411:268|372:273,1,77.5,8|0,0:0|0:0,0:0:0:0:
316,155,70702,1,0,0:0:0:0:
316,155,70869,2,0,P|375:180|457:116,1,155,0|0,3:0|0:0,0:0:0:0:
477,16,71369,1,0,3:0:0:0:
377,103,71535,1,0,0:0:0:0:
418,255,71702,2,0,L|438:336,1,77.5,8|0,0:0|0:0,0:0:0:0:
425,172,72035,1,2,0:0:0:0:
313,289,72202,1,0,3:0:0:0:
313,289,72369,38,0,P|282:232|339:144,1,155,2|0,3:2|0:0,0:0:0:0:
425,172,72869,1,0,0:0:0:0:
313,289,73036,2,0,P|258:283|217:274,1,77.5,8|0,0:0|0:0,0:0:0:0:
362,224,73369,1,0,0:0:0:0:
362,224,73536,2,0,P|393:281|336:369,1,155,0|0,3:0|3:0,0:0:0:0:
236,301,74036,2,0,P|277:293|320:288,1,77.5,0|0,3:0|0:0,0:0:0:0:
155,355,74369,2,0,P|112:350|70:342,1,77.5,8|0,0:0|0:0,0:0:0:0:
100,206,74702,1,0,0:0:0:0:
114,204,75036,6,0,B|107:142|81:88|81:88|128:117,1,155,6|0,3:2|0:0,0:0:0:0:
207,172,75536,1,0,0:0:0:0:
86,291,75702,2,0,P|127:283|170:278,1,77.5,8|0,0:0|0:0,0:0:0:0:
300,311,76036,1,0,0:0:0:0:
300,311,76202,2,0,P|291:247|374:184,1,155,0|0,3:0|0:0,0:0:0:0:
435,313,76702,2,0,P|393:292|365:263,1,77.5,0|0,3:0|0:0,0:0:0:0:
413,105,77036,1,8,0:0:0:0:
449,230,77202,1,0,0:0:0:0:
366,185,77369,1,2,0:0:0:0:
493,149,77535,1,0,3:2:0:0:
371,271,77702,6,0,B|333:283|288:266|288:266|247:248|200:265,1,155,2|0,3:2|0:0,0:0:0:0:
71,307,78202,1,0,0:0:0:0:
67,136,78369,2,0,P|83:178|96:234,1,77.5,8|0,0:0|0:0,0:0:0:0:
195,83,78702,1,0,0:0:0:0:
195,83,78869,2,0,B|174:128|167:170|167:170|211:180|256:169,1,155,0|0,3:0|3:0,0:0:0:0:
373,115,79369,2,0,P|329:110|285:119,1,77.5,0|0,3:0|0:0,0:0:0:0:
193,252,79702,1,8,0:0:0:0:
310,273,79869,1,0,0:0:0:0:
178,177,80036,2,0,P|186:223|198:268,1,77.5,2|0,0:0|0:0,0:0:0:0:
364,332,80369,38,0,P|390:266|328:194,1,155,2|0,3:2|0:0,0:0:0:0:
193,252,80869,1,0,0:0:0:0:
277,103,81036,2,0,P|272:152|258:201,1,77.5,8|0,0:0|0:0,0:0:0:0:
348,39,81369,1,0,0:0:0:0:
348,39,81536,2,0,P|365:105|362:215,1,155,0|0,3:0|0:0,0:0:0:0:
250,300,82036,1,0,3:0:0:0:
400,260,82202,1,0,0:0:0:0:
222,217,82369,2,0,P|262:221|303:228,1,77.5,8|0,0:0|0:0,0:0:0:0:
427,344,82702,2,0,P|387:340|346:333,1,77.5,2|0,0:0|3:0,0:0:0:0:
222,217,83036,5,6,3:2:0:0:
256,192,83202,12,0,85702,0:0:0:0:
