osu file format v14

[General]
AudioFilename: test number 1.mp3
AudioLeadIn: 0
PreviewTime: 64036
Countdown: 0
SampleSet: Soft
StackLeniency: 0.7
Mode: 0
LetterboxInBreaks: 0
WidescreenStoryboard: 1

[Editor]
Bookmarks: 21703,32370,43036,53703,61703,64370
DistanceSpacing: 1.1
BeatDivisor: 4
GridSize: 4
TimelineZoom: 1.5

[Metadata]
Title:Pipo Password
TitleUnicode:Pipo Password
Artist:TeddyLoid feat. Bonjour Suzuki
ArtistUnicode:TeddyLoid feat. ボンジュール鈴木
Creator:Renumi
Version:Normal
Source:宇宙パトロールルル子
Tags:uchuu patororu ruruco space patrol luluco ed ending tv size renigar ora
BeatmapID:1346905
BeatmapSetID:625336

[Difficulty]
HPDrainRate:3
CircleSize:3
OverallDifficulty:4
ApproachRate:5
SliderMultiplier:1.8
SliderTickRate:1

[Events]
//Background and Video events
0,0,"maybe.jpg",0,0
Video,0,"music.avi"
//Break Periods
//Storyboard Layer 0 (Background)
//Storyboard Layer 1 (Fail)
//Storyboard Layer 2 (Pass)
//Storyboard Layer 3 (Foreground)
//Storyboard Sound Samples

[TimingPoints]
369,666.666666666667,4,2,1,80,1,0
11035,-100,4,2,1,80,0,1
11369,-100,4,2,1,80,0,0
21702,-100,4,2,4,60,0,0
22035,-100,4,2,1,60,0,0
53702,-100,4,2,5,60,0,0
54035,-100,4,2,3,60,0,0
61702,-100,4,2,1,60,0,0
64369,-100,4,2,1,80,0,1
74702,-100,4,2,1,80,0,0
75035,-100,4,2,1,80,0,1
83035,-100,4,2,4,60,0,0

[Colours]
Combo1 : 128,128,128
Combo2 : 255,121,121
Combo3 : 255,151,255
Combo4 : 151,151,255
Combo5 : 192,192,192

[HitObjects]
14,69,9535,6,0,L|118:57,1,90,0|2,3:2|3:2,0:0:0:0:
143,87,10035,2,0,L|247:75,1,90,0|0,3:2|3:2,0:0:0:0:
269,43,10535,2,0,L|292:159,1,90,0|2,3:2|3:0,0:0:0:0:
274,179,11035,6,0,P|334:155|426:218,1,180,6|8,3:2|0:0,0:0:0:0:
336,254,12035,1,0,0:0:0:0:
258,315,12369,2,0,L|154:319,1,90,2|0,0:0|3:2,0:0:0:0:
98,247,13035,2,0,L|94:143,1,90,8|0,0:0|0:0,0:0:0:0:
63,118,13535,1,0,3:0:0:0:
63,118,13702,6,0,L|243:110,1,180,2|8,3:2|0:0,0:0:0:0:
304,32,14702,1,0,0:0:0:0:
366,107,15035,2,0,L|370:196,1,90,2|0,0:0|3:0,0:0:0:0:
417,283,15702,2,0,L|328:286,1,90,8|0,0:2|0:0,0:0:0:0:
259,368,16369,38,0,P|221:289|259:205,1,180,2|8,3:2|0:0,0:0:0:0:
327,286,17369,1,2,0:0:0:0:
370,196,17702,2,0,L|366:107,1,90,0|0,0:0|3:0,0:0:0:0:
404,16,18369,2,0,L|315:20,1,90,8|0,0:0|0:0,0:0:0:0:
288,62,18869,1,0,3:0:0:0:
288,62,19035,6,0,B|152:64|152:64|180:104,1,180,2|8,3:2|0:0,0:0:0:0:
256,164,20036,1,2,0:0:0:0:
184,228,20369,2,0,L|95:232,1,90,0|0,0:0|3:0,0:0:0:0:
45,239,20869,1,0,0:0:0:0:
45,239,21036,2,0,L|51:329,1,90,8|0,0:0|0:0,0:0:0:0:
142,367,21702,38,0,B|234:363|234:363|242:367|242:367|326:363,1,180,6|2,0:0|0:0,0:0:0:0:
360,272,22702,1,0,0:0:0:0:
417,353,23036,2,0,L|517:349,2,90,2|0|2,0:0|0:0|0:0,0:0:0:0:
417,353,24369,54,0,B|455:271|455:271|420:188,1,180,0|2,3:0|0:0,0:0:0:0:
359,266,25369,1,0,0:0:0:0:
277,321,25702,2,0,L|173:324,1,90,2|0,0:0|0:0,0:0:0:0:
97,365,26369,1,2,0:0:0:0:
97,365,27036,6,0,B|93:282|93:282|99:269|99:269|96:172,1,180,0|2,3:0|0:0,0:0:0:0:
148,102,28035,1,0,0:0:0:0:
207,181,28369,2,0,L|311:178,1,90,2|0,0:0|0:0,0:0:0:0:
383,129,29036,2,0,L|386:233,1,90,2|0,0:0|0:0,0:0:0:0:
471,277,29702,53,6,3:2:0:0:
471,277,30369,2,0,L|476:375,1,90
384,329,31035,2,2,B|316:291|255:332|255:332|198:373|113:327,1,270,2|0,0:0|0:0,0:0:0:0:
44,271,32369,6,0,L|39:181,1,90,0|2,3:0|0:0,0:0:0:0:
103,104,33036,1,0,0:0:0:0:
165,169,33369,1,2,0:0:0:0:
227,92,33702,2,0,P|307:55|382:95,1,180,2|2,0:0|0:0,0:0:0:0:
461,155,34702,1,0,0:0:0:0:
378,210,35036,54,0,L|376:299,1,90,0|2,3:0|0:0,0:0:0:0:
308,371,35702,1,0,0:0:0:0:
246,293,36035,1,2,0:0:0:0:
174,361,36369,2,0,L|85:359,1,90,2|0,0:0|0:0,0:0:0:0:
8,295,37035,2,0,P|-22:214|19:129,1,180,2|0,0:0|3:0,0:0:0:0:
94,73,38036,6,0,L|288:79,2,180,2|0|0,0:0|0:0|3:0,0:0:0:0:
131,164,39702,2,0,L|221:167,1,90,2|0,0:0|0:0,0:0:0:0:
300,225,40369,1,0,3:0:0:0:
300,225,41702,2,2,P|376:263|475:218,1,180,2|8,0:0|0:0,0:0:0:0:
476,35,43036,54,0,P|399:-7|317:21,1,180,6|8,3:2|0:0,0:0:0:0:
266,106,44036,1,2,0:0:0:0:
341,170,44369,2,0,L|430:175,1,90,2|0,0:0|3:0,0:0:0:0:
502,244,45036,2,0,L|497:333,1,90,8|2,0:0|0:0,0:0:0:0:
403,366,45702,5,2,3:2:0:0:
349,283,46035,1,0,0:0:0:0:
287,360,46369,2,0,L|152:353,2,135,8|0|0,0:0|3:0|3:0,0:0:0:0:
266,263,47702,2,0,L|177:259,1,90,8|2,0:0|0:0,0:0:0:0:
79,283,48369,54,0,P|56:209|115:128,1,180,2|8,3:2|0:0,0:0:0:0:
186,65,49369,1,2,0:0:0:0:
248,141,49702,2,0,L|337:145,1,90,2|0,0:0|3:0,0:0:0:0:
429,106,50369,2,0,L|424:195,1,90,8|2,0:0|0:0,0:0:0:0:
490,269,51035,5,2,3:2:0:0:
411,329,51369,1,0,0:0:0:0:
343,257,51702,2,0,B|194:252,2,135,8|0|0,0:0|3:0|3:0,0:0:0:0:
423,195,53036,1,8,0:0:0:0:
352,126,53369,1,2,0:0:0:0:
433,69,53702,54,0,P|350:27|273:66,1,180,6|8,3:2|3:2,0:0:0:0:
219,142,54702,1,2,3:2:0:0:
153,67,55036,2,0,L|156:18,2,45,2|0|0,0:0|3:2|3:2,0:0:0:0:
82,136,55702,1,8,3:2:0:0:
146,211,56036,1,2,0:0:0:0:
63,265,56369,6,0,P|126:308|232:262,1,180,2|8,3:2|3:2,0:0:0:0:
295,215,57369,1,0,3:0:0:0:
360,289,57702,2,0,L|357:334,2,45,0|0|0,0:0|3:0|3:2,0:0:0:0:
434,223,58369,1,8,3:2:0:0:
367,149,58702,1,2,0:0:0:0:
295,215,59036,54,0,L|195:210,1,90,2|0,3:2|3:0,0:0:0:0:
111,242,59702,2,0,L|116:152,1,90,8|0,3:2|3:0,0:0:0:0:
172,70,60369,2,0,B|263:74|263:74|270:79|270:79|350:83,1,180,2|8,3:2|3:2,0:0:0:0:
444,114,61369,1,0,3:2:0:0:
374,183,61702,5,6,0:0:0:0:
374,183,62869,54,0,L|370:279,1,90,0|0,3:2|3:0,0:0:0:0:
382,320,63369,2,0,L|290:312,1,90,0|0,3:2|3:2,0:0:0:0:
267,269,63869,2,0,L|177:261,1,90,0|2,3:2|3:0,0:0:0:0:
146,300,64369,22,0,L|154:107,1,180,6|8,3:2|0:0,0:0:0:0:
219,45,65369,1,0,0:0:0:0:
280,123,65702,2,0,L|376:127,1,90,2|0,0:0|3:2,0:0:0:0:
441,54,66369,1,8,0:0:0:0:
506,128,66702,1,2,0:0:0:0:
436,199,67036,6,0,B|432:279|432:279|437:297|437:297|433:386,1,180,2|8,0:0|0:0,0:0:0:0:
343,335,68036,1,0,0:0:0:0:
343,335,68202,2,0,B|269:331|269:331|260:336|260:336|202:332,1,135,0|0,3:0|3:0,0:0:0:0:
134,267,69036,2,0,L|138:176,1,90,8|2,0:0|0:0,0:0:0:0:
210,109,69702,6,0,B|292:112|292:112|300:107|300:107|390:111,1,180,2|8,3:2|0:0,0:0:0:0:
462,45,70702,1,2,0:0:0:0:
506,128,71036,2,0,L|502:217,1,90,0|0,0:0|3:0,0:0:0:0:
430,286,71702,1,8,0:0:0:0:
383,198,72036,1,2,0:0:0:0:
306,265,72369,38,0,B|265:243|265:243|127:268,1,180,2|8,0:0|0:0,0:0:0:0:
62,336,73369,1,0,0:0:0:0:
62,336,73536,2,0,B|64:273|64:273|69:263|69:263|71:174,1,135,0|0,3:0|3:0,0:0:0:0:
32,110,74369,2,0,L|122:114,1,90,8|0,0:0|0:0,0:0:0:0:
156,84,74869,1,0,0:0:0:0:
156,84,75035,6,0,L|246:88,1,90,6|0,3:2|0:0,0:0:0:0:
313,15,75702,2,0,P|265:87|307:179,1,180,8|2,0:0|0:0,0:0:0:0:
363,99,76702,1,0,3:0:0:0:
450,52,77036,2,0,P|461:101|451:144,1,90,8|0,0:0|0:0,0:0:0:0:
373,198,77702,6,0,B|283:202|283:202|272:196|272:196|185:199,1,180,2|8,3:2|0:0,3:0:0:0:
112,144,78702,1,0,0:0:0:0:
112,144,78869,2,0,P|89:206|126:271,1,135,0|0,3:0|3:0,0:0:0:0:
203,314,79702,1,8,0:0:0:0:
276,246,80036,1,2,0:0:0:0:
340,320,80369,38,0,P|373:239|330:162,1,180,2|8,3:2|0:0,0:0:0:0:
233,139,81369,1,2,0:0:0:0:
233,139,81535,2,0,P|268:78|344:64,1,135,0|0,3:0|3:0,0:0:0:0:
416,102,82369,2,0,P|436:144|432:188,1,90,8|2,0:0|0:0,0:0:0:0:
331,163,83036,5,6,3:2:0:0:
256,192,83202,12,0,85702,0:0:0:0:
