osu file format v14

[General]
AudioFilename: ME!ME!ME! feat. daoko.mp3
AudioLeadIn: 0
PreviewTime: 22000
Countdown: 0
SampleSet: Soft
StackLeniency: 0.7
Mode: 0
LetterboxInBreaks: 0
WidescreenStoryboard: 0

[Editor]
DistanceSpacing: 0.9
BeatDivisor: 4
GridSize: 4
TimelineZoom: 1

[Metadata]
Title:ME!ME!ME! feat. daoko_pt.1
TitleUnicode:ME!ME!ME! feat. daoko_pt.1
Artist:TeddyLoid
ArtistUnicode:TeddyLoid
Creator:alacat
Version:Normal
Source:
Tags:日本アニメ(ーター)見本市 Nihon Animator Mihonichi 井関修一 吉崎響 Iseki Shuichi Yoshizaki Hibiki スタジオカラー short version Nippon
BeatmapID:669142
BeatmapSetID:298016

[Difficulty]
HPDrainRate:3.5
CircleSize:3
OverallDifficulty:3.5
ApproachRate:4
SliderMultiplier:1.1
SliderTickRate:1

[Events]
//Background and Video events
0,0,"BG.png",0,0
//Break Periods
//Storyboard Layer 0 (Background)
//Storyboard Layer 1 (Fail)
//Storyboard Layer 2 (Pass)
//Storyboard Layer 3 (Foreground)
//Storyboard Sound Samples

[TimingPoints]
880,480,4,2,2,60,1,0
12400,-100,4,2,1,70,0,0
14320,-100,4,2,1,60,0,0
17440,-100,4,2,2,50,0,0
17680,-100,4,2,1,60,0,0
22000,-100,4,2,1,70,0,0
25120,-100,4,2,2,60,0,0
25240,-100,4,2,1,70,0,0
28960,-100,4,2,2,70,0,0
29200,-100,4,2,1,70,0,0
32800,-100,4,2,2,60,0,0
32920,-100,4,2,1,70,0,0
50800,-100,4,2,1,50,0,0
51280,-100,4,2,2,50,0,0
52720,-100,4,2,2,60,0,0
58480,-100,4,2,2,50,0,0
60400,-100,4,2,1,70,0,0
75760,-100,4,2,1,80,0,1
90640,-100,4,2,2,40,0,0

[Colours]
Combo1 : 255,255,128
Combo2 : 186,117,255
Combo3 : 128,255,255
Combo4 : 255,164,255

[HitObjects]
140,200,6640,6,0,L|160:312,1,110,6|0,0:0|0:0,0:0:0:0:
188,348,7360,2,0,P|272:368|344:340,1,165,2|2,0:0|0:0,0:0:0:0:
372,248,8560,1,2,0:0:0:0:
304,176,9040,1,0,0:0:0:0:
304,176,9280,2,0,L|140:200,1,165,2|0,0:0|3:0,0:0:0:0:
52,156,10480,6,0,P|40:100|52:48,1,110,2|0,0:0|0:0,0:0:0:0:
92,20,11200,2,0,L|256:48,1,165,2|2,0:0|0:0,0:0:0:0:
348,28,12400,2,0,B|386:52|432:52|432:52|416:92|432:124|432:124|416:152|412:184,1,220,8|8,0:0|0:0,0:0:0:0:
444,272,13840,1,4,0:3:0:0:
372,340,14320,6,0,L|316:352,2,55,6|0|8,0:0|0:0|0:0,0:0:0:0:
444,272,15280,2,0,P|456:216|456:164,1,110,2|8,0:0|0:0,0:0:0:0:
404,80,16240,1,2,0:0:0:0:
312,112,16720,1,8,0:0:0:0:
256,32,17200,1,2,0:0:0:0:
216,64,17440,2,0,L|160:64,1,55,8|8,0:0|0:0,0:0:0:0:
84,128,18160,6,0,L|28:128,2,55,6|0|8,0:0|0:0|0:0,0:0:0:0:
160,192,19120,1,2,0:0:0:0:
120,284,19600,1,8,0:0:0:0:
192,352,20080,1,2,0:0:0:0:
192,352,20320,2,0,L|304:352,1,110,2|0,0:0|0:0,0:0:0:0:
348,332,21040,2,0,L|360:276,1,55,8|4,0:0|0:3,0:0:0:0:
332,236,21520,2,0,L|320:180,1,55,8|0,0:0|0:0,0:0:0:0:
292,144,22000,6,0,L|180:144,2,110,4|8|2,0:0|0:0|0:0,0:0:0:0:
348,60,23440,2,0,L|404:60,1,55,8|0,0:0|0:0,0:0:0:0:
440,92,23920,2,0,P|464:144|464:200,1,110,2|8,0:0|0:0,0:0:0:0:
420,284,24880,2,0,L|432:340,2,55,2|8|8,0:0|0:0|0:0,0:0:0:0:
380,256,25600,1,0,0:0:0:0:
332,268,25840,6,0,P|272:268|224:248,1,110,2|8,0:0|0:0,0:0:0:0:
180,164,26800,2,0,L|180:108,2,55,2|0|8,0:0|0:0|0:0,0:0:0:0:
140,192,27520,1,0,0:0:0:0:
112,232,27760,2,0,P|112:288|132:340,1,110,2|8,0:0|0:0,0:0:0:0:
176,360,28480,2,0,P|224:336|280:332,1,110,2|8,0:0|0:0,0:0:0:0:
324,356,29200,1,0,0:0:0:0:
348,260,29680,5,6,0:0:0:0:
420,328,30160,1,8,0:0:0:0:
500,268,30640,1,2,0:0:0:0:
456,180,31120,2,0,L|456:120,1,55,8|0,0:0|0:0,0:0:0:0:
432,80,31600,2,0,P|380:64|324:64,1,110,2|8,0:0|0:0,0:0:0:0:
276,148,32560,2,0,L|288:204,2,55,2|8|8,0:0|0:0|0:0,0:0:0:0:
236,120,33280,1,0,0:0:0:0:
188,104,33520,6,0,P|128:104|80:124,1,110,2|8,0:0|0:0,0:0:0:0:
24,204,34480,2,0,L|44:312,1,110,2|8,0:0|0:0,0:0:0:0:
76,348,35200,1,0,0:0:0:0:
120,328,35440,2,0,P|172:324|232:340,1,110,2|8,0:0|0:0,0:0:0:0:
268,368,36160,2,0,P|324:368|372:344,1,110
392,300,36880,1,8,0:0:0:0:
488,272,37360,6,0,P|492:216|476:164,1,110,6|8,0:0|0:0,0:0:0:0:
400,104,38320,2,0,L|288:120,1,110,2|8,0:0|0:0,0:0:0:0:
248,144,39040,1,0,0:0:0:0:
220,184,39280,2,0,P|200:244|200:292,2,110,2|8|2,0:0|0:0|0:0,0:0:0:0:
156,108,40720,2,0,L|180:56,1,55,8|0,0:0|0:0,0:0:0:0:
220,32,41200,6,0,P|272:24|328:32,1,110,2|8,0:0|0:0,0:0:0:0:
364,68,41920,1,0,0:0:0:0:
384,112,42160,2,0,L|368:224,1,110,2|8,0:0|0:0,0:0:0:0:
444,288,43120,1,2,0:0:0:0:
348,320,43600,2,0,L|296:300,1,55,8|0,0:0|0:0,0:0:0:0:
276,256,44080,2,0,L|164:276,1,110,2|8,0:0|0:0,0:0:0:0:
120,260,44800,1,0,0:0:0:0:
92,220,45040,6,0,P|84:164|96:112,1,110,2|8,0:0|0:0,0:0:0:0:
128,76,45760,1,0,0:0:0:0:
176,68,46000,2,0,L|284:84,1,110,2|8,0:0|0:0,0:0:0:0:
372,32,46960,2,0,P|424:48|468:84,1,110,2|8,0:0|0:0,0:0:0:0:
480,132,47680,2,0,L|464:188,1,55,0|2,0:0|0:0,0:0:0:0:
368,160,48400,1,8,0:0:0:0:
304,236,48880,6,0,B|288:296|328:296|312:344,2,110,2|8|2,0:0|0:0|0:0,0:0:0:0:
256,148,50320,2,0,L|272:92,2,55,8|0|2,0:0|0:0|0:0,0:0:0:0:
168,192,51280,1,2,0:0:0:0:
80,148,51760,1,0,0:0:0:0:
16,224,52240,2,0,L|0:280,1,55,0|2,0:0|0:0,0:0:0:0:
256,192,52720,12,2,58480,0:0:0:0:
328,260,60400,6,0,B|380:276|380:276|436:268,2,110,6|8|2,0:0|0:0|0:0,0:0:0:0:
288,168,61840,1,8,0:0:0:0:
208,112,62320,2,0,B|152:120|152:120|108:156,1,110,2|8,0:0|0:0,0:0:0:0:
92,252,63280,1,2,0:0:0:0:
164,320,63760,2,0,L|220:312,1,55,8|0,0:0|0:0,0:0:0:0:
260,284,64240,6,0,B|284:236|284:236|276:180,1,110,2|8,0:0|0:0,0:0:0:0:
360,124,65200,2,0,L|380:236,1,110,2|8,0:0|0:0,0:0:0:0:
468,276,66160,2,0,L|448:332,1,55,2|0,0:0|0:0,0:0:0:0:
408,356,66640,2,0,L|352:344,1,55,8|0,0:0|0:0,0:0:0:0:
316,316,67120,2,0,L|208:332,1,110,2|8,0:0|0:0,0:0:0:0:
160,348,67840,1,0,0:0:0:0:
124,312,68080,6,0,B|108:260|108:260|116:204,1,110,6|8,0:0|0:0,0:0:0:0:
172,124,69040,1,2,0:0:0:0:
260,168,69520,2,0,L|316:156,1,55,8|0,0:0|0:0,0:0:0:0:
360,172,70000,2,0,B|393:213|393:213|401:269,1,110,2|8,0:0|0:0,0:0:0:0:
352,356,70960,1,2,0:0:0:0:
260,316,71440,2,0,L|204:308,1,55,8|0,0:0|0:0,0:0:0:0:
168,276,71920,6,0,B|144:228|144:228|152:172,1,110,2|8,0:0|0:0,0:0:0:0:
252,180,72880,2,0,L|236:72,2,110,2|8|2,0:0|0:0|0:0,0:0:0:0:
300,268,74320,1,8,0:0:0:0:
400,272,74800,2,0,P|448:244|476:196,1,110,2|8,0:0|0:0,0:0:0:0:
428,112,75760,5,6,0:0:0:0:
340,156,76240,1,8,0:0:0:0:
284,76,76720,2,0,L|224:88,1,55,2|0,0:0|0:0,0:0:0:0:
204,128,77200,2,0,L|144:140,1,55,8|0,0:0|0:0,0:0:0:0:
116,172,77680,2,0,P|96:222|95:277,1,110,2|8,0:0|0:0,0:0:0:0:
156,356,78640,2,0,L|212:348,1,55,2|0,0:0|0:0,0:0:0:0:
248,316,79120,2,0,L|240:261,1,55,8|0,0:0|0:0,0:0:0:0:
256,216,79600,5,2,0:0:0:0:
348,176,80080,1,8,0:0:0:0:
400,260,80560,2,0,L|456:252,1,55,2|0,0:0|0:0,0:0:0:0:
492,284,81040,2,0,L|480:344,1,55,8|0,0:0|0:0,0:0:0:0:
440,364,81520,2,0,B|384:364|384:364|340:332,1,110,2|8,0:0|0:0,0:0:0:0:
304,240,82480,2,0,L|304:184,1,55,2|0,0:0|0:0,0:0:0:0:
268,152,82960,2,0,L|268:96,2,55,8|0|2,0:0|0:0|0:0,0:0:0:0:
208,232,83920,6,0,L|152:244,1,55,8|0,0:0|0:0,0:0:0:0:
120,208,84400,2,0,L|132:152,1,55,2|0,0:0|0:0,0:0:0:0:
104,116,84880,2,0,L|116:60,2,55,8|0|2,0:0|0:0|0:0,0:0:0:0:
24,172,85840,2,0,L|8:232,1,55,8|0,0:0|0:0,0:0:0:0:
24,272,86320,2,0,L|40:332,1,55,2|0,0:0|0:0,0:0:0:0:
80,348,86800,2,0,L|136:348,1,55,8|0,0:0|0:0,0:0:0:0:
180,328,87280,6,0,P|200:276|200:220,1,110,2|8,0:0|0:0,0:0:0:0:
180,176,88000,1,0,0:0:0:0:
148,136,88240,2,0,L|160:76,1,55,2|0,0:0|0:0,0:0:0:0:
192,44,88720,2,0,L|248:52,1,55,8|0,0:0|0:0,0:0:0:0:
284,88,89200,1,2,0:0:0:0:
316,180,89680,2,0,P|372:180|420:156,1,110,8|2,0:0|0:0,0:0:0:0:
440,112,90400,1,0,0:0:0:0:
476,144,90640,6,0,L|492:232,1,82.5,2|0,0:0|0:0,0:0:0:0:
