osu file format v14

[General]
AudioFilename: ME!ME!ME! feat. daoko.mp3
AudioLeadIn: 0
PreviewTime: 22000
Countdown: 0
SampleSet: Soft
StackLeniency: 0.7
Mode: 0
LetterboxInBreaks: 0
WidescreenStoryboard: 0

[Editor]
DistanceSpacing: 1.1
BeatDivisor: 4
GridSize: 4
TimelineZoom: 1

[Metadata]
Title:ME!ME!ME! feat. daoko_pt.1
TitleUnicode:ME!ME!ME! feat. daoko_pt.1
Artist:TeddyLoid
ArtistUnicode:TeddyLoid
Creator:alacat
Version:Hard
Source:
Tags:日本アニメ(ーター)見本市 Nihon Animator Mihonichi 井関修一 吉崎響 Iseki Shuichi Yoshizaki Hibiki スタジオカラー short version Nippon
BeatmapID:669141
BeatmapSetID:298016

[Difficulty]
HPDrainRate:5.5
CircleSize:4
OverallDifficulty:5.5
ApproachRate:7
SliderMultiplier:1.5
SliderTickRate:1

[Events]
//Background and Video events
0,0,"BG.png",0,0
//Break Periods
//Storyboard Layer 0 (Background)
//Storyboard Layer 1 (Fail)
//Storyboard Layer 2 (Pass)
//Storyboard Layer 3 (Foreground)
//Storyboard Sound Samples

[TimingPoints]
880,480,4,2,2,60,1,0
12400,-100,4,2,1,70,0,0
13120,-100,4,2,2,70,0,0
13360,-100,4,2,1,70,0,0
14320,-100,4,2,1,60,0,0
17440,-100,4,2,2,50,0,0
17680,-100,4,2,1,60,0,0
22000,-100,4,2,1,70,0,0
25120,-100,4,2,2,60,0,0
25240,-100,4,2,1,70,0,0
28960,-100,4,2,2,60,0,0
29200,-100,4,2,1,70,0,0
32800,-100,4,2,2,60,0,0
32920,-100,4,2,1,70,0,0
50800,-100,4,2,1,50,0,0
52240,-100,4,2,2,50,0,0
52720,-100,4,2,2,60,0,0
58480,-100,4,2,2,50,0,0
59440,-100,4,2,2,60,0,0
60400,-100,4,2,1,70,0,0
75760,-100,4,2,1,80,0,1
90640,-100,4,2,2,40,0,0

[Colours]
Combo1 : 255,255,128
Combo2 : 186,117,255
Combo3 : 128,255,255
Combo4 : 255,164,255

[HitObjects]
72,184,6640,6,0,P|144:168|216:192,1,150,6|0,0:0|0:0,0:0:0:0:
272,252,7360,1,2,0:0:0:0:
180,346,7600,2,0,L|191:271,1,75,0|2,3:0|0:0,0:0:0:0:
296,172,8080,2,0,L|284:97,1,75,2|0,0:0|0:0,0:0:0:0:
228,36,8560,6,0,P|148:28|88:64,1,150,2|0,0:0|0:0,0:0:0:0:
64,140,9280,1,2,0:0:0:0:
144,241,9520,2,0,P|147:204|140:168,1,75,0|2,3:0|0:0,0:0:0:0:
204,116,10000,1,0,3:0:0:0:
204,116,10120,2,0,L|320:128,1,112.5,2|2,0:0|0:0,0:0:0:0:
384,80,10720,6,0,L|460:104,1,75,0|0,0:0|0:0,0:0:0:0:
508,164,11200,1,2,0:0:0:0:
420,252,11440,2,0,P|416:215|428:180,1,75,0|2,3:0|0:0,0:0:0:0:
384,80,11920,2,0,L|392:44,2,37.5,2|0|0,0:0|0:0|0:0,0:0:0:0:
328,140,12400,5,8,0:0:0:0:
328,140,12520,1,8,0:0:0:0:
252,108,12760,2,0,L|264:32,2,75,4|4|0,0:3|0:3|0:0,0:0:0:0:
220,136,13360,2,0,L|232:184,3,37.5,8|8|8|8,0:0|0:0|0:0|0:0,0:0:0:0:
224,212,13840,2,0,L|212:260,3,37.5,4|4|4|4,0:3|0:3|0:3|0:3,0:0:0:0:
192,284,14320,6,0,P|152:296|116:296,1,75,6|0,0:0|0:0,0:0:0:0:
248,352,14800,2,0,P|288:364|324:364,1,75,8|0,0:0|0:0,0:0:0:0:
380,308,15280,2,0,L|368:264,3,37.5,2|0|0|0,0:0|0:0|0:0|0:0,0:0:0:0:
360,232,15760,2,0,P|400:240|440:240,1,75,8|0,0:0|0:0,0:0:0:0:
484,172,16240,5,2,0:0:0:0:
424,116,16480,1,0,0:0:0:0:
424,116,16600,1,0,0:0:0:0:
424,116,16720,2,0,L|432:40,2,75,8|0|2,0:0|0:0|0:0,0:0:0:0:
348,148,17440,1,8,0:0:0:0:
268,29,17680,2,0,L|276:104,1,75,8|0,0:0|0:0,0:0:0:0:
224,168,18160,5,6,0:0:0:0:
292,216,18400,1,0,0:0:0:0:
152,208,18640,1,8,0:0:0:0:
84,160,18880,1,0,0:0:0:0:
116,84,19120,2,0,L|128:44,3,37.5,2|0|0|0,0:0|0:0|0:0|0:0,0:0:0:0:
140,8,19600,2,0,P|180:20|216:20,1,75,8|0,0:0|0:0,0:0:0:0:
356,56,20080,5,2,0:0:0:0:
276,76,20320,2,0,L|268:116,2,37.5,0|0|0,0:0|0:0|0:0,0:0:0:0:
192,116,20800,2,0,L|204:196,1,75,0|8,0:0|0:0,0:0:0:0:
276,248,21280,2,0,L|283:212,2,37.5,4|4|8,0:3|0:3|0:0,0:0:0:0:
300,344,21760,5,0,0:0:0:0:
300,344,21880,1,0,0:0:0:0:
300,344,22000,2,0,P|340:352|376:352,1,75,4|0,0:0|0:0,0:0:0:0:
472,268,22480,2,0,P|435:275|397:276,1,75,8|0,0:0|0:0,0:0:0:0:
352,208,22960,1,2,0:0:0:0:
400,144,23200,1,0,0:0:0:0:
472,184,23440,1,8,0:0:0:0:
352,208,23680,6,0,L|276:224,1,75,0|2,0:0|0:0,0:0:0:0:
176,275,24160,2,0,L|200:204,1,75,0|8,0:0|0:0,0:0:0:0:
168,128,24640,1,0,0:0:0:0:
112,188,24880,1,2,0:0:0:0:
256,136,25120,2,0,P|264:96|264:60,1,75,8|8,0:0|0:0,0:0:0:0:
188,24,25600,6,0,L|112:36,2,75,0|2|0,0:0|0:0|0:0,0:0:0:0:
256,136,26320,1,8,0:0:0:0:
324,92,26560,2,0,P|400:92|464:136,1,150,0|0,0:0|0:0,0:0:0:0:
432,208,27280,1,8,0:0:0:0:
492,264,27520,1,0,0:0:0:0:
352,244,27760,6,0,L|276:264,1,75,2|0,0:0|0:0,0:0:0:0:
155,219,28240,2,0,L|228:200,1,75,8|0,0:0|0:0,0:0:0:0:
268,128,28720,1,2,0:0:0:0:
216,64,28960,2,0,L|176:76,5,37.5,8|0|8|0|0|0,0:0|0:0|0:0|0:0|0:0|0:0,0:0:0:0:
140,60,29680,6,0,P|124:100|124:132,1,75,6|0,0:0|0:0,0:0:0:0:
184,244,30160,2,0,P|198:209|200:172,1,75,8|0,0:0|0:0,0:0:0:0:
268,128,30640,1,2,0:0:0:0:
216,64,30880,2,0,L|208:24,2,37.5,0|0|8,0:0|0:0|0:0,0:0:0:0:
268,128,31360,6,0,L|344:112,1,75,0|2,0:0|0:0,0:0:0:0:
424,104,31840,1,0,0:0:0:0:
472,172,32080,1,8,0:0:0:0:
404,292,32320,2,0,P|388:258|388:221,1,75,0|2,0:0|0:0,0:0:0:0:
316,160,32800,2,0,L|240:176,2,75,8|8|0,0:0|0:0|0:0,0:0:0:0:
332,80,33520,5,2,0:0:0:0:
481,92,33760,2,0,L|408:108,1,75,0|8,0:0|0:0,0:0:0:0:
316,160,34240,2,0,B|300:236|336:236|320:308,1,150,0|0,0:0|0:0,0:0:0:0:
231,349,34960,2,0,P|241:313|244:276,1,75,8|0,0:0|0:0,0:0:0:0:
208,204,35440,5,2,0:0:0:0:
85,260,35680,2,0,L|160:272,2,75,0|8|0,0:0|0:0|0:0,0:0:0:0:
16,216,36400,1,2,0:0:0:0:
16,216,36520,1,0,0:0:0:0:
16,216,36640,2,0,P|9:179|11:141,1,75,0|8,0:0|0:0,0:0:0:0:
84,104,37120,1,0,0:0:0:0:
1,39,37360,6,0,L|76:28,1,75,6|0,0:0|0:0,0:0:0:0:
192,68,37840,2,0,L|266:56,1,75,8|0,0:0|0:0,0:0:0:0:
344,80,38320,1,2,0:0:0:0:
296,208,38560,2,0,P|285:173|285:136,1,75,0|8,0:0|0:0,0:0:0:0:
344,80,39040,1,0,0:0:0:0:
296,208,39280,6,0,L|220:200,1,75,2|0,0:0|0:0,0:0:0:0:
128,136,39760,2,0,L|52:144,1,75,8|0,0:0|0:0,0:0:0:0:
32,224,40240,1,2,0:0:0:0:
76,368,40480,1,0,0:0:0:0:
92,288,40720,2,0,P|52:292|20:308,1,75,8|0,0:0|0:0,0:0:0:0:
156,348,41200,6,0,P|196:344|228:328,1,75,2|0,0:0|0:0,0:0:0:0:
280,264,41680,1,8,0:0:0:0:
256,184,41920,1,0,0:0:0:0:
256,184,42040,1,0,0:0:0:0:
256,184,42160,2,0,L|272:108,1,75,2|0,0:0|0:0,0:0:0:0:
244,32,42640,1,8,0:0:0:0:
348,160,42880,6,0,P|417:159|462:91,1,150,0|0,0:0|0:0,0:0:0:0:
416,28,43600,1,8,0:0:0:0:
348,76,43840,1,0,0:0:0:0:
348,76,43960,1,0,0:0:0:0:
348,76,44080,1,2,0:0:0:0:
272,48,44320,2,0,P|232:40|196:40,2,75,0|8|0,0:0|0:0|0:0,0:0:0:0:
348,160,45040,6,0,L|356:236,1,75,2|0,0:0|0:0,0:0:0:0:
424,346,45520,2,0,L|432:272,1,75,8|0,0:0|0:0,0:0:0:0:
488,212,46000,1,2,0:0:0:0:
348,160,46240,2,0,L|268:168,1,75,0|8,0:0|0:0,0:0:0:0:
208,216,46720,1,0,0:0:0:0:
140,168,46960,6,0,P|132:128|132:92,2,75,2|0|8,0:0|0:0|0:0,0:0:0:0:
128,248,47680,1,0,0:0:0:0:
128,248,47800,1,0,0:0:0:0:
128,248,47920,2,0,L|116:324,1,75,2|0,0:0|0:0,0:0:0:0:
44,364,48400,2,0,L|32:289,1,75,8|0,0:0|0:0,0:0:0:0:
76,168,48880,6,0,P|140:152|208:196,1,150,2|8,0:0|0:0,0:0:0:0:
248,268,49600,2,0,P|312:284|380:240,1,150
396,160,50320,1,8,0:0:0:0:
340,100,50560,1,0,0:0:0:0:
380,28,50800,5,2,0:0:0:0:
280,316,52240,2,0,L|320:332,3,37.5,2|0|2|0,0:0|0:0|0:0|0:0,0:0:0:0:
356,316,52720,6,0,P|412:308|468:308,2,112.5,4|2|2,0:0|0:0|0:0,0:0:0:0:
284,272,53680,2,0,P|280:232|280:196,1,75,0|2,0:0|0:0,0:0:0:0:
317,124,54160,2,0,P|304:89|288:56,1,75,0|2,0:0|0:0,0:0:0:0:
212,88,54640,6,0,P|156:96|100:96,2,112.5,2|2|2,0:0|0:0|0:0,0:0:0:0:
288,56,55600,2,0,L|364:64,1,75,0|2,0:0|0:0,0:0:0:0:
440,36,56080,2,0,L|471:105,1,75,0|2,0:0|0:0,0:0:0:0:
440,180,56560,6,0,P|448:236|448:292,2,112.5,2|2|2,0:0|0:0|0:0,0:0:0:0:
364,148,57520,1,0,0:0:0:0:
312,212,57760,1,2,0:0:0:0:
236,176,58000,2,0,L|160:192,1,75,0|2,0:0|0:0,0:0:0:0:
256,192,58480,12,4,60400,0:0:0:0:
136,332,60880,5,8,0:0:0:0:
204,284,61120,1,0,0:0:0:0:
204,284,61360,2,0,L|356:304,1,150,2|8,0:0|0:0,0:0:0:0:
424,348,62080,1,0,0:0:0:0:
492,300,62320,6,0,P|500:224|476:156,1,150,2|8,0:0|0:0,0:0:0:0:
400,124,63040,1,0,0:0:0:0:
328,168,63280,1,2,0:0:0:0:
276,104,63520,1,0,0:0:0:0:
276,104,63760,2,0,L|288:28,1,75,8|0,0:0|0:0,0:0:0:0:
208,48,64240,6,0,P|168:52|132:52,1,75,2|0,0:0|0:0,0:0:0:0:
72,136,64720,2,0,P|109:132|146:131,1,75,8|0,0:0|0:0,0:0:0:0:
208,188,65200,1,2,0:0:0:0:
160,256,65440,1,0,0:0:0:0:
72,136,65680,2,0,L|56:212,1,75,8|0,0:0|0:0,0:0:0:0:
84,288,66160,5,2,0:0:0:0:
160,256,66400,1,0,0:0:0:0:
225,336,66640,2,0,P|189:344|152:340,1,75,8|0,0:0|0:0,0:0:0:0:
160,256,67120,1,2,0:0:0:0:
216,196,67360,1,0,0:0:0:0:
216,196,67600,2,0,P|252:188|289:192,1,75,8|0,0:0|0:0,0:0:0:0:
344,256,68080,6,0,P|420:252|464:196,1,150,6|8,0:0|0:0,0:0:0:0:
420,128,68800,1,0,0:0:0:0:
488,50,69040,2,0,L|504:124,1,75,2|0,0:0|0:0,0:0:0:0:
496,208,69520,2,0,L|511:281,1,75,8|0,0:0|0:0,0:0:0:0:
472,352,70000,6,0,P|400:323|326:322,1,150,2|8,0:0|0:0,0:0:0:0:
256,360,70720,1,0,0:0:0:0:
216,288,70960,1,2,0:0:0:0:
288,244,71200,2,0,L|296:208,2,37.5,0|0|8,0:0|0:0|0:0,0:0:0:0:
256,360,71680,1,0,0:0:0:0:
216,288,71920,6,0,L|140:296,1,75,2|0,0:0|0:0,0:0:0:0:
288,244,72400,2,0,L|364:252,1,75,8|0,0:0|0:0,0:0:0:0:
428,204,72880,2,0,P|440:124|412:64,2,150,2|8|2,0:0|0:0|0:0,0:0:0:0:
476,272,74080,5,0,0:0:0:0:
476,272,74320,2,0,P|464:308|464:344,1,75,8|0,0:0|0:0,0:0:0:0:
388,376,74800,2,0,L|276:360,1,112.5,2|0,0:0|0:0,0:0:0:0:
244,332,75280,2,0,P|236:292|236:256,1,75,8|0,0:0|0:0,0:0:0:0:
268,184,75760,5,6,0:0:0:0:
344,212,76000,1,0,0:0:0:0:
408,160,76240,2,0,P|410:122|398:87,1,75,8|0,0:0|0:0,0:0:0:0:
268,184,76720,2,0,L|292:332,1,150,2|8,0:0|0:0,0:0:0:0:
224,376,77440,1,0,0:0:0:0:
152,336,77680,6,0,P|112:332|76:336,1,75,2|0,0:0|0:0,0:0:0:0:
42,260,78160,2,0,P|64:230|80:196,1,75,8|0,0:0|0:0,0:0:0:0:
70,48,78640,2,0,P|9:87|4:160,1,150,2|8,0:0|0:0,0:0:0:0:
80,196,79360,1,0,0:0:0:0:
156,168,79600,6,0,L|232:176,1,75,2|0,0:0|0:0,0:0:0:0:
304,216,80080,1,8,0:0:0:0:
300,132,80320,1,0,0:0:0:0:
228,260,80560,2,0,P|288:300|360:284,1,150,2|8,0:0|0:0,0:0:0:0:
388,208,81280,1,0,0:0:0:0:
456,256,81520,6,0,L|444:332,1,75,2|0,0:0|0:0,0:0:0:0:
388,208,82000,2,0,L|399:133,1,75,8|0,0:0|0:0,0:0:0:0:
344,72,82480,2,0,P|288:72|240:100,1,112.5,2|0,0:0|0:0,0:0:0:0:
216,132,82960,2,0,L|104:116,1,112.5,8|0,0:0|0:0,0:0:0:0:
76,84,83440,5,2,0:0:0:0:
15,306,83920,2,0,L|4:232,2,75,8|0|2,0:0|0:0|0:0,0:0:0:0:
176,264,84880,1,8,0:0:0:0:
136,192,85120,1,0,0:0:0:0:
108,316,85360,6,0,L|256:292,1,150,2|8,0:0|0:0,0:0:0:0:
296,220,86080,1,0,0:0:0:0:
446,203,86320,2,0,L|372:192,1,75,2|0,0:0|0:0,0:0:0:0:
296,220,86800,2,0,P|240:200|208:160,1,112.5,8|0,0:0|0:0,0:0:0:0:
204,120,87280,6,0,P|132:92|64:108,1,150,2|8,0:0|0:0,0:0:0:0:
16,176,88000,1,0,0:0:0:0:
64,244,88240,1,2,0:0:0:0:
64,244,88720,2,0,L|36:352,1,112.5,8|0,0:0|0:0,0:0:0:0:
68,376,89200,6,0,L|144:368,1,75,2|0,0:0|0:0,0:0:0:0:
204,312,89680,2,0,P|220:236|192:172,1,150,8|2,0:0|0:0,0:0:0:0:
116,136,90400,1,0,0:0:0:0:
72,64,90640,6,0,L|80:24,3,37.5,2|0|0|0,0:0|0:0|0:0|0:0,0:0:0:0:
