osu file format v14

[General]
AudioFilename: ME!ME!ME! feat. daoko.mp3
AudioLeadIn: 0
PreviewTime: 58480
Countdown: 0
SampleSet: None
StackLeniency: 0.7
Mode: 0
LetterboxInBreaks: 1
WidescreenStoryboard: 1

[Editor]
DistanceSpacing: 1
BeatDivisor: 4
GridSize: 4
TimelineZoom: 1

[Metadata]
Title:ME!ME!ME! feat. daoko_pt.1
TitleUnicode:ME!ME!ME! feat. daoko_pt.1
Artist:TeddyLoid
ArtistUnicode:TeddyLoid
Creator:Suzune
Version:Easy
Source:
Tags:boobs butt boobs butt boobs butt boobs butt boobs butt boobs butt boobs butt boobs butt boobs butt boobs butt boobs butt boobs butt boobs butt boobs butt boobs butt boobs butt boobs butt boobs butt boobs butt boobs butt boobs butt boobs butt boobs butt boobs butt boobs butt boobs butt boobs butt boobs butt boobs butt boobs butt
BeatmapID:663837
BeatmapSetID:294524

[Difficulty]
HPDrainRate:3
CircleSize:3
OverallDifficulty:3
ApproachRate:4
SliderMultiplier:0.799999904632569
SliderTickRate:2

[Events]
//Background and Video events
0,0,"bg.jpg",0,0
//Break Periods
//Storyboard Layer 0 (Background)
//Storyboard Layer 1 (Fail)
//Storyboard Layer 2 (Pass)
//Storyboard Layer 3 (Foreground)
//Storyboard Sound Samples

[TimingPoints]
6640,480,4,2,1,70,1,0
8560,-100,4,2,1,100,0,0
10480,-100,4,2,1,70,0,0
16720,-100,4,2,5,70,0,0
16960,-100,4,2,1,70,0,0
23440,-100,4,2,5,70,0,0
23680,-100,4,2,1,70,0,0
25120,-100,4,2,0,70,0,0
25840,-100,4,2,1,70,0,0
26800,-100,4,2,3,70,0,0
27280,-100,4,2,5,70,0,0
27760,-100,4,2,1,70,0,0
31600,-100,4,2,3,70,0,0
32080,-100,4,2,5,70,0,0
32560,-100,4,2,1,70,0,0
42400,-100,4,2,5,70,0,0
51760,-100,4,2,1,70,0,0
60400,-100,4,2,2,100,0,1
83440,-100,4,2,2,100,0,1
85360,-100,4,2,2,100,0,1
87280,-100,4,2,2,100,0,1
90640,-100,4,2,2,100,0,0

[Colours]
Combo1 : 0,255,255
Combo2 : 255,128,255

[HitObjects]
292,116,6640,6,0,L|412:132,2,119.999985694885,2|0|0,0:0|0:0|0:0,0:0:0:0:
212,116,8560,2,0,P|188:220|268:171,1,239.999971389771,2|0,0:0|0:0,0:0:0:0:
340,160,10480,6,0,L|328:40,2,119.999985694885,2|0|0,0:0|0:0|0:0,0:0:0:0:
372,236,12400,2,0,P|334:340|225:322,1,239.999971389771,2|0,0:0|0:0,0:0:0:0:
212,244,14320,6,0,L|208:152,1,79.9999904632569,8|2,0:0|0:0,0:0:0:0:
228,88,15280,2,0,P|264:96|308:88,1,79.9999904632569,8|2,0:0|0:0,0:0:0:0:
363,32,16240,2,0,P|363:108|429:148,1,159.999980926514,8|8,0:0|0:0,0:0:0:0:
488,204,17680,1,2,0:0:0:0:
428,256,18160,6,0,L|424:336,1,79.9999904632569,8|2,0:0|0:0,0:0:0:0:
344,352,19120,2,0,P|304:351|267:335,1,79.9999904632569,8|2,0:0|0:0,0:0:0:0:
256,256,20080,1,8,0:0:0:0:
40,72,22000,6,0,L|44:160,1,79.9999904632569,12|2,0:0|0:0,0:0:0:0:
88,220,22960,2,0,P|146:226|198:197,1,119.999985694885,8|0,0:0|0:0,0:0:0:0:
216,120,24160,1,0,0:0:0:0:
284,80,24640,1,0,0:0:0:0:
364,80,25120,2,8,L|416:84,1,39.9999952316284
464,136,25840,6,0,P|472:174|465:213,1,79.9999904632569,8|2,0:0|0:0,0:0:0:0:
432,236,26560,2,0,L|336:228,2,79.9999904632569
460,268,27760,1,8,0:0:0:0:
400,320,28240,1,2,0:0:0:0:
320,324,28720,2,0,L|272:320,2,39.9999952316284,8|0|2,0:0|0:0|0:0,0:0:0:0:
340,248,29680,6,0,L|332:160,1,79.9999904632569,12|2,0:0|0:0,0:0:0:0:
271,115,30640,2,0,P|232:119|200:142,1,79.9999904632569,8|2,0:0|0:0,0:0:0:0:
196,184,31360,2,0,L|200:268,2,79.9999904632569
152,120,32800,2,0,L|96:128,2,39.9999952316284,0|2|0,0:0|0:0|0:0,0:0:0:0:
224,88,33760,6,0,L|263:82,2,39.9999952316284,0|2|0,0:0|0:0|0:0,0:0:0:0:
252,164,34720,2,0,L|196:172,2,39.9999952316284,0|2|0,0:0|0:0|0:0,0:0:0:0:
332,152,35680,1,0,0:0:0:0:
404,192,36160,1,0,0:0:0:0:
392,272,36640,6,0,L|388:328,2,39.9999952316284,0|2|0,0:0|0:0|0:0,0:0:0:0:
316,248,37600,1,0,0:0:0:0:
236,256,38080,1,0,0:0:0:0:
176,308,38560,6,0,L|172:360,2,39.9999952316284,0|2|0,0:0|0:0|0:0,0:0:0:0:
160,228,39520,1,0,0:0:0:0:
220,176,40000,1,0,0:0:0:0:
296,204,40480,6,0,L|352:200,2,39.9999952316284,0|2|0,0:0|0:0|0:0,0:0:0:0:
304,284,41440,1,0,0:0:0:0:
232,252,41920,1,0,0:0:0:0:
244,171,42400,6,0,P|248:132|243:92,1,79.9999904632569
176,52,43360,2,0,L|88:56,1,79.9999904632569
36,108,44320,6,0,L|-12:120,2,39.9999952316284,0|2|0,0:0|0:0|0:0,0:0:0:0:
116,116,45280,1,0,0:0:0:0:
148,188,45760,1,0,0:0:0:0:
124,264,46240,6,0,L|132:304,2,39.9999952316284,0|2|0,0:0|0:0|0:0,0:0:0:0:
204,248,47200,2,0,P|243:256|282:254,1,79.9999904632569
336,196,48160,6,0,L|344:148,2,39.9999952316284,0|2|0,0:0|0:0|0:0,0:0:0:0:
372,268,49120,2,0,L|380:316,2,39.9999952316284,0|2|0,0:0|0:0|0:0,0:0:0:0:
432,216,50080,6,0,L|440:168,2,39.9999952316284,0|2|0,0:0|0:0|0:0,0:0:0:0:
476,284,51040,2,0,L|484:332,1,39.9999952316284,0|2,0:0|0:0,0:0:0:0:
407,351,51760,2,0,P|368:344|329:347,1,79.9999904632569,8|2,0:0|0:0,0:0:0:0:
259,304,52720,6,0,P|180:312|176:240,1,159.999980926514,12|2,0:0|0:0,0:0:0:0:
240,204,54160,1,2,0:0:0:0:
320,220,54640,6,0,P|396:240|473:221,1,159.999980926514,8|2,0:0|0:0,0:0:0:0:
496,144,56080,1,2,0:0:0:0:
444,80,56560,6,0,L|280:96,1,159.999980926514,8|2,0:0|0:0,0:0:0:0:
268,172,58000,1,2,0:0:0:0:
256,192,58480,12,12,60400,0:0:0:0:
128,92,60880,5,8,0:0:0:0:
168,160,61360,2,8,L|160:324,1,159.999980926514,8|12,0:0|0:0,0:0:0:0:
236,344,62800,1,8,0:0:0:0:
308,308,63280,2,8,L|472:320,1,159.999980926514,8|12,0:0|0:0,0:0:0:0:
460,240,64720,5,8,0:0:0:0:
488,164,65200,2,8,P|496:132|496:80,1,79.9999904632569
424,52,66160,2,8,L|256:64,1,159.999980926514,12|8,0:0|0:0,0:0:0:0:
120,136,68080,6,8,L|40:141,2,79.9999904632569,12|8|8,0:0|0:0|0:0,0:0:0:0:
276,180,70000,2,8,L|355:174,2,79.9999904632569,12|8|8,0:0|0:0|0:0,0:0:0:0:
188,316,71920,6,8,L|108:321,1,79.9999904632569,12|8,0:0|0:0,0:0:0:0:
60,255,72880,2,8,P|60:216|51:177,1,79.9999904632569
16,104,73840,2,8,P|89:132|166:113,1,159.999980926514,12|8,0:0|0:0,0:0:0:0:
244,92,75280,1,8,0:0:0:0:
312,136,75760,6,8,L|316:224,1,79.9999904632569,12|8,0:0|0:0,0:0:0:0:
356,284,76720,2,8,P|320:268|228:328,1,159.999980926514,8|12,0:0|0:0,0:0:0:0:
147,312,78160,2,8,P|108:316|68:312,1,79.9999904632569
56,152,79600,6,8,L|48:68,1,79.9999904632569,12|8,0:0|0:0,0:0:0:0:
128,88,80560,2,8,P|167:90|206:81,1,79.9999904632569
280,48,81520,2,8,L|364:72,2,79.9999904632569,12|8|8,0:0|0:0|0:0,0:0:0:0:
200,44,82960,1,8,0:0:0:0:
176,120,83440,6,8,L|184:284,1,159.999980926514,12|8,0:0|0:0,0:0:0:0:
256,312,84880,1,8,0:0:0:0:
331,291,85360,2,8,P|316:218|380:178,1,159.999980926514,12|8,0:0|0:0,0:0:0:0:
432,120,86800,1,8,0:0:0:0:
392,52,87280,6,8,L|220:32,1,159.999980926514,12|8,0:0|0:0,0:0:0:0:
160,60,88720,1,0,0:0:0:0:
136,136,89200,2,8,P|162:210|140:285,1,159.999980926514,12|8,0:0|0:0,0:0:0:0:
60,296,90640,2,0,L|-4:288,1,59.9999928474427
