osu file format v14

[General]
AudioFilename: ME!ME!ME.mp3
AudioLeadIn: 0
PreviewTime: 58776
Countdown: 0
SampleSet: Soft
StackLeniency: 0.3
Mode: 3
LetterboxInBreaks: 0
EpilepsyWarning: 1
SpecialStyle: 0
WidescreenStoryboard: 1

[Editor]
DistanceSpacing: 1.3
BeatDivisor: 4
GridSize: 4
TimelineZoom: 1.6

[Metadata]
Title:ME!ME!ME! feat. daoko
TitleUnicode:ME!ME!ME! feat. daoko
Artist:TeddyLoid
ArtistUnicode:TeddyLoid
Creator:arcwinolivirus
Version:7K Abandon
Source:
Tags:日本アニメ(ーター)見本市 Nippon Animator Mihonichi
BeatmapID:783777
BeatmapSetID:291983

[Difficulty]
HPDrainRate:8
CircleSize:7
OverallDifficulty:8
ApproachRate:9
SliderMultiplier:2.2
SliderTickRate:1

[Events]
//Background and Video events
0,0,"teddyloid background osu.jpg",0,0
//Break Periods
//Storyboard Layer 0 (Background)
//Storyboard Layer 1 (Fail)
//Storyboard Layer 2 (Pass)
//Storyboard Layer 3 (Foreground)
//Storyboard Sound Samples

[TimingPoints]
756,480,4,2,1,30,1,0
58836,-100,4,2,1,30,0,1
89556,-100,4,2,1,30,0,0
89724,666.666666666667,6,2,1,30,1,0
89724,-72.0046082949309,6,2,1,30,0,0
93724,-72.0046082949309,6,2,1,30,0,1
125724,-72.0046082949309,6,2,1,30,0,0
147057,-72.0046082949309,6,2,1,30,0,1
152390,-72.0046082949309,6,2,1,30,0,0
157724,-72.0046082949309,6,2,1,30,0,1
168390,-72.0046082949309,6,2,1,30,0,0
174162,428.571428571429,4,2,1,30,1,0
175876,-112.359550561798,4,2,1,30,0,0
187876,-112.359550561798,4,2,1,30,0,0
189590,-112.359550561798,4,2,1,30,0,1
217019,-112.359550561798,4,2,1,30,0,0
217876,-112.359550561798,4,2,1,30,0,1
244442,454.545454545455,4,2,1,30,1,0
244442,-105.263157894737,4,2,1,30,0,0
275351,-105.263157894737,4,2,1,30,0,1
304442,-105.263157894737,4,2,1,30,0,0

[HitObjects]
402,192,5076,128,0,5796:0:0:0:0:
109,192,5076,1,0,0:0:0:0:
36,192,5076,1,0,0:0:0:0:
475,192,5076,1,0,0:0:0:0:
329,192,5316,1,0,0:0:0:0:
182,192,5436,1,0,0:0:0:0:
109,192,5676,1,0,0:0:0:0:
256,192,5796,128,0,6516:0:0:0:0:
36,192,5916,128,0,6036:0:0:0:0:
475,192,6276,128,0,6516:0:0:0:0:
109,192,6516,128,0,6996:0:0:0:0:
402,192,6756,128,0,6996:0:0:0:0:
36,192,6996,128,0,7716:0:0:0:0:
256,192,6996,1,0,0:0:0:0:
329,192,7236,1,0,0:0:0:0:
475,192,7476,1,0,0:0:0:0:
182,192,7716,128,0,8916:0:0:0:0:
402,192,7716,1,0,0:0:0:0:
329,192,7836,1,0,0:0:0:0:
109,192,8196,128,0,8436:0:0:0:0:
329,192,8436,128,0,8916:0:0:0:0:
402,192,8556,128,0,8916:0:0:0:0:
36,192,8916,128,0,9636:0:0:0:0:
475,192,8916,1,0,0:0:0:0:
402,192,9156,1,0,0:0:0:0:
329,192,9276,1,0,0:0:0:0:
182,192,9516,1,0,0:0:0:0:
402,192,9636,128,0,10356:0:0:0:0:
109,192,9756,1,0,0:0:0:0:
182,192,10116,128,0,10356:0:0:0:0:
109,192,10356,128,0,10836:0:0:0:0:
329,192,10596,128,0,10836:0:0:0:0:
256,192,10836,128,0,11796:0:0:0:0:
475,192,10836,1,0,0:0:0:0:
402,192,10836,1,0,0:0:0:0:
402,192,10956,1,0,0:0:0:0:
475,192,10956,1,0,0:0:0:0:
109,192,11196,1,0,0:0:0:0:
182,192,11196,1,0,0:0:0:0:
329,192,11436,1,0,0:0:0:0:
402,192,11436,1,0,0:0:0:0:
36,192,11796,1,0,0:0:0:0:
182,192,11796,1,0,0:0:0:0:
329,192,11916,1,0,0:0:0:0:
475,192,11916,1,0,0:0:0:0:
36,192,12036,1,0,0:0:0:0:
182,192,12036,1,0,0:0:0:0:
329,192,12156,1,0,0:0:0:0:
475,192,12156,1,0,0:0:0:0:
109,192,12276,1,0,0:0:0:0:
182,192,12276,1,0,0:0:0:0:
329,192,12396,1,0,0:0:0:0:
402,192,12396,1,0,0:0:0:0:
182,192,12516,1,0,0:0:0:0:
109,192,12516,1,0,0:0:0:0:
329,192,12636,1,0,0:0:0:0:
402,192,12636,1,0,0:0:0:0:
256,192,12756,1,0,0:0:0:0:
182,192,12756,1,0,0:0:0:0:
36,192,12756,128,0,13236:0:0:0:0:
402,192,12876,1,0,0:0:0:0:
256,192,12996,1,0,0:0:0:0:
475,192,13116,1,0,0:0:0:0:
182,192,13236,128,0,13716:0:0:0:0:
329,192,13236,1,0,0:0:0:0:
109,192,13236,1,0,0:0:0:0:
402,192,13356,1,0,0:0:0:0:
256,192,13476,1,0,0:0:0:0:
36,192,13596,1,0,0:0:0:0:
475,192,13716,128,0,14196:0:0:0:0:
329,192,13716,1,0,0:0:0:0:
109,192,13836,1,0,0:0:0:0:
256,192,13956,1,0,0:0:0:0:
36,192,14076,1,0,0:0:0:0:
329,192,14196,128,0,14676:0:0:0:0:
182,192,14196,1,0,0:0:0:0:
402,192,14196,1,0,0:0:0:0:
109,192,14436,128,0,14676:0:0:0:0:
256,192,14676,128,0,15036:0:0:0:0:
475,192,14676,1,0,0:0:0:0:
109,192,15036,1,0,0:0:0:0:
36,192,15036,1,0,0:0:0:0:
402,192,15156,1,0,0:0:0:0:
475,192,15156,1,0,0:0:0:0:
329,192,15156,1,0,0:0:0:0:
109,192,15396,1,0,0:0:0:0:
182,192,15396,128,0,15636:0:0:0:0:
475,192,15636,1,0,0:0:0:0:
329,192,15636,1,0,0:0:0:0:
402,192,15876,1,0,0:0:0:0:
256,192,15876,1,0,0:0:0:0:
109,192,15876,1,0,0:0:0:0:
36,192,16116,1,0,0:0:0:0:
182,192,16116,1,0,0:0:0:0:
475,192,16116,1,0,0:0:0:0:
402,192,16176,1,0,0:0:0:0:
329,192,16236,1,0,0:0:0:0:
256,192,16296,1,0,0:0:0:0:
182,192,16356,1,0,0:0:0:0:
109,192,16416,1,0,0:0:0:0:
36,192,16476,1,0,0:0:0:0:
475,192,16596,128,0,17076:0:0:0:0:
329,192,16596,1,0,0:0:0:0:
256,192,16596,1,0,0:0:0:0:
109,192,16716,1,0,0:0:0:0:
256,192,16836,1,0,0:0:0:0:
36,192,16956,1,0,0:0:0:0:
329,192,17076,128,0,17556:0:0:0:0:
182,192,17076,1,0,0:0:0:0:
402,192,17076,1,0,0:0:0:0:
109,192,17196,1,0,0:0:0:0:
256,192,17316,1,0,0:0:0:0:
402,192,17436,1,0,0:0:0:0:
182,192,17556,128,0,18036:0:0:0:0:
36,192,17556,1,0,0:0:0:0:
475,192,17676,1,0,0:0:0:0:
109,192,17796,1,0,0:0:0:0:
402,192,17916,1,0,0:0:0:0:
36,192,18036,128,0,18516:0:0:0:0:
256,192,18036,1,0,0:0:0:0:
329,192,18036,1,0,0:0:0:0:
182,192,18276,128,0,18516:0:0:0:0:
402,192,18276,1,0,0:0:0:0:
256,192,18516,128,0,19476:0:0:0:0:
475,192,18516,1,0,0:0:0:0:
402,192,18636,1,0,0:0:0:0:
329,192,18756,1,0,0:0:0:0:
402,192,18876,1,0,0:0:0:0:
109,192,18996,1,0,0:0:0:0:
182,192,19116,1,0,0:0:0:0:
402,192,19236,1,0,0:0:0:0:
36,192,19356,1,0,0:0:0:0:
329,192,19476,1,0,0:0:0:0:
475,192,19476,1,0,0:0:0:0:
182,192,19476,1,0,0:0:0:0:
109,192,19716,1,0,0:0:0:0:
402,192,19716,1,0,0:0:0:0:
329,192,19836,1,0,0:0:0:0:
182,192,19836,1,0,0:0:0:0:
402,192,19956,1,0,0:0:0:0:
475,192,19956,1,0,0:0:0:0:
109,192,19956,1,0,0:0:0:0:
36,192,19956,1,0,0:0:0:0:
256,192,20196,1,0,0:0:0:0:
256,192,20316,1,0,0:0:0:0:
182,192,20436,1,0,0:0:0:0:
36,192,20436,1,0,0:0:0:0:
329,192,20436,1,0,0:0:0:0:
475,192,20436,128,0,20916:0:0:0:0:
109,192,20676,1,0,0:0:0:0:
329,192,20676,1,0,0:0:0:0:
256,192,20796,1,0,0:0:0:0:
182,192,20916,1,0,0:0:0:0:
36,192,20916,1,0,0:0:0:0:
402,192,20916,1,0,0:0:0:0:
329,192,21036,1,0,0:0:0:0:
256,192,21156,1,0,0:0:0:0:
109,192,21156,1,0,0:0:0:0:
475,192,21276,1,0,0:0:0:0:
182,192,21396,1,0,0:0:0:0:
329,192,21396,1,0,0:0:0:0:
402,192,21636,1,0,0:0:0:0:
109,192,21636,1,0,0:0:0:0:
256,192,21756,1,0,0:0:0:0:
36,192,21876,128,0,22356:0:0:0:0:
329,192,21876,1,0,0:0:0:0:
475,192,21876,1,0,0:0:0:0:
182,192,21996,1,0,0:0:0:0:
256,192,22116,1,0,0:0:0:0:
402,192,22116,1,0,0:0:0:0:
182,192,22236,1,0,0:0:0:0:
475,192,22356,128,0,22836:0:0:0:0:
329,192,22356,1,0,0:0:0:0:
109,192,22356,1,0,0:0:0:0:
329,192,22596,1,0,0:0:0:0:
182,192,22596,1,0,0:0:0:0:
36,192,22716,1,0,0:0:0:0:
329,192,22836,1,0,0:0:0:0:
402,192,22836,1,0,0:0:0:0:
182,192,22836,1,0,0:0:0:0:
109,192,22956,1,0,0:0:0:0:
256,192,23076,1,0,0:0:0:0:
402,192,23076,1,0,0:0:0:0:
182,192,23196,1,0,0:0:0:0:
475,192,23316,1,0,0:0:0:0:
329,192,23316,128,0,23796:0:0:0:0:
36,192,23436,1,0,0:0:0:0:
182,192,23556,1,0,0:0:0:0:
402,192,23556,1,0,0:0:0:0:
109,192,23676,1,0,0:0:0:0:
402,192,23796,1,0,0:0:0:0:
475,192,23796,1,0,0:0:0:0:
256,192,23796,1,0,0:0:0:0:
182,192,23916,1,0,0:0:0:0:
329,192,24036,1,0,0:0:0:0:
36,192,24036,1,0,0:0:0:0:
256,192,24156,1,0,0:0:0:0:
182,192,24276,128,0,24756:0:0:0:0:
475,192,24276,1,0,0:0:0:0:
329,192,24396,1,0,0:0:0:0:
402,192,24516,1,0,0:0:0:0:
109,192,24516,1,0,0:0:0:0:
256,192,24636,1,0,0:0:0:0:
475,192,24756,1,0,0:0:0:0:
36,192,24756,1,0,0:0:0:0:
329,192,24756,1,0,0:0:0:0:
109,192,24996,1,0,0:0:0:0:
256,192,24996,1,0,0:0:0:0:
475,192,25116,1,0,0:0:0:0:
182,192,25236,1,0,0:0:0:0:
36,192,25236,1,0,0:0:0:0:
402,192,25356,1,0,0:0:0:0:
109,192,25476,1,0,0:0:0:0:
256,192,25476,1,0,0:0:0:0:
475,192,25596,1,0,0:0:0:0:
36,192,25716,1,0,0:0:0:0:
182,192,25716,1,0,0:0:0:0:
329,192,25716,1,0,0:0:0:0:
475,192,25836,1,0,0:0:0:0:
256,192,25956,1,0,0:0:0:0:
109,192,25956,1,0,0:0:0:0:
402,192,26076,1,0,0:0:0:0:
36,192,26196,128,0,26676:0:0:0:0:
329,192,26196,1,0,0:0:0:0:
182,192,26316,1,0,0:0:0:0:
329,192,26436,1,0,0:0:0:0:
475,192,26436,1,0,0:0:0:0:
109,192,26676,1,0,0:0:0:0:
402,192,26676,1,0,0:0:0:0:
475,192,26676,1,0,0:0:0:0:
256,192,26916,128,0,27396:0:0:0:0:
182,192,26916,1,0,0:0:0:0:
402,192,27036,1,0,0:0:0:0:
475,192,27036,1,0,0:0:0:0:
109,192,27156,1,0,0:0:0:0:
36,192,27156,1,0,0:0:0:0:
402,192,27276,1,0,0:0:0:0:
182,192,27396,1,0,0:0:0:0:
109,192,27396,1,0,0:0:0:0:
329,192,27516,1,0,0:0:0:0:
475,192,27636,128,0,28116:0:0:0:0:
256,192,27636,1,0,0:0:0:0:
36,192,27636,1,0,0:0:0:0:
402,192,27756,1,0,0:0:0:0:
182,192,27876,1,0,0:0:0:0:
109,192,27876,1,0,0:0:0:0:
329,192,27996,1,0,0:0:0:0:
36,192,28116,128,0,28596:0:0:0:0:
256,192,28116,1,0,0:0:0:0:
402,192,28356,1,0,0:0:0:0:
182,192,28356,1,0,0:0:0:0:
256,192,28476,1,0,0:0:0:0:
329,192,28596,1,0,0:0:0:0:
109,192,28596,1,0,0:0:0:0:
475,192,28596,1,0,0:0:0:0:
182,192,28716,1,0,0:0:0:0:
402,192,28836,1,0,0:0:0:0:
256,192,28836,1,0,0:0:0:0:
109,192,28956,1,0,0:0:0:0:
475,192,29076,1,0,0:0:0:0:
329,192,29076,1,0,0:0:0:0:
256,192,29316,1,0,0:0:0:0:
182,192,29316,1,0,0:0:0:0:
402,192,29436,1,0,0:0:0:0:
109,192,29556,1,0,0:0:0:0:
36,192,29556,1,0,0:0:0:0:
475,192,29556,128,0,30036:0:0:0:0:
329,192,29676,1,0,0:0:0:0:
182,192,29796,1,0,0:0:0:0:
109,192,29796,1,0,0:0:0:0:
402,192,29916,1,0,0:0:0:0:
256,192,30036,1,0,0:0:0:0:
329,192,30036,1,0,0:0:0:0:
36,192,30036,128,0,30516:0:0:0:0:
182,192,30156,1,0,0:0:0:0:
475,192,30276,1,0,0:0:0:0:
402,192,30276,1,0,0:0:0:0:
109,192,30396,1,0,0:0:0:0:
256,192,30516,1,0,0:0:0:0:
182,192,30516,1,0,0:0:0:0:
402,192,30516,1,0,0:0:0:0:
475,192,30756,1,0,0:0:0:0:
109,192,30756,1,0,0:0:0:0:
329,192,30876,1,0,0:0:0:0:
36,192,30996,1,0,0:0:0:0:
182,192,30996,128,0,31476:0:0:0:0:
402,192,31116,1,0,0:0:0:0:
109,192,31236,1,0,0:0:0:0:
329,192,31236,1,0,0:0:0:0:
256,192,31356,1,0,0:0:0:0:
36,192,31476,1,0,0:0:0:0:
402,192,31476,1,0,0:0:0:0:
475,192,31476,1,0,0:0:0:0:
329,192,31596,1,0,0:0:0:0:
109,192,31716,1,0,0:0:0:0:
182,192,31716,1,0,0:0:0:0:
402,192,31836,1,0,0:0:0:0:
36,192,31956,1,0,0:0:0:0:
329,192,31956,128,0,32436:0:0:0:0:
182,192,32076,1,0,0:0:0:0:
109,192,32196,1,0,0:0:0:0:
402,192,32196,1,0,0:0:0:0:
256,192,32316,1,0,0:0:0:0:
36,192,32436,1,0,0:0:0:0:
475,192,32436,1,0,0:0:0:0:
182,192,32436,1,0,0:0:0:0:
402,192,32676,1,0,0:0:0:0:
256,192,32676,1,0,0:0:0:0:
109,192,32796,1,0,0:0:0:0:
329,192,32916,1,0,0:0:0:0:
475,192,32916,1,0,0:0:0:0:
182,192,33036,1,0,0:0:0:0:
402,192,33156,1,0,0:0:0:0:
256,192,33156,1,0,0:0:0:0:
109,192,33276,1,0,0:0:0:0:
182,192,33396,1,0,0:0:0:0:
475,192,33396,1,0,0:0:0:0:
329,192,33396,1,0,0:0:0:0:
36,192,33516,1,0,0:0:0:0:
256,192,33636,1,0,0:0:0:0:
402,192,33636,1,0,0:0:0:0:
109,192,33756,1,0,0:0:0:0:
329,192,33876,1,0,0:0:0:0:
475,192,33876,128,0,34356:0:0:0:0:
36,192,33996,1,0,0:0:0:0:
182,192,34116,1,0,0:0:0:0:
329,192,34116,1,0,0:0:0:0:
256,192,34236,1,0,0:0:0:0:
402,192,34356,1,0,0:0:0:0:
109,192,34356,1,0,0:0:0:0:
36,192,34356,1,0,0:0:0:0:
256,192,34596,128,0,35076:0:0:0:0:
329,192,34596,1,0,0:0:0:0:
109,192,34716,1,0,0:0:0:0:
36,192,34716,1,0,0:0:0:0:
402,192,34836,1,0,0:0:0:0:
475,192,34836,1,0,0:0:0:0:
182,192,34956,1,0,0:0:0:0:
109,192,34956,1,0,0:0:0:0:
402,192,35076,1,0,0:0:0:0:
329,192,35076,1,0,0:0:0:0:
109,192,35196,1,0,0:0:0:0:
36,192,35196,1,0,0:0:0:0:
475,192,35316,128,0,35796:0:0:0:0:
402,192,35316,1,0,0:0:0:0:
256,192,35316,1,0,0:0:0:0:
329,192,35556,1,0,0:0:0:0:
182,192,35556,1,0,0:0:0:0:
256,192,35796,1,0,0:0:0:0:
402,192,35796,1,0,0:0:0:0:
36,192,35796,128,0,36036:0:0:0:0:
109,192,35796,1,0,0:0:0:0:
182,192,36036,128,0,36276:0:0:0:0:
329,192,36036,1,0,0:0:0:0:
475,192,36036,1,0,0:0:0:0:
109,192,36276,1,0,0:0:0:0:
256,192,36276,1,0,0:0:0:0:
402,192,36276,1,0,0:0:0:0:
329,192,36516,128,0,36756:0:0:0:0:
475,192,36516,1,0,0:0:0:0:
36,192,36516,1,0,0:0:0:0:
182,192,36756,1,0,0:0:0:0:
402,192,36756,1,0,0:0:0:0:
475,192,36996,128,0,37716:0:0:0:0:
329,192,36996,1,0,0:0:0:0:
109,192,36996,1,0,0:0:0:0:
402,192,37236,128,0,37716:0:0:0:0:
256,192,37236,1,0,0:0:0:0:
36,192,37236,1,0,0:0:0:0:
329,192,37476,128,0,37716:0:0:0:0:
182,192,37476,1,0,0:0:0:0:
256,192,37716,1,0,0:0:0:0:
109,192,37716,1,0,0:0:0:0:
36,192,37716,128,0,37956:0:0:0:0:
182,192,37956,128,0,38196:0:0:0:0:
329,192,37956,1,0,0:0:0:0:
475,192,37956,1,0,0:0:0:0:
256,192,38196,1,0,0:0:0:0:
109,192,38196,1,0,0:0:0:0:
402,192,38196,1,0,0:0:0:0:
36,192,38436,1,0,0:0:0:0:
329,192,38436,128,0,38676:0:0:0:0:
475,192,38436,1,0,0:0:0:0:
109,192,38676,1,0,0:0:0:0:
256,192,38676,1,0,0:0:0:0:
36,192,38916,128,0,39156:0:0:0:0:
182,192,38916,1,0,0:0:0:0:
402,192,38916,1,0,0:0:0:0:
256,192,39156,1,0,0:0:0:0:
109,192,39156,128,0,39636:0:0:0:0:
475,192,39156,1,0,0:0:0:0:
329,192,39396,1,0,0:0:0:0:
182,192,39396,128,0,39636:0:0:0:0:
36,192,39636,1,0,0:0:0:0:
402,192,39636,1,0,0:0:0:0:
475,192,39636,128,0,39876:0:0:0:0:
109,192,39876,1,0,0:0:0:0:
182,192,39876,128,0,40116:0:0:0:0:
329,192,39876,1,0,0:0:0:0:
475,192,40116,1,0,0:0:0:0:
36,192,40116,1,0,0:0:0:0:
256,192,40116,1,0,0:0:0:0:
402,192,40356,1,0,0:0:0:0:
329,192,40356,128,0,40596:0:0:0:0:
109,192,40356,1,0,0:0:0:0:
182,192,40596,1,0,0:0:0:0:
475,192,40596,1,0,0:0:0:0:
109,192,40836,1,0,0:0:0:0:
329,192,40836,1,0,0:0:0:0:
475,192,40836,128,0,41556:0:0:0:0:
36,192,41076,1,0,0:0:0:0:
402,192,41076,128,0,41556:0:0:0:0:
256,192,41076,1,0,0:0:0:0:
329,192,41316,128,0,41556:0:0:0:0:
182,192,41316,1,0,0:0:0:0:
256,192,41556,1,0,0:0:0:0:
109,192,41556,1,0,0:0:0:0:
36,192,41796,128,0,42516:0:0:0:0:
475,192,41796,1,0,0:0:0:0:
109,192,42036,128,0,42516:0:0:0:0:
256,192,42036,1,0,0:0:0:0:
402,192,42036,1,0,0:0:0:0:
182,192,42276,128,0,42516:0:0:0:0:
329,192,42276,1,0,0:0:0:0:
402,192,42516,1,0,0:0:0:0:
475,192,42516,1,0,0:0:0:0:
256,192,42756,1,0,0:0:0:0:
329,192,42756,128,0,42996:0:0:0:0:
109,192,42996,1,0,0:0:0:0:
475,192,42996,1,0,0:0:0:0:
182,192,42996,128,0,43236:0:0:0:0:
329,192,43236,1,0,0:0:0:0:
402,192,43236,128,0,43476:0:0:0:0:
182,192,43476,1,0,0:0:0:0:
256,192,43476,128,0,43716:0:0:0:0:
475,192,43476,1,0,0:0:0:0:
36,192,43716,1,0,0:0:0:0:
109,192,43716,128,0,43956:0:0:0:0:
329,192,43956,1,0,0:0:0:0:
475,192,43956,1,0,0:0:0:0:
182,192,43956,1,0,0:0:0:0:
36,192,44196,128,0,44436:0:0:0:0:
256,192,44196,1,0,0:0:0:0:
402,192,44196,1,0,0:0:0:0:
182,192,44436,1,0,0:0:0:0:
329,192,44436,1,0,0:0:0:0:
256,192,44676,1,0,0:0:0:0:
182,192,44676,128,0,44916:0:0:0:0:
329,192,44916,128,0,45156:0:0:0:0:
402,192,44916,1,0,0:0:0:0:
36,192,44916,1,0,0:0:0:0:
182,192,45156,1,0,0:0:0:0:
109,192,45156,128,0,45396:0:0:0:0:
329,192,45396,1,0,0:0:0:0:
256,192,45396,128,0,45636:0:0:0:0:
36,192,45396,1,0,0:0:0:0:
475,192,45636,1,0,0:0:0:0:
402,192,45636,128,0,45876:0:0:0:0:
329,192,45876,1,0,0:0:0:0:
182,192,45876,1,0,0:0:0:0:
36,192,45876,1,0,0:0:0:0:
256,192,46116,1,0,0:0:0:0:
109,192,46116,1,0,0:0:0:0:
475,192,46116,128,0,46356:0:0:0:0:
329,192,46356,1,0,0:0:0:0:
182,192,46356,1,0,0:0:0:0:
329,192,46596,128,0,46836:0:0:0:0:
256,192,46596,1,0,0:0:0:0:
475,192,46836,1,0,0:0:0:0:
109,192,46836,1,0,0:0:0:0:
182,192,46836,128,0,47076:0:0:0:0:
402,192,47076,128,0,47316:0:0:0:0:
329,192,47076,1,0,0:0:0:0:
475,192,47316,1,0,0:0:0:0:
256,192,47316,128,0,47556:0:0:0:0:
182,192,47316,1,0,0:0:0:0:
109,192,47556,128,0,47796:0:0:0:0:
36,192,47556,1,0,0:0:0:0:
475,192,47796,1,0,0:0:0:0:
329,192,47796,1,0,0:0:0:0:
182,192,47796,1,0,0:0:0:0:
256,192,48036,128,0,48276:0:0:0:0:
402,192,48036,1,0,0:0:0:0:
36,192,48036,1,0,0:0:0:0:
329,192,48276,1,0,0:0:0:0:
109,192,48276,1,0,0:0:0:0:
402,192,48516,128,0,48756:0:0:0:0:
475,192,48516,1,0,0:0:0:0:
36,192,48756,1,0,0:0:0:0:
109,192,48756,128,0,48996:0:0:0:0:
256,192,48756,1,0,0:0:0:0:
402,192,48996,128,0,49236:0:0:0:0:
475,192,48996,1,0,0:0:0:0:
256,192,49236,128,0,51156:0:0:0:0:
36,192,49476,128,0,49716:0:0:0:0:
182,192,49716,128,0,50196:0:0:0:0:
475,192,50196,128,0,50676:0:0:0:0:
402,192,50676,128,0,50916:0:0:0:0:
109,192,50676,1,0,0:0:0:0:
109,192,50796,1,0,0:0:0:0:
329,192,50916,128,0,51156:0:0:0:0:
182,192,50916,1,0,0:0:0:0:
182,192,51036,1,0,0:0:0:0:
36,192,51156,128,0,56916:0:0:0:0:
475,192,51156,128,0,56916:0:0:0:0:
402,192,51156,1,0,0:0:0:0:
109,192,51156,1,0,0:0:0:0:
329,192,51396,1,0,0:0:0:0:
182,192,51516,1,0,0:0:0:0:
329,192,51636,1,0,0:0:0:0:
182,192,51876,1,0,0:0:0:0:
329,192,51996,1,0,0:0:0:0:
182,192,52116,1,0,0:0:0:0:
329,192,52356,1,0,0:0:0:0:
182,192,52476,1,0,0:0:0:0:
329,192,52596,1,0,0:0:0:0:
182,192,52836,1,0,0:0:0:0:
329,192,52956,1,0,0:0:0:0:
182,192,53076,1,0,0:0:0:0:
329,192,53316,1,0,0:0:0:0:
182,192,53436,1,0,0:0:0:0:
329,192,53556,1,0,0:0:0:0:
182,192,53796,1,0,0:0:0:0:
329,192,53916,1,0,0:0:0:0:
182,192,54036,1,0,0:0:0:0:
329,192,54276,1,0,0:0:0:0:
182,192,54396,1,0,0:0:0:0:
329,192,54516,1,0,0:0:0:0:
182,192,54756,1,0,0:0:0:0:
329,192,54876,1,0,0:0:0:0:
256,192,54996,128,0,56916:0:0:0:0:
109,192,54996,1,0,0:0:0:0:
402,192,55236,1,0,0:0:0:0:
109,192,55356,1,0,0:0:0:0:
402,192,55476,1,0,0:0:0:0:
109,192,55716,1,0,0:0:0:0:
402,192,55836,1,0,0:0:0:0:
109,192,55956,1,0,0:0:0:0:
402,192,56196,1,0,0:0:0:0:
109,192,56316,1,0,0:0:0:0:
402,192,56436,1,0,0:0:0:0:
109,192,56676,1,0,0:0:0:0:
402,192,56796,1,0,0:0:0:0:
109,192,56916,1,0,0:0:0:0:
329,192,56916,1,0,0:0:0:0:
182,192,57076,1,0,0:0:0:0:
402,192,57076,1,0,0:0:0:0:
109,192,57236,1,0,0:0:0:0:
329,192,57236,1,0,0:0:0:0:
475,192,57396,1,0,0:0:0:0:
36,192,57396,1,0,0:0:0:0:
256,192,57396,1,0,0:0:0:0:
402,192,57556,1,0,0:0:0:0:
182,192,57556,1,0,0:0:0:0:
109,192,57716,1,0,0:0:0:0:
329,192,57716,1,0,0:0:0:0:
402,192,57876,1,0,0:0:0:0:
182,192,57876,1,0,0:0:0:0:
256,192,57876,1,0,0:0:0:0:
36,192,58036,1,0,0:0:0:0:
475,192,58036,1,0,0:0:0:0:
109,192,58196,1,0,0:0:0:0:
329,192,58196,1,0,0:0:0:0:
182,192,58356,1,0,0:0:0:0:
402,192,58356,1,0,0:0:0:0:
36,192,58356,1,0,0:0:0:0:
256,192,58516,1,0,0:0:0:0:
475,192,58516,1,0,0:0:0:0:
402,192,58676,1,0,0:0:0:0:
182,192,58676,1,0,0:0:0:0:
36,192,58836,1,0,0:0:0:0:
256,192,58836,1,0,0:0:0:0:
329,192,58836,1,0,0:0:0:0:
475,192,58836,128,0,59316:0:0:0:0:
109,192,59076,1,0,0:0:0:0:
402,192,59076,1,0,0:0:0:0:
256,192,59196,1,0,0:0:0:0:
402,192,59316,128,0,59796:0:0:0:0:
36,192,59316,1,0,0:0:0:0:
182,192,59316,1,0,0:0:0:0:
109,192,59556,1,0,0:0:0:0:
256,192,59556,1,0,0:0:0:0:
182,192,59676,1,0,0:0:0:0:
329,192,59796,128,0,60276:0:0:0:0:
36,192,59796,1,0,0:0:0:0:
475,192,59796,1,0,0:0:0:0:
109,192,60036,1,0,0:0:0:0:
402,192,60036,1,0,0:0:0:0:
256,192,60156,1,0,0:0:0:0:
475,192,60276,1,0,0:0:0:0:
182,192,60276,1,0,0:0:0:0:
36,192,60276,1,0,0:0:0:0:
402,192,60396,1,0,0:0:0:0:
256,192,60396,1,0,0:0:0:0:
109,192,60516,1,0,0:0:0:0:
182,192,60516,1,0,0:0:0:0:
329,192,60636,1,0,0:0:0:0:
402,192,60636,1,0,0:0:0:0:
36,192,60756,128,0,61236:0:0:0:0:
182,192,60756,1,0,0:0:0:0:
475,192,60756,1,0,0:0:0:0:
109,192,60996,1,0,0:0:0:0:
402,192,60996,1,0,0:0:0:0:
256,192,61116,1,0,0:0:0:0:
109,192,61236,128,0,61716:0:0:0:0:
329,192,61236,1,0,0:0:0:0:
475,192,61236,1,0,0:0:0:0:
256,192,61476,1,0,0:0:0:0:
402,192,61476,1,0,0:0:0:0:
329,192,61596,1,0,0:0:0:0:
182,192,61716,128,0,62196:0:0:0:0:
475,192,61716,1,0,0:0:0:0:
36,192,61716,1,0,0:0:0:0:
109,192,61956,1,0,0:0:0:0:
402,192,61956,1,0,0:0:0:0:
256,192,62076,1,0,0:0:0:0:
36,192,62196,1,0,0:0:0:0:
475,192,62196,1,0,0:0:0:0:
329,192,62196,1,0,0:0:0:0:
109,192,62316,1,0,0:0:0:0:
256,192,62316,1,0,0:0:0:0:
329,192,62436,1,0,0:0:0:0:
402,192,62436,1,0,0:0:0:0:
109,192,62556,1,0,0:0:0:0:
182,192,62556,1,0,0:0:0:0:
329,192,62676,128,0,63156:0:0:0:0:
475,192,62676,1,0,0:0:0:0:
36,192,62676,1,0,0:0:0:0:
402,192,62916,1,0,0:0:0:0:
182,192,62916,1,0,0:0:0:0:
256,192,63036,1,0,0:0:0:0:
109,192,63156,128,0,63636:0:0:0:0:
36,192,63156,1,0,0:0:0:0:
475,192,63156,1,0,0:0:0:0:
329,192,63396,1,0,0:0:0:0:
182,192,63396,1,0,0:0:0:0:
256,192,63516,1,0,0:0:0:0:
402,192,63636,128,0,64116:0:0:0:0:
36,192,63636,1,0,0:0:0:0:
475,192,63636,1,0,0:0:0:0:
109,192,63876,1,0,0:0:0:0:
329,192,63876,1,0,0:0:0:0:
256,192,63996,1,0,0:0:0:0:
182,192,64116,128,0,64596:0:0:0:0:
475,192,64116,1,0,0:0:0:0:
36,192,64116,1,0,0:0:0:0:
329,192,64236,1,0,0:0:0:0:
402,192,64236,1,0,0:0:0:0:
109,192,64356,1,0,0:0:0:0:
36,192,64356,1,0,0:0:0:0:
256,192,64476,1,0,0:0:0:0:
329,192,64476,1,0,0:0:0:0:
402,192,64596,128,0,64836:0:0:0:0:
36,192,64596,1,0,0:0:0:0:
475,192,64596,1,0,0:0:0:0:
329,192,64836,128,0,65076:0:0:0:0:
109,192,64836,1,0,0:0:0:0:
256,192,64956,1,0,0:0:0:0:
109,192,65076,128,0,65316:0:0:0:0:
182,192,65076,1,0,0:0:0:0:
475,192,65076,1,0,0:0:0:0:
182,192,65316,128,0,65556:0:0:0:0:
402,192,65316,1,0,0:0:0:0:
36,192,65436,1,0,0:0:0:0:
256,192,65556,128,0,66036:0:0:0:0:
329,192,65556,1,0,0:0:0:0:
475,192,65556,1,0,0:0:0:0:
36,192,65796,1,0,0:0:0:0:
402,192,65796,1,0,0:0:0:0:
182,192,65916,1,0,0:0:0:0:
109,192,66036,1,0,0:0:0:0:
475,192,66036,1,0,0:0:0:0:
36,192,66036,1,0,0:0:0:0:
329,192,66156,1,0,0:0:0:0:
402,192,66156,1,0,0:0:0:0:
182,192,66276,1,0,0:0:0:0:
109,192,66276,1,0,0:0:0:0:
256,192,66396,1,0,0:0:0:0:
329,192,66396,1,0,0:0:0:0:
36,192,66516,128,0,66996:0:0:0:0:
182,192,66516,1,0,0:0:0:0:
475,192,66516,1,0,0:0:0:0:
402,192,66756,1,0,0:0:0:0:
109,192,66756,1,0,0:0:0:0:
256,192,66876,1,0,0:0:0:0:
329,192,66996,1,0,0:0:0:0:
475,192,66996,1,0,0:0:0:0:
109,192,66996,128,0,67476:0:0:0:0:
402,192,67236,1,0,0:0:0:0:
256,192,67236,1,0,0:0:0:0:
329,192,67356,1,0,0:0:0:0:
182,192,67476,128,0,67956:0:0:0:0:
36,192,67476,1,0,0:0:0:0:
475,192,67476,1,0,0:0:0:0:
109,192,67716,1,0,0:0:0:0:
402,192,67716,1,0,0:0:0:0:
256,192,67836,1,0,0:0:0:0:
36,192,67956,1,0,0:0:0:0:
329,192,67956,1,0,0:0:0:0:
475,192,67956,1,0,0:0:0:0:
109,192,68076,1,0,0:0:0:0:
256,192,68076,1,0,0:0:0:0:
329,192,68196,1,0,0:0:0:0:
402,192,68196,1,0,0:0:0:0:
182,192,68316,1,0,0:0:0:0:
109,192,68316,1,0,0:0:0:0:
329,192,68436,1,0,0:0:0:0:
36,192,68436,1,0,0:0:0:0:
475,192,68436,128,0,68916:0:0:0:0:
109,192,68676,1,0,0:0:0:0:
402,192,68676,1,0,0:0:0:0:
256,192,68796,1,0,0:0:0:0:
402,192,68916,128,0,69396:0:0:0:0:
182,192,68916,1,0,0:0:0:0:
36,192,68916,1,0,0:0:0:0:
109,192,69156,1,0,0:0:0:0:
256,192,69156,1,0,0:0:0:0:
182,192,69276,1,0,0:0:0:0:
36,192,69396,1,0,0:0:0:0:
329,192,69396,128,0,69876:0:0:0:0:
475,192,69396,1,0,0:0:0:0:
109,192,69636,1,0,0:0:0:0:
402,192,69636,1,0,0:0:0:0:
256,192,69756,1,0,0:0:0:0:
475,192,69876,1,0,0:0:0:0:
182,192,69876,1,0,0:0:0:0:
36,192,69876,1,0,0:0:0:0:
402,192,69996,1,0,0:0:0:0:
256,192,69996,1,0,0:0:0:0:
182,192,70116,1,0,0:0:0:0:
109,192,70116,1,0,0:0:0:0:
329,192,70236,1,0,0:0:0:0:
402,192,70236,1,0,0:0:0:0:
182,192,70356,1,0,0:0:0:0:
36,192,70356,128,0,70836:0:0:0:0:
475,192,70356,1,0,0:0:0:0:
329,192,70596,1,0,0:0:0:0:
109,192,70596,1,0,0:0:0:0:
256,192,70716,1,0,0:0:0:0:
182,192,70836,1,0,0:0:0:0:
402,192,70836,1,0,0:0:0:0:
475,192,70836,128,0,71316:0:0:0:0:
329,192,71076,1,0,0:0:0:0:
109,192,71076,1,0,0:0:0:0:
256,192,71196,1,0,0:0:0:0:
402,192,71316,1,0,0:0:0:0:
182,192,71316,128,0,71796:0:0:0:0:
36,192,71316,1,0,0:0:0:0:
402,192,71556,1,0,0:0:0:0:
109,192,71556,1,0,0:0:0:0:
256,192,71676,1,0,0:0:0:0:
475,192,71796,1,0,0:0:0:0:
36,192,71796,1,0,0:0:0:0:
329,192,71796,128,0,72276:0:0:0:0:
109,192,71916,1,0,0:0:0:0:
402,192,71916,1,0,0:0:0:0:
256,192,72036,1,0,0:0:0:0:
182,192,72036,1,0,0:0:0:0:
402,192,72156,1,0,0:0:0:0:
109,192,72156,1,0,0:0:0:0:
36,192,72276,1,0,0:0:0:0:
475,192,72276,1,0,0:0:0:0:
256,192,72276,128,0,73236:0:0:0:0:
402,192,72516,1,0,0:0:0:0:
109,192,72516,1,0,0:0:0:0:
329,192,72636,1,0,0:0:0:0:
182,192,72756,1,0,0:0:0:0:
475,192,72756,1,0,0:0:0:0:
36,192,72756,1,0,0:0:0:0:
109,192,72996,1,0,0:0:0:0:
329,192,72996,1,0,0:0:0:0:
182,192,73116,1,0,0:0:0:0:
402,192,73236,128,0,74196:0:0:0:0:
475,192,73236,1,0,0:0:0:0:
36,192,73236,1,0,0:0:0:0:
329,192,73476,1,0,0:0:0:0:
182,192,73476,1,0,0:0:0:0:
256,192,73596,1,0,0:0:0:0:
109,192,73716,128,0,74196:0:0:0:0:
36,192,73716,1,0,0:0:0:0:
475,192,73716,1,0,0:0:0:0:
182,192,73836,1,0,0:0:0:0:
256,192,73836,1,0,0:0:0:0:
329,192,73956,1,0,0:0:0:0:
36,192,73956,1,0,0:0:0:0:
256,192,74076,1,0,0:0:0:0:
329,192,74196,1,0,0:0:0:0:
182,192,74196,1,0,0:0:0:0:
36,192,74196,1,0,0:0:0:0:
475,192,74196,128,0,74676:0:0:0:0:
256,192,74436,1,0,0:0:0:0:
402,192,74436,1,0,0:0:0:0:
109,192,74556,1,0,0:0:0:0:
182,192,74676,1,0,0:0:0:0:
329,192,74676,1,0,0:0:0:0:
402,192,74676,128,0,75156:0:0:0:0:
109,192,74916,1,0,0:0:0:0:
475,192,74916,1,0,0:0:0:0:
256,192,75036,1,0,0:0:0:0:
329,192,75156,128,0,75636:0:0:0:0:
182,192,75156,1,0,0:0:0:0:
36,192,75156,128,0,75236:0:0:0:0:
256,192,75316,1,0,0:0:0:0:
109,192,75316,128,0,75396:0:0:0:0:
402,192,75476,1,0,0:0:0:0:
182,192,75476,128,0,75556:0:0:0:0:
475,192,75636,1,0,0:0:0:0:
36,192,75636,1,0,0:0:0:0:
256,192,75636,128,0,75716:0:0:0:0:
402,192,75796,1,0,0:0:0:0:
182,192,75796,128,0,75876:0:0:0:0:
329,192,75956,1,0,0:0:0:0:
109,192,75956,128,0,76036:0:0:0:0:
256,192,76116,1,0,0:0:0:0:
475,192,76116,1,0,0:0:0:0:
36,192,76116,128,0,76596:0:0:0:0:
256,192,76356,1,0,0:0:0:0:
109,192,76356,1,0,0:0:0:0:
402,192,76476,1,0,0:0:0:0:
109,192,76596,128,0,77076:0:0:0:0:
182,192,76596,1,0,0:0:0:0:
329,192,76596,1,0,0:0:0:0:
402,192,76836,1,0,0:0:0:0:
36,192,76836,1,0,0:0:0:0:
256,192,76956,1,0,0:0:0:0:
182,192,77076,128,0,77556:0:0:0:0:
36,192,77076,1,0,0:0:0:0:
329,192,77076,1,0,0:0:0:0:
475,192,77076,128,0,77156:0:0:0:0:
256,192,77236,1,0,0:0:0:0:
402,192,77236,128,0,77316:0:0:0:0:
109,192,77396,1,0,0:0:0:0:
329,192,77396,128,0,77476:0:0:0:0:
36,192,77556,1,0,0:0:0:0:
256,192,77556,128,0,77636:0:0:0:0:
109,192,77716,1,0,0:0:0:0:
329,192,77716,128,0,77796:0:0:0:0:
182,192,77876,1,0,0:0:0:0:
402,192,77876,128,0,77956:0:0:0:0:
475,192,78036,1,0,0:0:0:0:
329,192,78036,128,0,78516:0:0:0:0:
109,192,78036,1,0,0:0:0:0:
36,192,78276,1,0,0:0:0:0:
256,192,78276,1,0,0:0:0:0:
109,192,78396,1,0,0:0:0:0:
182,192,78516,1,0,0:0:0:0:
402,192,78516,128,0,78996:0:0:0:0:
475,192,78516,1,0,0:0:0:0:
109,192,78756,1,0,0:0:0:0:
329,192,78756,1,0,0:0:0:0:
256,192,78876,1,0,0:0:0:0:
475,192,78996,128,0,79476:0:0:0:0:
36,192,78996,1,0,0:0:0:0:
182,192,78996,128,0,79076:0:0:0:0:
109,192,79156,1,0,0:0:0:0:
256,192,79156,128,0,79236:0:0:0:0:
182,192,79316,1,0,0:0:0:0:
329,192,79316,128,0,79396:0:0:0:0:
256,192,79476,1,0,0:0:0:0:
109,192,79476,1,0,0:0:0:0:
402,192,79476,128,0,79556:0:0:0:0:
182,192,79636,1,0,0:0:0:0:
329,192,79636,128,0,79716:0:0:0:0:
109,192,79796,1,0,0:0:0:0:
256,192,79796,128,0,79876:0:0:0:0:
182,192,79956,128,0,80436:0:0:0:0:
36,192,79956,1,0,0:0:0:0:
329,192,79956,1,0,0:0:0:0:
256,192,80196,1,0,0:0:0:0:
475,192,80196,1,0,0:0:0:0:
402,192,80316,1,0,0:0:0:0:
36,192,80436,1,0,0:0:0:0:
109,192,80436,128,0,80916:0:0:0:0:
329,192,80436,1,0,0:0:0:0:
182,192,80676,1,0,0:0:0:0:
402,192,80676,1,0,0:0:0:0:
256,192,80796,1,0,0:0:0:0:
36,192,80916,128,0,81396:0:0:0:0:
475,192,80916,128,0,81396:0:0:0:0:
329,192,80916,1,0,0:0:0:0:
109,192,81156,1,0,0:0:0:0:
402,192,81156,1,0,0:0:0:0:
256,192,81276,1,0,0:0:0:0:
182,192,81396,128,0,81876:0:0:0:0:
329,192,81396,128,0,81876:0:0:0:0:
109,192,81396,1,0,0:0:0:0:
402,192,81636,1,0,0:0:0:0:
36,192,81636,1,0,0:0:0:0:
256,192,81756,1,0,0:0:0:0:
402,192,81876,1,0,0:0:0:0:
109,192,81876,1,0,0:0:0:0:
475,192,81876,128,0,82116:0:0:0:0:
36,192,82116,1,0,0:0:0:0:
256,192,82116,1,0,0:0:0:0:
182,192,82236,1,0,0:0:0:0:
36,192,82356,1,0,0:0:0:0:
475,192,82356,1,0,0:0:0:0:
329,192,82356,128,0,82436:0:0:0:0:
475,192,82516,1,0,0:0:0:0:
329,192,82516,128,0,82596:0:0:0:0:
36,192,82596,1,0,0:0:0:0:
402,192,82676,1,0,0:0:0:0:
256,192,82676,128,0,82756:0:0:0:0:
109,192,82716,1,0,0:0:0:0:
402,192,82836,1,0,0:0:0:0:
36,192,82836,1,0,0:0:0:0:
256,192,82836,128,0,82916:0:0:0:0:
329,192,82996,1,0,0:0:0:0:
182,192,82996,128,0,83076:0:0:0:0:
475,192,83076,1,0,0:0:0:0:
329,192,83156,1,0,0:0:0:0:
182,192,83156,128,0,83236:0:0:0:0:
256,192,83196,1,0,0:0:0:0:
475,192,83316,128,0,83796:0:0:0:0:
36,192,83316,128,0,83796:0:0:0:0:
109,192,83316,1,0,0:0:0:0:
402,192,83316,1,0,0:0:0:0:
329,192,83556,1,0,0:0:0:0:
182,192,83556,1,0,0:0:0:0:
256,192,83676,1,0,0:0:0:0:
109,192,83796,1,0,0:0:0:0:
402,192,83796,1,0,0:0:0:0:
182,192,83796,128,0,84036:0:0:0:0:
475,192,84036,1,0,0:0:0:0:
256,192,84036,1,0,0:0:0:0:
329,192,84156,1,0,0:0:0:0:
475,192,84276,1,0,0:0:0:0:
36,192,84276,1,0,0:0:0:0:
182,192,84276,128,0,84356:0:0:0:0:
36,192,84436,1,0,0:0:0:0:
182,192,84436,128,0,84516:0:0:0:0:
475,192,84516,1,0,0:0:0:0:
109,192,84596,1,0,0:0:0:0:
256,192,84596,128,0,84676:0:0:0:0:
402,192,84636,1,0,0:0:0:0:
475,192,84756,1,0,0:0:0:0:
109,192,84756,1,0,0:0:0:0:
256,192,84756,128,0,84836:0:0:0:0:
182,192,84916,1,0,0:0:0:0:
329,192,84916,128,0,84996:0:0:0:0:
36,192,84996,1,0,0:0:0:0:
182,192,85076,1,0,0:0:0:0:
329,192,85076,128,0,85156:0:0:0:0:
256,192,85116,1,0,0:0:0:0:
36,192,85236,128,0,85716:0:0:0:0:
109,192,85236,1,0,0:0:0:0:
402,192,85236,1,0,0:0:0:0:
475,192,85236,128,0,85716:0:0:0:0:
329,192,85476,1,0,0:0:0:0:
182,192,85476,1,0,0:0:0:0:
256,192,85596,1,0,0:0:0:0:
109,192,85716,1,0,0:0:0:0:
402,192,85716,1,0,0:0:0:0:
329,192,85716,128,0,85956:0:0:0:0:
182,192,85956,1,0,0:0:0:0:
36,192,85956,1,0,0:0:0:0:
256,192,86076,1,0,0:0:0:0:
329,192,86196,1,0,0:0:0:0:
475,192,86196,1,0,0:0:0:0:
109,192,86196,128,0,86276:0:0:0:0:
329,192,86356,1,0,0:0:0:0:
109,192,86356,128,0,86436:0:0:0:0:
256,192,86436,1,0,0:0:0:0:
182,192,86516,1,0,0:0:0:0:
402,192,86516,128,0,86596:0:0:0:0:
36,192,86556,1,0,0:0:0:0:
182,192,86676,1,0,0:0:0:0:
109,192,86676,1,0,0:0:0:0:
402,192,86676,128,0,86756:0:0:0:0:
475,192,86836,1,0,0:0:0:0:
256,192,86836,128,0,86916:0:0:0:0:
36,192,86916,1,0,0:0:0:0:
475,192,86996,1,0,0:0:0:0:
256,192,86996,128,0,87076:0:0:0:0:
182,192,87036,1,0,0:0:0:0:
329,192,87156,1,0,0:0:0:0:
109,192,87156,128,0,87636:0:0:0:0:
402,192,87156,128,0,87636:0:0:0:0:
36,192,87156,1,0,0:0:0:0:
329,192,87396,1,0,0:0:0:0:
182,192,87396,1,0,0:0:0:0:
256,192,87516,1,0,0:0:0:0:
36,192,87636,1,0,0:0:0:0:
475,192,87636,1,0,0:0:0:0:
182,192,87636,128,0,87876:0:0:0:0:
329,192,87876,1,0,0:0:0:0:
475,192,87876,1,0,0:0:0:0:
109,192,87996,1,0,0:0:0:0:
256,192,88116,128,0,89076:0:0:0:0:
182,192,88116,1,0,0:0:0:0:
402,192,88116,128,0,88196:0:0:0:0:
182,192,88276,1,0,0:0:0:0:
402,192,88276,128,0,88356:0:0:0:0:
475,192,88356,1,0,0:0:0:0:
36,192,88356,1,0,0:0:0:0:
329,192,88436,1,0,0:0:0:0:
109,192,88436,128,0,88516:0:0:0:0:
402,192,88476,1,0,0:0:0:0:
329,192,88596,1,0,0:0:0:0:
36,192,88596,1,0,0:0:0:0:
109,192,88596,128,0,88676:0:0:0:0:
182,192,88756,1,0,0:0:0:0:
402,192,88756,128,0,88836:0:0:0:0:
36,192,88836,1,0,0:0:0:0:
182,192,88916,1,0,0:0:0:0:
402,192,88916,128,0,88996:0:0:0:0:
109,192,88956,1,0,0:0:0:0:
36,192,89076,1,0,0:0:0:0:
475,192,89076,128,0,89196:0:0:0:0:
182,192,89196,1,0,0:0:0:0:
329,192,89196,128,0,89316:0:0:0:0:
475,192,89316,1,0,0:0:0:0:
36,192,89316,128,0,89436:0:0:0:0:
329,192,89436,1,0,0:0:0:0:
182,192,89436,128,0,89556:0:0:0:0:
402,192,89676,128,0,93724:0:0:0:0:
256,192,90724,128,0,93724:0:0:0:0:
109,192,91390,128,0,93724:0:0:0:0:
329,192,93724,1,0,0:0:0:0:
182,192,93724,1,0,0:0:0:0:
36,192,93724,1,0,0:0:0:0:
475,192,93724,128,0,99057:0:0:0:0:
402,192,94390,1,0,0:0:0:0:
256,192,94390,1,0,0:0:0:0:
36,192,94390,1,0,0:0:0:0:
329,192,94890,1,0,0:0:0:0:
402,192,94890,1,0,0:0:0:0:
182,192,95057,1,0,0:0:0:0:
109,192,95057,1,0,0:0:0:0:
36,192,95724,1,0,0:0:0:0:
256,192,95724,1,0,0:0:0:0:
402,192,95724,1,0,0:0:0:0:
402,192,96224,1,0,0:0:0:0:
329,192,96224,1,0,0:0:0:0:
36,192,96390,128,0,97724:0:0:0:0:
182,192,96390,1,0,0:0:0:0:
109,192,96390,1,0,0:0:0:0:
256,192,97057,1,0,0:0:0:0:
109,192,97057,1,0,0:0:0:0:
402,192,97057,1,0,0:0:0:0:
182,192,97390,1,0,0:0:0:0:
329,192,97557,1,0,0:0:0:0:
402,192,97557,1,0,0:0:0:0:
182,192,97724,128,0,99057:0:0:0:0:
256,192,97724,1,0,0:0:0:0:
109,192,97724,1,0,0:0:0:0:
36,192,98390,1,0,0:0:0:0:
329,192,98390,1,0,0:0:0:0:
402,192,98390,1,0,0:0:0:0:
329,192,98890,1,0,0:0:0:0:
402,192,98890,1,0,0:0:0:0:
36,192,99057,128,0,104390:0:0:0:0:
256,192,99057,128,0,101724:0:0:0:0:
109,192,99057,1,0,0:0:0:0:
109,192,99724,1,0,0:0:0:0:
475,192,99724,1,0,0:0:0:0:
402,192,99724,1,0,0:0:0:0:
329,192,100224,1,0,0:0:0:0:
402,192,100224,1,0,0:0:0:0:
182,192,100390,1,0,0:0:0:0:
109,192,100390,1,0,0:0:0:0:
329,192,100724,1,0,0:0:0:0:
402,192,101057,1,0,0:0:0:0:
475,192,101057,1,0,0:0:0:0:
109,192,101057,1,0,0:0:0:0:
402,192,101557,1,0,0:0:0:0:
475,192,101557,1,0,0:0:0:0:
329,192,101724,128,0,103057:0:0:0:0:
109,192,101724,1,0,0:0:0:0:
182,192,101724,1,0,0:0:0:0:
256,192,102390,1,0,0:0:0:0:
109,192,102390,1,0,0:0:0:0:
402,192,102390,1,0,0:0:0:0:
182,192,102890,1,0,0:0:0:0:
256,192,102890,1,0,0:0:0:0:
475,192,103057,128,0,104390:0:0:0:0:
402,192,103057,1,0,0:0:0:0:
109,192,103057,1,0,0:0:0:0:
256,192,103724,1,0,0:0:0:0:
109,192,103724,1,0,0:0:0:0:
402,192,103724,1,0,0:0:0:0:
109,192,104224,1,0,0:0:0:0:
182,192,104224,1,0,0:0:0:0:
256,192,104390,128,0,109724:0:0:0:0:
329,192,104390,128,0,107057:0:0:0:0:
402,192,104390,1,0,0:0:0:0:
109,192,104724,1,0,0:0:0:0:
36,192,105057,1,0,0:0:0:0:
182,192,105057,1,0,0:0:0:0:
475,192,105057,1,0,0:0:0:0:
402,192,105390,1,0,0:0:0:0:
109,192,105557,1,0,0:0:0:0:
36,192,105557,1,0,0:0:0:0:
475,192,105724,1,0,0:0:0:0:
402,192,105724,1,0,0:0:0:0:
109,192,106057,1,0,0:0:0:0:
182,192,106390,1,0,0:0:0:0:
475,192,106390,1,0,0:0:0:0:
36,192,106390,1,0,0:0:0:0:
36,192,106890,1,0,0:0:0:0:
109,192,106890,1,0,0:0:0:0:
402,192,107057,128,0,108390:0:0:0:0:
475,192,107057,1,0,0:0:0:0:
182,192,107390,1,0,0:0:0:0:
109,192,107724,1,0,0:0:0:0:
329,192,107724,1,0,0:0:0:0:
475,192,107724,1,0,0:0:0:0:
36,192,108224,1,0,0:0:0:0:
182,192,108224,1,0,0:0:0:0:
475,192,108390,128,0,109724:0:0:0:0:
329,192,108390,1,0,0:0:0:0:
109,192,108724,1,0,0:0:0:0:
329,192,109057,1,0,0:0:0:0:
182,192,109057,1,0,0:0:0:0:
36,192,109057,1,0,0:0:0:0:
329,192,109557,1,0,0:0:0:0:
402,192,109557,1,0,0:0:0:0:
36,192,109724,128,0,112390:0:0:0:0:
109,192,109724,128,0,112390:0:0:0:0:
182,192,109724,1,0,0:0:0:0:
402,192,110057,1,0,0:0:0:0:
475,192,110390,1,0,0:0:0:0:
329,192,110390,1,0,0:0:0:0:
182,192,110390,1,0,0:0:0:0:
256,192,110724,1,0,0:0:0:0:
329,192,110890,1,0,0:0:0:0:
402,192,110890,1,0,0:0:0:0:
329,192,111057,1,0,0:0:0:0:
402,192,111057,1,0,0:0:0:0:
256,192,111390,1,0,0:0:0:0:
329,192,111724,1,0,0:0:0:0:
475,192,111724,1,0,0:0:0:0:
182,192,111724,1,0,0:0:0:0:
402,192,112057,1,0,0:0:0:0:
182,192,112224,1,0,0:0:0:0:
256,192,112224,1,0,0:0:0:0:
475,192,112390,128,0,115057:0:0:0:0:
402,192,112390,128,0,115057:0:0:0:0:
329,192,112390,1,0,0:0:0:0:
256,192,112724,1,0,0:0:0:0:
36,192,113057,1,0,0:0:0:0:
182,192,113057,1,0,0:0:0:0:
329,192,113057,1,0,0:0:0:0:
109,192,113557,1,0,0:0:0:0:
182,192,113557,1,0,0:0:0:0:
182,192,113724,1,0,0:0:0:0:
109,192,113724,1,0,0:0:0:0:
256,192,114057,1,0,0:0:0:0:
182,192,114390,1,0,0:0:0:0:
36,192,114390,1,0,0:0:0:0:
329,192,114390,1,0,0:0:0:0:
329,192,114890,1,0,0:0:0:0:
256,192,114890,1,0,0:0:0:0:
36,192,115057,128,0,120390:0:0:0:0:
109,192,115057,1,0,0:0:0:0:
182,192,115057,1,0,0:0:0:0:
329,192,115224,1,0,0:0:0:0:
402,192,115224,1,0,0:0:0:0:
109,192,115390,1,0,0:0:0:0:
182,192,115390,1,0,0:0:0:0:
329,192,115557,1,0,0:0:0:0:
402,192,115557,1,0,0:0:0:0:
256,192,115724,1,0,0:0:0:0:
182,192,115724,1,0,0:0:0:0:
109,192,115724,1,0,0:0:0:0:
475,192,116057,1,0,0:0:0:0:
109,192,116390,1,0,0:0:0:0:
182,192,116390,1,0,0:0:0:0:
329,192,116557,1,0,0:0:0:0:
402,192,116557,1,0,0:0:0:0:
256,192,116724,1,0,0:0:0:0:
475,192,117057,1,0,0:0:0:0:
329,192,117057,1,0,0:0:0:0:
182,192,117057,1,0,0:0:0:0:
256,192,117390,1,0,0:0:0:0:
475,192,117724,128,0,119057:0:0:0:0:
402,192,117724,1,0,0:0:0:0:
109,192,117724,1,0,0:0:0:0:
256,192,118057,1,0,0:0:0:0:
402,192,118390,1,0,0:0:0:0:
329,192,118390,1,0,0:0:0:0:
182,192,118390,1,0,0:0:0:0:
256,192,118724,1,0,0:0:0:0:
402,192,119057,128,0,120390:0:0:0:0:
109,192,119057,1,0,0:0:0:0:
182,192,119057,1,0,0:0:0:0:
256,192,119224,1,0,0:0:0:0:
329,192,119224,1,0,0:0:0:0:
182,192,119390,1,0,0:0:0:0:
329,192,119724,1,0,0:0:0:0:
475,192,119724,1,0,0:0:0:0:
109,192,119724,1,0,0:0:0:0:
256,192,120057,1,0,0:0:0:0:
329,192,120390,128,0,123057:0:0:0:0:
182,192,120390,128,0,123057:0:0:0:0:
475,192,120390,1,0,0:0:0:0:
109,192,120557,1,0,0:0:0:0:
36,192,120557,1,0,0:0:0:0:
402,192,120724,1,0,0:0:0:0:
475,192,120724,1,0,0:0:0:0:
109,192,120890,1,0,0:0:0:0:
36,192,120890,1,0,0:0:0:0:
256,192,121057,1,0,0:0:0:0:
402,192,121057,1,0,0:0:0:0:
475,192,121057,1,0,0:0:0:0:
109,192,121390,1,0,0:0:0:0:
475,192,121724,1,0,0:0:0:0:
402,192,121724,1,0,0:0:0:0:
109,192,121890,1,0,0:0:0:0:
36,192,121890,1,0,0:0:0:0:
402,192,122057,1,0,0:0:0:0:
475,192,122390,1,0,0:0:0:0:
36,192,122390,1,0,0:0:0:0:
256,192,122390,1,0,0:0:0:0:
109,192,122724,1,0,0:0:0:0:
475,192,123057,128,0,125724:0:0:0:0:
36,192,123057,128,0,125724:0:0:0:0:
256,192,123057,1,0,0:0:0:0:
402,192,123224,1,0,0:0:0:0:
329,192,123224,1,0,0:0:0:0:
182,192,123390,1,0,0:0:0:0:
109,192,123390,1,0,0:0:0:0:
329,192,123557,1,0,0:0:0:0:
402,192,123557,1,0,0:0:0:0:
256,192,123724,1,0,0:0:0:0:
182,192,123724,1,0,0:0:0:0:
109,192,123724,1,0,0:0:0:0:
329,192,124057,1,0,0:0:0:0:
109,192,124390,1,0,0:0:0:0:
182,192,124390,1,0,0:0:0:0:
329,192,124557,1,0,0:0:0:0:
402,192,124557,1,0,0:0:0:0:
256,192,124724,1,0,0:0:0:0:
182,192,124724,1,0,0:0:0:0:
109,192,124724,1,0,0:0:0:0:
256,192,125057,1,0,0:0:0:0:
329,192,125057,1,0,0:0:0:0:
402,192,125057,1,0,0:0:0:0:
182,192,125390,1,0,0:0:0:0:
109,192,125724,1,0,0:0:0:0:
256,192,125724,128,0,131057:0:0:0:0:
402,192,125724,128,0,128390:0:0:0:0:
109,192,128390,128,0,129724:0:0:0:0:
36,192,128390,1,0,0:0:0:0:
182,192,129724,128,0,131057:0:0:0:0:
329,192,129724,1,0,0:0:0:0:
475,192,131057,128,0,133724:0:0:0:0:
36,192,131057,1,0,0:0:0:0:
329,192,131612,1,0,0:0:0:0:
182,192,131724,1,0,0:0:0:0:
36,192,131835,128,0,136390:0:0:0:0:
329,192,133724,128,0,135057:0:0:0:0:
256,192,133724,1,0,0:0:0:0:
182,192,135057,128,0,136390:0:0:0:0:
109,192,135057,1,0,0:0:0:0:
256,192,136390,128,0,141724:0:0:0:0:
475,192,136390,128,0,139057:0:0:0:0:
402,192,136390,1,0,0:0:0:0:
402,192,139057,128,0,140390:0:0:0:0:
109,192,139057,1,0,0:0:0:0:
329,192,140390,128,0,141724:0:0:0:0:
36,192,140390,1,0,0:0:0:0:
36,192,141724,128,0,146390:0:0:0:0:
109,192,141724,128,0,144390:0:0:0:0:
475,192,141724,1,0,0:0:0:0:
475,192,143057,128,0,146390:0:0:0:0:
182,192,144390,128,0,146390:0:0:0:0:
329,192,144390,128,0,146390:0:0:0:0:
256,192,144390,1,0,0:0:0:0:
109,192,146390,1,0,0:0:0:0:
256,192,146390,1,0,0:0:0:0:
402,192,146390,1,0,0:0:0:0:
402,192,146557,1,0,0:0:0:0:
256,192,146557,1,0,0:0:0:0:
109,192,146557,1,0,0:0:0:0:
109,192,146890,1,0,0:0:0:0:
256,192,146890,1,0,0:0:0:0:
402,192,146890,1,0,0:0:0:0:
329,192,147057,1,0,0:0:0:0:
182,192,147057,1,0,0:0:0:0:
475,192,147057,128,0,149724:0:0:0:0:
36,192,147057,128,0,152390:0:0:0:0:
256,192,147390,1,0,0:0:0:0:
182,192,147724,1,0,0:0:0:0:
109,192,147724,1,0,0:0:0:0:
329,192,147724,1,0,0:0:0:0:
256,192,148057,1,0,0:0:0:0:
402,192,148224,1,0,0:0:0:0:
329,192,148224,1,0,0:0:0:0:
182,192,148390,1,0,0:0:0:0:
109,192,148390,1,0,0:0:0:0:
402,192,149057,1,0,0:0:0:0:
329,192,149057,1,0,0:0:0:0:
182,192,149057,1,0,0:0:0:0:
109,192,149557,1,0,0:0:0:0:
182,192,149557,1,0,0:0:0:0:
402,192,149724,128,0,151057:0:0:0:0:
329,192,149724,1,0,0:0:0:0:
256,192,150057,1,0,0:0:0:0:
182,192,150390,1,0,0:0:0:0:
109,192,150390,1,0,0:0:0:0:
475,192,150390,1,0,0:0:0:0:
109,192,150890,1,0,0:0:0:0:
182,192,150890,1,0,0:0:0:0:
329,192,151057,128,0,152390:0:0:0:0:
256,192,151057,1,0,0:0:0:0:
182,192,151557,1,0,0:0:0:0:
109,192,151557,1,0,0:0:0:0:
256,192,151724,1,0,0:0:0:0:
475,192,151724,1,0,0:0:0:0:
402,192,151724,1,0,0:0:0:0:
182,192,152057,1,0,0:0:0:0:
109,192,152057,1,0,0:0:0:0:
402,192,152057,1,0,0:0:0:0:
402,192,152224,1,0,0:0:0:0:
182,192,152224,1,0,0:0:0:0:
109,192,152224,1,0,0:0:0:0:
256,192,152390,128,0,157724:0:0:0:0:
475,192,152390,128,0,155057:0:0:0:0:
36,192,155057,128,0,156390:0:0:0:0:
109,192,155057,1,0,0:0:0:0:
402,192,156390,128,0,157724:0:0:0:0:
329,192,156390,1,0,0:0:0:0:
475,192,157724,1,0,0:0:0:0:
182,192,157724,1,0,0:0:0:0:
36,192,157724,128,0,163057:0:0:0:0:
109,192,157724,128,0,160390:0:0:0:0:
329,192,158057,1,0,0:0:0:0:
256,192,158390,1,0,0:0:0:0:
182,192,158390,1,0,0:0:0:0:
475,192,158390,1,0,0:0:0:0:
329,192,158724,1,0,0:0:0:0:
475,192,158890,1,0,0:0:0:0:
402,192,158890,1,0,0:0:0:0:
256,192,159057,1,0,0:0:0:0:
182,192,159057,1,0,0:0:0:0:
329,192,159390,1,0,0:0:0:0:
475,192,159724,1,0,0:0:0:0:
182,192,159724,1,0,0:0:0:0:
256,192,159724,1,0,0:0:0:0:
182,192,160224,1,0,0:0:0:0:
256,192,160224,1,0,0:0:0:0:
402,192,160390,128,0,161724:0:0:0:0:
329,192,160390,1,0,0:0:0:0:
475,192,160390,1,0,0:0:0:0:
182,192,160724,1,0,0:0:0:0:
256,192,161057,1,0,0:0:0:0:
109,192,161057,1,0,0:0:0:0:
475,192,161057,1,0,0:0:0:0:
329,192,161390,1,0,0:0:0:0:
182,192,161390,1,0,0:0:0:0:
256,192,161724,128,0,163057:0:0:0:0:
109,192,161724,1,0,0:0:0:0:
475,192,161724,1,0,0:0:0:0:
329,192,162057,1,0,0:0:0:0:
402,192,162390,1,0,0:0:0:0:
109,192,162390,1,0,0:0:0:0:
182,192,162390,1,0,0:0:0:0:
329,192,162724,1,0,0:0:0:0:
109,192,162890,1,0,0:0:0:0:
182,192,162890,1,0,0:0:0:0:
475,192,163057,128,0,165724:0:0:0:0:
402,192,163057,128,0,165724:0:0:0:0:
329,192,163057,1,0,0:0:0:0:
109,192,163390,1,0,0:0:0:0:
329,192,163724,1,0,0:0:0:0:
182,192,163724,1,0,0:0:0:0:
36,192,163724,1,0,0:0:0:0:
109,192,164057,1,0,0:0:0:0:
256,192,164224,1,0,0:0:0:0:
329,192,164224,1,0,0:0:0:0:
36,192,164390,1,0,0:0:0:0:
182,192,164390,1,0,0:0:0:0:
329,192,164724,1,0,0:0:0:0:
182,192,165057,1,0,0:0:0:0:
36,192,165057,1,0,0:0:0:0:
256,192,165057,1,0,0:0:0:0:
329,192,165557,1,0,0:0:0:0:
256,192,165557,1,0,0:0:0:0:
36,192,165724,128,0,168390:0:0:0:0:
109,192,165724,128,0,168390:0:0:0:0:
182,192,165724,1,0,0:0:0:0:
402,192,166057,1,0,0:0:0:0:
329,192,166390,1,0,0:0:0:0:
475,192,166390,1,0,0:0:0:0:
182,192,166390,1,0,0:0:0:0:
402,192,166890,1,0,0:0:0:0:
475,192,166890,1,0,0:0:0:0:
182,192,167057,1,0,0:0:0:0:
329,192,167057,1,0,0:0:0:0:
402,192,167390,1,0,0:0:0:0:
329,192,167724,1,0,0:0:0:0:
182,192,167724,1,0,0:0:0:0:
475,192,167724,1,0,0:0:0:0:
256,192,168390,128,0,173057:0:0:0:0:
329,192,168390,128,0,172390:0:0:0:0:
402,192,168390,128,0,171724:0:0:0:0:
182,192,168390,128,0,173724:0:0:0:0:
475,192,168390,128,0,171057:0:0:0:0:
256,192,174162,128,0,175876:0:0:0:0:
475,192,175876,128,0,178233:0:0:0:0:
36,192,175876,128,0,178233:0:0:0:0:
329,192,175876,1,0,0:0:0:0:
182,192,175876,1,0,0:0:0:0:
329,192,177590,1,0,0:0:0:0:
402,192,177590,1,0,0:0:0:0:
256,192,177697,1,0,0:0:0:0:
182,192,177697,1,0,0:0:0:0:
109,192,177697,1,0,0:0:0:0:
329,192,177912,1,0,0:0:0:0:
402,192,177912,1,0,0:0:0:0:
182,192,178019,1,0,0:0:0:0:
109,192,178019,1,0,0:0:0:0:
256,192,178233,1,0,0:0:0:0:
329,192,178233,1,0,0:0:0:0:
109,192,178447,128,0,179090:0:0:0:0:
402,192,178447,128,0,179090:0:0:0:0:
182,192,178447,1,0,0:0:0:0:
182,192,179090,128,0,182304:0:0:0:0:
329,192,179090,128,0,182304:0:0:0:0:
36,192,179090,1,0,0:0:0:0:
402,192,179304,1,0,0:0:0:0:
475,192,179304,1,0,0:0:0:0:
109,192,179519,1,0,0:0:0:0:
36,192,179519,1,0,0:0:0:0:
402,192,179733,1,0,0:0:0:0:
475,192,179733,1,0,0:0:0:0:
109,192,179947,1,0,0:0:0:0:
36,192,179947,1,0,0:0:0:0:
402,192,180162,1,0,0:0:0:0:
475,192,180162,1,0,0:0:0:0:
109,192,180376,1,0,0:0:0:0:
36,192,180376,1,0,0:0:0:0:
402,192,180590,1,0,0:0:0:0:
475,192,180590,1,0,0:0:0:0:
109,192,180804,1,0,0:0:0:0:
36,192,180804,1,0,0:0:0:0:
402,192,181019,1,0,0:0:0:0:
475,192,181019,1,0,0:0:0:0:
109,192,181233,1,0,0:0:0:0:
36,192,181233,1,0,0:0:0:0:
475,192,181447,1,0,0:0:0:0:
402,192,181447,1,0,0:0:0:0:
109,192,181662,1,0,0:0:0:0:
36,192,181662,1,0,0:0:0:0:
402,192,181876,1,0,0:0:0:0:
475,192,181876,1,0,0:0:0:0:
256,192,181983,1,0,0:0:0:0:
109,192,182090,1,0,0:0:0:0:
402,192,182197,1,0,0:0:0:0:
36,192,182197,1,0,0:0:0:0:
256,192,182304,1,0,0:0:0:0:
475,192,182412,1,0,0:0:0:0:
329,192,182519,1,0,0:0:0:0:
109,192,182519,1,0,0:0:0:0:
182,192,182626,1,0,0:0:0:0:
256,192,182733,128,0,185304:0:0:0:0:
475,192,182733,128,0,185304:0:0:0:0:
36,192,182733,1,0,0:0:0:0:
182,192,182840,1,0,0:0:0:0:
329,192,182947,1,0,0:0:0:0:
36,192,183054,1,0,0:0:0:0:
182,192,183162,1,0,0:0:0:0:
329,192,183269,1,0,0:0:0:0:
36,192,183376,1,0,0:0:0:0:
182,192,183483,1,0,0:0:0:0:
329,192,183590,1,0,0:0:0:0:
36,192,183697,1,0,0:0:0:0:
182,192,183804,1,0,0:0:0:0:
329,192,183912,1,0,0:0:0:0:
36,192,184019,1,0,0:0:0:0:
182,192,184126,1,0,0:0:0:0:
329,192,184233,1,0,0:0:0:0:
36,192,184340,1,0,0:0:0:0:
182,192,184447,1,0,0:0:0:0:
329,192,184554,1,0,0:0:0:0:
36,192,184662,1,0,0:0:0:0:
182,192,184769,1,0,0:0:0:0:
329,192,184876,1,0,0:0:0:0:
36,192,184983,1,0,0:0:0:0:
182,192,185090,1,0,0:0:0:0:
329,192,185197,1,0,0:0:0:0:
402,192,185304,128,0,185947:0:0:0:0:
109,192,185304,128,0,185947:0:0:0:0:
36,192,185304,1,0,0:0:0:0:
182,192,185412,1,0,0:0:0:0:
329,192,185519,1,0,0:0:0:0:
36,192,185626,1,0,0:0:0:0:
182,192,185733,1,0,0:0:0:0:
256,192,185840,1,0,0:0:0:0:
329,192,185947,128,0,187876:0:0:0:0:
36,192,185947,128,0,187876:0:0:0:0:
182,192,185947,1,0,0:0:0:0:
475,192,185947,1,0,0:0:0:0:
402,192,186376,128,0,187876:0:0:0:0:
109,192,186376,128,0,187876:0:0:0:0:
475,192,187019,128,0,187876:0:0:0:0:
182,192,187019,128,0,187876:0:0:0:0:
329,192,188733,1,0,0:0:0:0:
475,192,188733,1,0,0:0:0:0:
182,192,188840,1,0,0:0:0:0:
36,192,188840,1,0,0:0:0:0:
402,192,189054,1,0,0:0:0:0:
109,192,189054,1,0,0:0:0:0:
475,192,189269,1,0,0:0:0:0:
36,192,189269,1,0,0:0:0:0:
329,192,189376,1,0,0:0:0:0:
182,192,189376,1,0,0:0:0:0:
36,192,189590,128,0,190447:0:0:0:0:
256,192,189590,1,0,0:0:0:0:
402,192,189590,1,0,0:0:0:0:
182,192,189912,128,0,190447:0:0:0:0:
475,192,189912,1,0,0:0:0:0:
109,192,190233,128,0,190447:0:0:0:0:
402,192,190233,1,0,0:0:0:0:
475,192,190447,128,0,191304:0:0:0:0:
256,192,190447,1,0,0:0:0:0:
329,192,190447,1,0,0:0:0:0:
402,192,190662,128,0,191304:0:0:0:0:
182,192,190662,1,0,0:0:0:0:
329,192,190876,128,0,191304:0:0:0:0:
109,192,190876,1,0,0:0:0:0:
109,192,191019,1,0,0:0:0:0:
109,192,191162,1,0,0:0:0:0:
109,192,191304,1,0,0:0:0:0:
256,192,191304,1,0,0:0:0:0:
36,192,191304,1,0,0:0:0:0:
182,192,191412,1,0,0:0:0:0:
402,192,191519,1,0,0:0:0:0:
475,192,191519,1,0,0:0:0:0:
109,192,191626,1,0,0:0:0:0:
256,192,191733,1,0,0:0:0:0:
402,192,191840,1,0,0:0:0:0:
36,192,191947,1,0,0:0:0:0:
182,192,191947,1,0,0:0:0:0:
475,192,192054,1,0,0:0:0:0:
256,192,192162,1,0,0:0:0:0:
402,192,192162,1,0,0:0:0:0:
329,192,192162,1,0,0:0:0:0:
182,192,192269,1,0,0:0:0:0:
36,192,192376,1,0,0:0:0:0:
109,192,192376,1,0,0:0:0:0:
402,192,192483,1,0,0:0:0:0:
109,192,192590,1,0,0:0:0:0:
256,192,192590,128,0,193019:0:0:0:0:
329,192,192697,1,0,0:0:0:0:
36,192,192804,1,0,0:0:0:0:
475,192,192804,1,0,0:0:0:0:
182,192,192912,1,0,0:0:0:0:
329,192,193019,128,0,193876:0:0:0:0:
182,192,193340,1,0,0:0:0:0:
475,192,193340,128,0,193876:0:0:0:0:
402,192,193662,128,0,193876:0:0:0:0:
109,192,193662,1,0,0:0:0:0:
182,192,193876,1,0,0:0:0:0:
36,192,193876,128,0,194733:0:0:0:0:
256,192,193876,1,0,0:0:0:0:
109,192,194090,128,0,194733:0:0:0:0:
329,192,194090,1,0,0:0:0:0:
182,192,194304,128,0,194733:0:0:0:0:
402,192,194304,1,0,0:0:0:0:
256,192,194304,128,0,194412:0:0:0:0:
402,192,194447,1,0,0:0:0:0:
402,192,194590,1,0,0:0:0:0:
329,192,194733,1,0,0:0:0:0:
475,192,194733,1,0,0:0:0:0:
402,192,194733,1,0,0:0:0:0:
256,192,194840,1,0,0:0:0:0:
109,192,194947,1,0,0:0:0:0:
36,192,194947,1,0,0:0:0:0:
402,192,195054,1,0,0:0:0:0:
329,192,195162,1,0,0:0:0:0:
182,192,195162,128,0,195376:0:0:0:0:
36,192,195376,1,0,0:0:0:0:
475,192,195376,1,0,0:0:0:0:
256,192,195483,1,0,0:0:0:0:
182,192,195590,1,0,0:0:0:0:
109,192,195590,1,0,0:0:0:0:
329,192,195590,1,0,0:0:0:0:
402,192,195804,1,0,0:0:0:0:
182,192,195804,128,0,196019:0:0:0:0:
36,192,195912,1,0,0:0:0:0:
402,192,196019,1,0,0:0:0:0:
256,192,196019,128,0,196447:0:0:0:0:
475,192,196019,1,0,0:0:0:0:
109,192,196126,1,0,0:0:0:0:
329,192,196233,1,0,0:0:0:0:
182,192,196340,1,0,0:0:0:0:
475,192,196447,128,0,197304:0:0:0:0:
36,192,196447,1,0,0:0:0:0:
109,192,196662,1,0,0:0:0:0:
329,192,196769,128,0,197304:0:0:0:0:
182,192,196769,1,0,0:0:0:0:
36,192,196876,1,0,0:0:0:0:
402,192,197090,128,0,197304:0:0:0:0:
109,192,197090,1,0,0:0:0:0:
182,192,197304,1,0,0:0:0:0:
256,192,197304,1,0,0:0:0:0:
36,192,197304,128,0,198162:0:0:0:0:
109,192,197519,128,0,198162:0:0:0:0:
402,192,197519,1,0,0:0:0:0:
475,192,197733,1,0,0:0:0:0:
182,192,197733,128,0,198162:0:0:0:0:
475,192,197876,1,0,0:0:0:0:
329,192,197947,1,0,0:0:0:0:
475,192,198019,1,0,0:0:0:0:
475,192,198162,1,0,0:0:0:0:
402,192,198162,1,0,0:0:0:0:
256,192,198162,1,0,0:0:0:0:
329,192,198269,1,0,0:0:0:0:
36,192,198376,1,0,0:0:0:0:
109,192,198376,1,0,0:0:0:0:
402,192,198483,1,0,0:0:0:0:
256,192,198590,1,0,0:0:0:0:
109,192,198697,1,0,0:0:0:0:
475,192,198804,1,0,0:0:0:0:
329,192,198804,1,0,0:0:0:0:
36,192,198912,1,0,0:0:0:0:
109,192,199019,1,0,0:0:0:0:
182,192,199019,1,0,0:0:0:0:
256,192,199019,1,0,0:0:0:0:
329,192,199126,1,0,0:0:0:0:
475,192,199233,1,0,0:0:0:0:
402,192,199233,1,0,0:0:0:0:
109,192,199340,1,0,0:0:0:0:
475,192,199447,1,0,0:0:0:0:
256,192,199447,128,0,199876:0:0:0:0:
36,192,199554,1,0,0:0:0:0:
475,192,199662,1,0,0:0:0:0:
329,192,199662,1,0,0:0:0:0:
36,192,199769,1,0,0:0:0:0:
182,192,199876,128,0,200733:0:0:0:0:
36,192,200197,128,0,200733:0:0:0:0:
329,192,200197,1,0,0:0:0:0:
109,192,200519,128,0,200733:0:0:0:0:
402,192,200519,1,0,0:0:0:0:
329,192,200733,1,0,0:0:0:0:
475,192,200733,128,0,201590:0:0:0:0:
256,192,200733,1,0,0:0:0:0:
182,192,200947,1,0,0:0:0:0:
402,192,200947,128,0,201590:0:0:0:0:
329,192,201162,128,0,201590:0:0:0:0:
36,192,201162,128,0,201269:0:0:0:0:
182,192,201269,128,0,201376:0:0:0:0:
109,192,201376,128,0,201483:0:0:0:0:
256,192,201483,128,0,201590:0:0:0:0:
36,192,201590,1,0,0:0:0:0:
109,192,201590,1,0,0:0:0:0:
182,192,201590,1,0,0:0:0:0:
329,192,201697,1,0,0:0:0:0:
402,192,201804,1,0,0:0:0:0:
475,192,201804,1,0,0:0:0:0:
109,192,201912,1,0,0:0:0:0:
182,192,202019,1,0,0:0:0:0:
329,192,202019,128,0,202233:0:0:0:0:
475,192,202233,1,0,0:0:0:0:
36,192,202233,1,0,0:0:0:0:
256,192,202340,1,0,0:0:0:0:
402,192,202447,1,0,0:0:0:0:
329,192,202447,1,0,0:0:0:0:
182,192,202447,1,0,0:0:0:0:
329,192,202662,128,0,202876:0:0:0:0:
109,192,202662,1,0,0:0:0:0:
475,192,202769,1,0,0:0:0:0:
36,192,202876,1,0,0:0:0:0:
109,192,202876,1,0,0:0:0:0:
256,192,202876,128,0,203304:0:0:0:0:
402,192,202983,1,0,0:0:0:0:
182,192,203090,1,0,0:0:0:0:
329,192,203197,1,0,0:0:0:0:
