osu file format v14

[General]
AudioFilename: ME!ME!ME.mp3
AudioLeadIn: 0
PreviewTime: 58776
Countdown: 0
SampleSet: Soft
StackLeniency: 0.3
Mode: 3
LetterboxInBreaks: 0
EpilepsyWarning: 1
SpecialStyle: 0
WidescreenStoryboard: 1

[Editor]
DistanceSpacing: 1.3
BeatDivisor: 4
GridSize: 4
TimelineZoom: 1.4

[Metadata]
Title:ME!ME!ME! feat. daoko
TitleUnicode:ME!ME!ME! feat. daoko
Artist:TeddyLoid
ArtistUnicode:TeddyLoid
Creator:arcwinolivirus
Version:4K Despair
Source:
Tags:日本アニメ(ーター)見本市 Nippon Animator Mihonichi
BeatmapID:657358
BeatmapSetID:291983

[Difficulty]
HPDrainRate:8
CircleSize:4
OverallDifficulty:8
ApproachRate:9
SliderMultiplier:2.2
SliderTickRate:1

[Events]
//Background and Video events
0,0,"teddyloid background osu.jpg",0,0
//Break Periods
//Storyboard Layer 0 (Background)
//Storyboard Layer 1 (Fail)
//Storyboard Layer 2 (Pass)
//Storyboard Layer 3 (Foreground)
//Storyboard Sound Samples

[TimingPoints]
756,480,4,2,1,30,1,0
58836,-100,4,2,1,30,0,1
89556,-100,4,2,1,30,0,0
89724,666.666666666667,6,2,1,30,1,0
89724,-72.0046082949309,6,2,1,30,0,0
93724,-72.0046082949309,6,2,1,30,0,1
125724,-72.0046082949309,6,2,1,30,0,0
147057,-72.0046082949309,6,2,1,30,0,1
152390,-72.0046082949309,6,2,1,30,0,0
157724,-72.0046082949309,6,2,1,30,0,1
168390,-72.0046082949309,6,2,1,30,0,0
174162,428.571428571429,4,2,1,30,1,0
175876,-112.359550561798,4,2,1,30,0,0
187876,-112.359550561798,4,2,1,30,0,0
189590,-112.359550561798,4,2,1,30,0,1
217019,-112.359550561798,4,2,1,30,0,0
217876,-112.359550561798,4,2,1,30,0,1
244442,454.545454545455,4,2,1,30,1,0
244442,-105.263157894737,4,2,1,30,0,0
275351,-105.263157894737,4,2,1,30,0,1
304442,-105.263157894737,4,2,1,30,0,0

[HitObjects]
64,192,5076,5,0,0:0:0:0:
448,192,5076,128,0,5796:0:0:0:0:
320,192,5076,1,0,0:0:0:0:
192,192,5316,1,0,0:0:0:0:
320,192,5436,1,0,0:0:0:0:
64,192,5676,1,0,0:0:0:0:
320,192,5796,128,0,6516:0:0:0:0:
64,192,5916,128,0,6036:0:0:0:0:
448,192,6276,128,0,6516:0:0:0:0:
192,192,6516,128,0,6996:0:0:0:0:
320,192,6756,128,0,6996:0:0:0:0:
64,192,6996,128,0,7716:0:0:0:0:
448,192,6996,1,0,0:0:0:0:
192,192,7236,1,0,0:0:0:0:
320,192,7476,1,0,0:0:0:0:
448,192,7716,128,0,8436:0:0:0:0:
320,192,7716,1,0,0:0:0:0:
192,192,7836,1,0,0:0:0:0:
320,192,8196,128,0,8436:0:0:0:0:
64,192,8436,128,0,8916:0:0:0:0:
192,192,8556,128,0,8916:0:0:0:0:
448,192,8916,128,0,9636:0:0:0:0:
320,192,8916,1,0,0:0:0:0:
192,192,9156,1,0,0:0:0:0:
320,192,9276,1,0,0:0:0:0:
64,192,9516,1,0,0:0:0:0:
192,192,9636,128,0,10356:0:0:0:0:
320,192,9756,128,0,9876:0:0:0:0:
64,192,10116,128,0,10356:0:0:0:0:
320,192,10356,128,0,10836:0:0:0:0:
192,192,10596,128,0,10836:0:0:0:0:
448,192,10836,1,0,0:0:0:0:
64,192,10836,128,0,11796:0:0:0:0:
320,192,10956,1,0,0:0:0:0:
192,192,10956,1,0,0:0:0:0:
448,192,11196,1,0,0:0:0:0:
192,192,11196,1,0,0:0:0:0:
320,192,11436,1,0,0:0:0:0:
448,192,11436,1,0,0:0:0:0:
192,192,11796,1,0,0:0:0:0:
448,192,11916,1,0,0:0:0:0:
320,192,11916,1,0,0:0:0:0:
192,192,12036,1,0,0:0:0:0:
448,192,12156,1,0,0:0:0:0:
320,192,12156,1,0,0:0:0:0:
64,192,12276,1,0,0:0:0:0:
320,192,12396,1,0,0:0:0:0:
192,192,12396,1,0,0:0:0:0:
448,192,12516,1,0,0:0:0:0:
320,192,12636,1,0,0:0:0:0:
192,192,12636,1,0,0:0:0:0:
64,192,12756,128,0,13236:0:0:0:0:
448,192,12756,1,0,0:0:0:0:
192,192,12876,1,0,0:0:0:0:
320,192,12996,1,0,0:0:0:0:
192,192,13116,1,0,0:0:0:0:
320,192,13236,128,0,13716:0:0:0:0:
448,192,13236,1,0,0:0:0:0:
192,192,13356,1,0,0:0:0:0:
64,192,13476,1,0,0:0:0:0:
448,192,13596,1,0,0:0:0:0:
192,192,13716,128,0,14196:0:0:0:0:
64,192,13716,1,0,0:0:0:0:
448,192,13836,1,0,0:0:0:0:
320,192,13956,1,0,0:0:0:0:
64,192,14076,1,0,0:0:0:0:
448,192,14196,128,0,14676:0:0:0:0:
320,192,14196,1,0,0:0:0:0:
192,192,14436,1,0,0:0:0:0:
320,192,14676,1,0,0:0:0:0:
64,192,14676,128,0,15036:0:0:0:0:
448,192,14916,1,0,0:0:0:0:
320,192,15036,1,0,0:0:0:0:
192,192,15036,1,0,0:0:0:0:
64,192,15156,1,0,0:0:0:0:
448,192,15156,1,0,0:0:0:0:
448,192,15396,1,0,0:0:0:0:
192,192,15636,1,0,0:0:0:0:
320,192,15636,1,0,0:0:0:0:
448,192,15756,1,0,0:0:0:0:
64,192,15876,1,0,0:0:0:0:
192,192,15876,1,0,0:0:0:0:
320,192,15996,1,0,0:0:0:0:
448,192,16116,1,0,0:0:0:0:
64,192,16116,1,0,0:0:0:0:
320,192,16176,1,0,0:0:0:0:
192,192,16236,1,0,0:0:0:0:
64,192,16296,1,0,0:0:0:0:
448,192,16356,1,0,0:0:0:0:
320,192,16416,1,0,0:0:0:0:
192,192,16476,1,0,0:0:0:0:
64,192,16596,1,0,0:0:0:0:
448,192,16596,128,0,17076:0:0:0:0:
192,192,16716,1,0,0:0:0:0:
320,192,16836,1,0,0:0:0:0:
64,192,16956,1,0,0:0:0:0:
320,192,17076,128,0,17556:0:0:0:0:
192,192,17076,1,0,0:0:0:0:
64,192,17196,1,0,0:0:0:0:
192,192,17316,1,0,0:0:0:0:
448,192,17436,1,0,0:0:0:0:
192,192,17556,128,0,18036:0:0:0:0:
64,192,17556,1,0,0:0:0:0:
448,192,17676,1,0,0:0:0:0:
64,192,17796,1,0,0:0:0:0:
320,192,17916,1,0,0:0:0:0:
448,192,18036,1,0,0:0:0:0:
64,192,18036,128,0,18516:0:0:0:0:
320,192,18276,1,0,0:0:0:0:
320,192,18516,128,0,19476:0:0:0:0:
448,192,18516,1,0,0:0:0:0:
192,192,18636,1,0,0:0:0:0:
64,192,18756,1,0,0:0:0:0:
448,192,18876,1,0,0:0:0:0:
192,192,18996,1,0,0:0:0:0:
448,192,19116,1,0,0:0:0:0:
64,192,19236,1,0,0:0:0:0:
192,192,19356,1,0,0:0:0:0:
64,192,19476,1,0,0:0:0:0:
448,192,19476,1,0,0:0:0:0:
192,192,19716,1,0,0:0:0:0:
64,192,19716,1,0,0:0:0:0:
320,192,19836,1,0,0:0:0:0:
192,192,19956,1,0,0:0:0:0:
64,192,19956,1,0,0:0:0:0:
448,192,19956,1,0,0:0:0:0:
320,192,20196,1,0,0:0:0:0:
192,192,20316,1,0,0:0:0:0:
64,192,20436,1,0,0:0:0:0:
320,192,20436,1,0,0:0:0:0:
448,192,20436,128,0,20916:0:0:0:0:
192,192,20676,1,0,0:0:0:0:
320,192,20796,1,0,0:0:0:0:
64,192,20916,1,0,0:0:0:0:
192,192,20916,1,0,0:0:0:0:
192,192,21156,1,0,0:0:0:0:
320,192,21276,1,0,0:0:0:0:
64,192,21396,1,0,0:0:0:0:
448,192,21396,1,0,0:0:0:0:
320,192,21636,1,0,0:0:0:0:
64,192,21756,1,0,0:0:0:0:
320,192,21876,1,0,0:0:0:0:
192,192,21876,128,0,22356:0:0:0:0:
448,192,21996,1,0,0:0:0:0:
64,192,22116,1,0,0:0:0:0:
448,192,22236,1,0,0:0:0:0:
320,192,22356,128,0,22836:0:0:0:0:
64,192,22356,1,0,0:0:0:0:
448,192,22596,1,0,0:0:0:0:
192,192,22716,1,0,0:0:0:0:
448,192,22836,1,0,0:0:0:0:
64,192,22836,1,0,0:0:0:0:
192,192,23076,1,0,0:0:0:0:
320,192,23196,1,0,0:0:0:0:
448,192,23316,1,0,0:0:0:0:
64,192,23316,128,0,23796:0:0:0:0:
320,192,23556,1,0,0:0:0:0:
192,192,23676,1,0,0:0:0:0:
320,192,23796,1,0,0:0:0:0:
448,192,23796,1,0,0:0:0:0:
192,192,23916,1,0,0:0:0:0:
448,192,24036,1,0,0:0:0:0:
64,192,24156,1,0,0:0:0:0:
320,192,24276,1,0,0:0:0:0:
192,192,24276,128,0,24756:0:0:0:0:
448,192,24516,1,0,0:0:0:0:
64,192,24636,1,0,0:0:0:0:
448,192,24756,1,0,0:0:0:0:
320,192,24756,1,0,0:0:0:0:
192,192,24996,1,0,0:0:0:0:
448,192,25116,1,0,0:0:0:0:
64,192,25236,1,0,0:0:0:0:
192,192,25236,1,0,0:0:0:0:
320,192,25476,1,0,0:0:0:0:
192,192,25596,1,0,0:0:0:0:
448,192,25716,1,0,0:0:0:0:
320,192,25716,1,0,0:0:0:0:
64,192,25836,1,0,0:0:0:0:
320,192,25956,1,0,0:0:0:0:
192,192,26076,1,0,0:0:0:0:
64,192,26196,1,0,0:0:0:0:
448,192,26196,128,0,26676:0:0:0:0:
192,192,26436,1,0,0:0:0:0:
320,192,26556,1,0,0:0:0:0:
192,192,26676,1,0,0:0:0:0:
64,192,26676,1,0,0:0:0:0:
320,192,26916,128,0,27396:0:0:0:0:
448,192,26916,1,0,0:0:0:0:
64,192,27036,1,0,0:0:0:0:
448,192,27156,1,0,0:0:0:0:
192,192,27276,1,0,0:0:0:0:
64,192,27396,1,0,0:0:0:0:
448,192,27516,1,0,0:0:0:0:
64,192,27636,1,0,0:0:0:0:
192,192,27636,128,0,28116:0:0:0:0:
448,192,27756,1,0,0:0:0:0:
64,192,27876,1,0,0:0:0:0:
320,192,27996,1,0,0:0:0:0:
448,192,28116,1,0,0:0:0:0:
64,192,28116,128,0,28596:0:0:0:0:
320,192,28356,1,0,0:0:0:0:
192,192,28476,1,0,0:0:0:0:
320,192,28596,1,0,0:0:0:0:
448,192,28596,1,0,0:0:0:0:
320,192,28836,1,0,0:0:0:0:
192,192,28956,1,0,0:0:0:0:
448,192,29076,1,0,0:0:0:0:
64,192,29076,1,0,0:0:0:0:
192,192,29316,1,0,0:0:0:0:
448,192,29436,1,0,0:0:0:0:
320,192,29556,128,0,30036:0:0:0:0:
192,192,29556,1,0,0:0:0:0:
64,192,29676,1,0,0:0:0:0:
448,192,29796,1,0,0:0:0:0:
64,192,29916,1,0,0:0:0:0:
192,192,30036,128,0,30516:0:0:0:0:
448,192,30036,1,0,0:0:0:0:
64,192,30276,1,0,0:0:0:0:
320,192,30396,1,0,0:0:0:0:
64,192,30516,1,0,0:0:0:0:
448,192,30516,1,0,0:0:0:0:
320,192,30756,1,0,0:0:0:0:
192,192,30876,1,0,0:0:0:0:
64,192,30996,1,0,0:0:0:0:
448,192,31116,1,0,0:0:0:0:
192,192,31236,1,0,0:0:0:0:
320,192,31356,1,0,0:0:0:0:
64,192,31476,1,0,0:0:0:0:
192,192,31476,1,0,0:0:0:0:
320,192,31596,1,0,0:0:0:0:
64,192,31716,1,0,0:0:0:0:
448,192,31836,1,0,0:0:0:0:
192,192,31956,1,0,0:0:0:0:
320,192,31956,128,0,32436:0:0:0:0:
64,192,32196,1,0,0:0:0:0:
448,192,32316,1,0,0:0:0:0:
64,192,32436,1,0,0:0:0:0:
192,192,32436,1,0,0:0:0:0:
320,192,32676,1,0,0:0:0:0:
64,192,32796,1,0,0:0:0:0:
448,192,32916,1,0,0:0:0:0:
320,192,32916,1,0,0:0:0:0:
192,192,33156,1,0,0:0:0:0:
320,192,33276,1,0,0:0:0:0:
192,192,33396,1,0,0:0:0:0:
64,192,33396,1,0,0:0:0:0:
448,192,33516,1,0,0:0:0:0:
192,192,33636,1,0,0:0:0:0:
320,192,33756,1,0,0:0:0:0:
448,192,33876,1,0,0:0:0:0:
64,192,33876,128,0,34356:0:0:0:0:
320,192,34116,1,0,0:0:0:0:
192,192,34236,1,0,0:0:0:0:
448,192,34356,1,0,0:0:0:0:
320,192,34356,1,0,0:0:0:0:
320,192,34596,1,0,0:0:0:0:
192,192,34596,128,0,35076:0:0:0:0:
64,192,34716,1,0,0:0:0:0:
448,192,34836,1,0,0:0:0:0:
320,192,34836,1,0,0:0:0:0:
64,192,34956,1,0,0:0:0:0:
448,192,35076,1,0,0:0:0:0:
64,192,35196,1,0,0:0:0:0:
448,192,35316,1,0,0:0:0:0:
320,192,35316,128,0,35796:0:0:0:0:
192,192,35556,128,0,35796:0:0:0:0:
64,192,35556,1,0,0:0:0:0:
448,192,35796,1,0,0:0:0:0:
64,192,35796,1,0,0:0:0:0:
64,192,36036,128,0,36276:0:0:0:0:
320,192,36036,1,0,0:0:0:0:
448,192,36276,1,0,0:0:0:0:
320,192,36276,1,0,0:0:0:0:
192,192,36276,1,0,0:0:0:0:
192,192,36516,128,0,36756:0:0:0:0:
64,192,36516,1,0,0:0:0:0:
320,192,36756,1,0,0:0:0:0:
448,192,36996,1,0,0:0:0:0:
192,192,36996,1,0,0:0:0:0:
64,192,37236,1,0,0:0:0:0:
320,192,37236,1,0,0:0:0:0:
448,192,37236,1,0,0:0:0:0:
192,192,37476,1,0,0:0:0:0:
448,192,37476,1,0,0:0:0:0:
448,192,37716,1,0,0:0:0:0:
64,192,37716,1,0,0:0:0:0:
448,192,37956,128,0,38196:0:0:0:0:
192,192,37956,1,0,0:0:0:0:
192,192,38196,1,0,0:0:0:0:
64,192,38196,1,0,0:0:0:0:
320,192,38196,1,0,0:0:0:0:
320,192,38436,128,0,38676:0:0:0:0:
448,192,38436,1,0,0:0:0:0:
64,192,38676,1,0,0:0:0:0:
448,192,38916,1,0,0:0:0:0:
192,192,38916,1,0,0:0:0:0:
320,192,39156,1,0,0:0:0:0:
64,192,39156,1,0,0:0:0:0:
448,192,39156,1,0,0:0:0:0:
192,192,39396,1,0,0:0:0:0:
448,192,39396,1,0,0:0:0:0:
448,192,39636,1,0,0:0:0:0:
64,192,39636,1,0,0:0:0:0:
320,192,39876,128,0,40116:0:0:0:0:
192,192,39876,1,0,0:0:0:0:
448,192,40116,1,0,0:0:0:0:
64,192,40116,1,0,0:0:0:0:
192,192,40116,1,0,0:0:0:0:
320,192,40356,1,0,0:0:0:0:
192,192,40356,128,0,40596:0:0:0:0:
448,192,40596,1,0,0:0:0:0:
320,192,40836,1,0,0:0:0:0:
64,192,40836,128,0,41076:0:0:0:0:
192,192,41076,1,0,0:0:0:0:
448,192,41076,1,0,0:0:0:0:
320,192,41076,1,0,0:0:0:0:
192,192,41316,1,0,0:0:0:0:
320,192,41316,1,0,0:0:0:0:
64,192,41556,1,0,0:0:0:0:
448,192,41556,1,0,0:0:0:0:
320,192,41796,1,0,0:0:0:0:
192,192,41796,1,0,0:0:0:0:
64,192,42036,1,0,0:0:0:0:
448,192,42036,1,0,0:0:0:0:
192,192,42036,1,0,0:0:0:0:
64,192,42276,1,0,0:0:0:0:
320,192,42276,1,0,0:0:0:0:
192,192,42516,1,0,0:0:0:0:
320,192,42756,1,0,0:0:0:0:
448,192,42756,1,0,0:0:0:0:
192,192,42996,1,0,0:0:0:0:
64,192,42996,1,0,0:0:0:0:
448,192,42996,1,0,0:0:0:0:
320,192,43236,1,0,0:0:0:0:
448,192,43236,1,0,0:0:0:0:
448,192,43476,1,0,0:0:0:0:
64,192,43476,1,0,0:0:0:0:
192,192,43716,1,0,0:0:0:0:
320,192,43716,128,0,43956:0:0:0:0:
64,192,43956,1,0,0:0:0:0:
448,192,43956,1,0,0:0:0:0:
192,192,43956,1,0,0:0:0:0:
320,192,44196,1,0,0:0:0:0:
192,192,44196,128,0,44436:0:0:0:0:
448,192,44436,1,0,0:0:0:0:
320,192,44676,1,0,0:0:0:0:
448,192,44676,1,0,0:0:0:0:
192,192,44916,1,0,0:0:0:0:
64,192,44916,1,0,0:0:0:0:
448,192,44916,1,0,0:0:0:0:
448,192,45156,1,0,0:0:0:0:
64,192,45156,1,0,0:0:0:0:
320,192,45276,1,0,0:0:0:0:
192,192,45396,1,0,0:0:0:0:
64,192,45396,1,0,0:0:0:0:
192,192,45636,1,0,0:0:0:0:
448,192,45636,128,0,45876:0:0:0:0:
320,192,45876,1,0,0:0:0:0:
192,192,45876,1,0,0:0:0:0:
64,192,45876,1,0,0:0:0:0:
64,192,46116,128,0,46356:0:0:0:0:
448,192,46116,1,0,0:0:0:0:
320,192,46356,1,0,0:0:0:0:
64,192,46596,1,0,0:0:0:0:
192,192,46596,1,0,0:0:0:0:
320,192,46836,1,0,0:0:0:0:
448,192,46836,1,0,0:0:0:0:
64,192,46836,1,0,0:0:0:0:
192,192,47076,1,0,0:0:0:0:
448,192,47076,1,0,0:0:0:0:
64,192,47316,1,0,0:0:0:0:
320,192,47316,1,0,0:0:0:0:
192,192,47556,1,0,0:0:0:0:
448,192,47556,128,0,47796:0:0:0:0:
64,192,47796,1,0,0:0:0:0:
320,192,47796,1,0,0:0:0:0:
192,192,47796,1,0,0:0:0:0:
192,192,48036,128,0,48276:0:0:0:0:
448,192,48036,1,0,0:0:0:0:
320,192,48276,1,0,0:0:0:0:
448,192,48516,1,0,0:0:0:0:
320,192,48516,1,0,0:0:0:0:
192,192,48756,1,0,0:0:0:0:
64,192,48756,1,0,0:0:0:0:
448,192,48756,1,0,0:0:0:0:
448,192,48996,1,0,0:0:0:0:
320,192,48996,1,0,0:0:0:0:
192,192,49236,1,0,0:0:0:0:
320,192,49236,128,0,51156:0:0:0:0:
64,192,49476,1,0,0:0:0:0:
448,192,49716,1,0,0:0:0:0:
448,192,50676,1,0,0:0:0:0:
448,192,50796,1,0,0:0:0:0:
192,192,50916,1,0,0:0:0:0:
192,192,51036,1,0,0:0:0:0:
64,192,51156,128,0,56916:0:0:0:0:
448,192,51156,128,0,56916:0:0:0:0:
192,192,51516,1,0,0:0:0:0:
192,192,51876,1,0,0:0:0:0:
320,192,52356,1,0,0:0:0:0:
192,192,52836,1,0,0:0:0:0:
320,192,53076,1,0,0:0:0:0:
192,192,53316,1,0,0:0:0:0:
320,192,53436,1,0,0:0:0:0:
192,192,53556,1,0,0:0:0:0:
320,192,53796,1,0,0:0:0:0:
192,192,54276,1,0,0:0:0:0:
320,192,54756,1,0,0:0:0:0:
192,192,54996,1,0,0:0:0:0:
320,192,55236,1,0,0:0:0:0:
192,192,55356,1,0,0:0:0:0:
320,192,55476,1,0,0:0:0:0:
192,192,55716,1,0,0:0:0:0:
320,192,55836,1,0,0:0:0:0:
192,192,55956,1,0,0:0:0:0:
320,192,56196,1,0,0:0:0:0:
192,192,56316,1,0,0:0:0:0:
320,192,56436,1,0,0:0:0:0:
192,192,56676,1,0,0:0:0:0:
320,192,56796,1,0,0:0:0:0:
320,192,56916,1,0,0:0:0:0:
192,192,56916,128,0,57036:0:0:0:0:
448,192,57076,1,0,0:0:0:0:
64,192,57236,1,0,0:0:0:0:
320,192,57396,1,0,0:0:0:0:
448,192,57396,128,0,57516:0:0:0:0:
192,192,57556,1,0,0:0:0:0:
320,192,57716,1,0,0:0:0:0:
192,192,57876,1,0,0:0:0:0:
64,192,57876,128,0,57996:0:0:0:0:
448,192,58036,1,0,0:0:0:0:
192,192,58196,1,0,0:0:0:0:
448,192,58356,1,0,0:0:0:0:
320,192,58356,128,0,58476:0:0:0:0:
64,192,58516,1,0,0:0:0:0:
192,192,58676,1,0,0:0:0:0:
448,192,58836,1,0,0:0:0:0:
64,192,58836,128,0,59316:0:0:0:0:
320,192,58836,1,0,0:0:0:0:
192,192,59076,1,0,0:0:0:0:
320,192,59196,1,0,0:0:0:0:
192,192,59316,128,0,59796:0:0:0:0:
448,192,59316,1,0,0:0:0:0:
320,192,59556,1,0,0:0:0:0:
64,192,59676,1,0,0:0:0:0:
320,192,59796,128,0,60276:0:0:0:0:
448,192,59796,1,0,0:0:0:0:
64,192,60036,1,0,0:0:0:0:
192,192,60156,1,0,0:0:0:0:
448,192,60276,1,0,0:0:0:0:
64,192,60276,1,0,0:0:0:0:
192,192,60396,1,0,0:0:0:0:
320,192,60516,1,0,0:0:0:0:
192,192,60636,1,0,0:0:0:0:
448,192,60756,128,0,61236:0:0:0:0:
64,192,60756,1,0,0:0:0:0:
320,192,60996,1,0,0:0:0:0:
192,192,61116,1,0,0:0:0:0:
320,192,61236,128,0,61716:0:0:0:0:
64,192,61236,1,0,0:0:0:0:
192,192,61476,1,0,0:0:0:0:
448,192,61596,1,0,0:0:0:0:
192,192,61716,128,0,62196:0:0:0:0:
64,192,61716,1,0,0:0:0:0:
448,192,61956,1,0,0:0:0:0:
320,192,62076,1,0,0:0:0:0:
448,192,62196,1,0,0:0:0:0:
64,192,62196,1,0,0:0:0:0:
320,192,62316,1,0,0:0:0:0:
64,192,62436,1,0,0:0:0:0:
192,192,62556,1,0,0:0:0:0:
320,192,62676,1,0,0:0:0:0:
448,192,62676,128,0,63156:0:0:0:0:
192,192,62916,1,0,0:0:0:0:
320,192,63036,1,0,0:0:0:0:
64,192,63156,1,0,0:0:0:0:
192,192,63156,128,0,63636:0:0:0:0:
320,192,63396,1,0,0:0:0:0:
64,192,63516,1,0,0:0:0:0:
320,192,63636,128,0,64116:0:0:0:0:
448,192,63636,1,0,0:0:0:0:
64,192,63876,1,0,0:0:0:0:
192,192,63996,1,0,0:0:0:0:
448,192,64116,1,0,0:0:0:0:
64,192,64116,128,0,64596:0:0:0:0:
192,192,64236,1,0,0:0:0:0:
448,192,64356,1,0,0:0:0:0:
320,192,64476,1,0,0:0:0:0:
192,192,64596,128,0,64836:0:0:0:0:
448,192,64596,1,0,0:0:0:0:
448,192,64836,128,0,65076:0:0:0:0:
64,192,64836,1,0,0:0:0:0:
320,192,64956,1,0,0:0:0:0:
64,192,65076,128,0,65316:0:0:0:0:
192,192,65076,1,0,0:0:0:0:
320,192,65316,128,0,65556:0:0:0:0:
448,192,65316,1,0,0:0:0:0:
64,192,65436,1,0,0:0:0:0:
192,192,65556,128,0,66036:0:0:0:0:
448,192,65556,1,0,0:0:0:0:
64,192,65796,1,0,0:0:0:0:
320,192,65916,1,0,0:0:0:0:
448,192,66036,1,0,0:0:0:0:
64,192,66036,1,0,0:0:0:0:
320,192,66156,1,0,0:0:0:0:
64,192,66276,1,0,0:0:0:0:
448,192,66396,1,0,0:0:0:0:
192,192,66516,128,0,66996:0:0:0:0:
320,192,66516,1,0,0:0:0:0:
448,192,66756,1,0,0:0:0:0:
64,192,66876,1,0,0:0:0:0:
320,192,66996,128,0,67476:0:0:0:0:
448,192,66996,1,0,0:0:0:0:
64,192,67236,1,0,0:0:0:0:
192,192,67356,1,0,0:0:0:0:
448,192,67476,128,0,67956:0:0:0:0:
64,192,67476,1,0,0:0:0:0:
192,192,67716,1,0,0:0:0:0:
320,192,67836,1,0,0:0:0:0:
64,192,67956,1,0,0:0:0:0:
192,192,67956,1,0,0:0:0:0:
320,192,68076,1,0,0:0:0:0:
64,192,68196,1,0,0:0:0:0:
448,192,68316,1,0,0:0:0:0:
320,192,68436,128,0,68916:0:0:0:0:
192,192,68436,1,0,0:0:0:0:
448,192,68676,1,0,0:0:0:0:
64,192,68796,1,0,0:0:0:0:
192,192,68916,128,0,69396:0:0:0:0:
448,192,68916,1,0,0:0:0:0:
64,192,69156,1,0,0:0:0:0:
448,192,69276,1,0,0:0:0:0:
64,192,69396,128,0,69876:0:0:0:0:
320,192,69396,1,0,0:0:0:0:
448,192,69636,1,0,0:0:0:0:
192,192,69756,1,0,0:0:0:0:
448,192,69876,1,0,0:0:0:0:
320,192,69876,1,0,0:0:0:0:
192,192,69996,1,0,0:0:0:0:
64,192,70116,1,0,0:0:0:0:
448,192,70236,1,0,0:0:0:0:
320,192,70356,1,0,0:0:0:0:
192,192,70356,128,0,70836:0:0:0:0:
64,192,70596,1,0,0:0:0:0:
320,192,70716,1,0,0:0:0:0:
64,192,70836,1,0,0:0:0:0:
448,192,70836,128,0,71316:0:0:0:0:
320,192,71076,1,0,0:0:0:0:
192,192,71196,1,0,0:0:0:0:
320,192,71316,128,0,71796:0:0:0:0:
64,192,71316,1,0,0:0:0:0:
192,192,71556,1,0,0:0:0:0:
448,192,71676,1,0,0:0:0:0:
64,192,71796,1,0,0:0:0:0:
192,192,71796,128,0,72276:0:0:0:0:
448,192,71916,1,0,0:0:0:0:
64,192,72036,1,0,0:0:0:0:
320,192,72156,1,0,0:0:0:0:
448,192,72276,1,0,0:0:0:0:
64,192,72276,128,0,73236:0:0:0:0:
320,192,72516,1,0,0:0:0:0:
192,192,72636,1,0,0:0:0:0:
320,192,72756,1,0,0:0:0:0:
448,192,72756,1,0,0:0:0:0:
192,192,72996,1,0,0:0:0:0:
320,192,73116,1,0,0:0:0:0:
192,192,73236,128,0,73716:0:0:0:0:
448,192,73236,1,0,0:0:0:0:
320,192,73476,1,0,0:0:0:0:
64,192,73596,1,0,0:0:0:0:
320,192,73716,128,0,74196:0:0:0:0:
448,192,73716,1,0,0:0:0:0:
64,192,73836,1,0,0:0:0:0:
192,192,73956,1,0,0:0:0:0:
448,192,74076,1,0,0:0:0:0:
192,192,74196,1,0,0:0:0:0:
64,192,74196,128,0,74676:0:0:0:0:
448,192,74196,1,0,0:0:0:0:
448,192,74436,1,0,0:0:0:0:
320,192,74556,1,0,0:0:0:0:
192,192,74676,128,0,75156:0:0:0:0:
448,192,74676,1,0,0:0:0:0:
64,192,74916,1,0,0:0:0:0:
448,192,75036,1,0,0:0:0:0:
320,192,75156,128,0,75636:0:0:0:0:
64,192,75156,1,0,0:0:0:0:
448,192,75316,1,0,0:0:0:0:
192,192,75476,1,0,0:0:0:0:
448,192,75636,1,0,0:0:0:0:
64,192,75636,1,0,0:0:0:0:
192,192,75796,1,0,0:0:0:0:
320,192,75956,1,0,0:0:0:0:
448,192,76116,128,0,76596:0:0:0:0:
64,192,76116,1,0,0:0:0:0:
320,192,76356,1,0,0:0:0:0:
192,192,76476,1,0,0:0:0:0:
320,192,76596,128,0,77076:0:0:0:0:
64,192,76596,1,0,0:0:0:0:
192,192,76836,1,0,0:0:0:0:
448,192,76956,1,0,0:0:0:0:
192,192,77076,128,0,77556:0:0:0:0:
64,192,77076,1,0,0:0:0:0:
448,192,77236,1,0,0:0:0:0:
320,192,77396,1,0,0:0:0:0:
448,192,77556,1,0,0:0:0:0:
64,192,77556,1,0,0:0:0:0:
320,192,77716,1,0,0:0:0:0:
64,192,77876,1,0,0:0:0:0:
320,192,78036,128,0,78516:0:0:0:0:
192,192,78036,1,0,0:0:0:0:
64,192,78276,1,0,0:0:0:0:
448,192,78396,1,0,0:0:0:0:
192,192,78516,1,0,0:0:0:0:
64,192,78516,128,0,78996:0:0:0:0:
320,192,78756,1,0,0:0:0:0:
192,192,78876,1,0,0:0:0:0:
448,192,78996,128,0,79476:0:0:0:0:
320,192,78996,1,0,0:0:0:0:
192,192,79156,1,0,0:0:0:0:
64,192,79316,1,0,0:0:0:0:
192,192,79476,128,0,79956:0:0:0:0:
320,192,79476,1,0,0:0:0:0:
64,192,79636,1,0,0:0:0:0:
448,192,79796,1,0,0:0:0:0:
64,192,79956,128,0,80436:0:0:0:0:
320,192,79956,1,0,0:0:0:0:
448,192,80196,1,0,0:0:0:0:
320,192,80316,1,0,0:0:0:0:
192,192,80436,128,0,80916:0:0:0:0:
448,192,80436,1,0,0:0:0:0:
64,192,80676,1,0,0:0:0:0:
448,192,80796,1,0,0:0:0:0:
320,192,80916,128,0,81396:0:0:0:0:
64,192,80916,1,0,0:0:0:0:
448,192,81156,1,0,0:0:0:0:
192,192,81276,1,0,0:0:0:0:
448,192,81396,128,0,81876:0:0:0:0:
64,192,81396,1,0,0:0:0:0:
192,192,81636,1,0,0:0:0:0:
320,192,81756,1,0,0:0:0:0:
192,192,81876,1,0,0:0:0:0:
64,192,81876,1,0,0:0:0:0:
320,192,82116,1,0,0:0:0:0:
192,192,82236,1,0,0:0:0:0:
64,192,82356,1,0,0:0:0:0:
448,192,82356,1,0,0:0:0:0:
320,192,82356,1,0,0:0:0:0:
192,192,82516,1,0,0:0:0:0:
320,192,82596,1,0,0:0:0:0:
64,192,82676,1,0,0:0:0:0:
192,192,82716,1,0,0:0:0:0:
320,192,82836,1,0,0:0:0:0:
448,192,82836,1,0,0:0:0:0:
64,192,82996,1,0,0:0:0:0:
192,192,83076,1,0,0:0:0:0:
448,192,83156,1,0,0:0:0:0:
320,192,83196,1,0,0:0:0:0:
192,192,83316,1,0,0:0:0:0:
64,192,83316,128,0,83796:0:0:0:0:
320,192,83556,1,0,0:0:0:0:
192,192,83676,1,0,0:0:0:0:
320,192,83796,1,0,0:0:0:0:
448,192,83796,1,0,0:0:0:0:
192,192,84036,1,0,0:0:0:0:
320,192,84156,1,0,0:0:0:0:
448,192,84276,1,0,0:0:0:0:
64,192,84276,1,0,0:0:0:0:
192,192,84276,1,0,0:0:0:0:
320,192,84436,1,0,0:0:0:0:
192,192,84516,1,0,0:0:0:0:
448,192,84596,1,0,0:0:0:0:
320,192,84636,1,0,0:0:0:0:
192,192,84756,1,0,0:0:0:0:
64,192,84756,1,0,0:0:0:0:
448,192,84916,1,0,0:0:0:0:
320,192,84996,1,0,0:0:0:0:
64,192,85076,1,0,0:0:0:0:
192,192,85116,1,0,0:0:0:0:
320,192,85236,1,0,0:0:0:0:
448,192,85236,128,0,85716:0:0:0:0:
192,192,85476,1,0,0:0:0:0:
320,192,85596,1,0,0:0:0:0:
192,192,85716,1,0,0:0:0:0:
64,192,85716,1,0,0:0:0:0:
320,192,85956,1,0,0:0:0:0:
192,192,86076,1,0,0:0:0:0:
64,192,86196,1,0,0:0:0:0:
448,192,86196,1,0,0:0:0:0:
320,192,86196,1,0,0:0:0:0:
192,192,86356,1,0,0:0:0:0:
320,192,86436,1,0,0:0:0:0:
64,192,86516,1,0,0:0:0:0:
192,192,86556,1,0,0:0:0:0:
320,192,86676,1,0,0:0:0:0:
448,192,86676,1,0,0:0:0:0:
64,192,86836,1,0,0:0:0:0:
192,192,86916,1,0,0:0:0:0:
448,192,86996,1,0,0:0:0:0:
320,192,87036,1,0,0:0:0:0:
192,192,87156,1,0,0:0:0:0:
64,192,87156,128,0,87636:0:0:0:0:
448,192,87396,1,0,0:0:0:0:
192,192,87516,1,0,0:0:0:0:
320,192,87636,1,0,0:0:0:0:
448,192,87636,1,0,0:0:0:0:
192,192,87876,1,0,0:0:0:0:
320,192,87996,1,0,0:0:0:0:
64,192,88116,1,0,0:0:0:0:
448,192,88116,1,0,0:0:0:0:
192,192,88116,1,0,0:0:0:0:
192,192,88276,1,0,0:0:0:0:
320,192,88356,1,0,0:0:0:0:
64,192,88436,1,0,0:0:0:0:
192,192,88476,1,0,0:0:0:0:
320,192,88596,1,0,0:0:0:0:
448,192,88596,1,0,0:0:0:0:
64,192,88756,1,0,0:0:0:0:
192,192,88836,1,0,0:0:0:0:
448,192,88916,1,0,0:0:0:0:
320,192,88956,1,0,0:0:0:0:
192,192,89076,1,0,0:0:0:0:
192,192,89196,1,0,0:0:0:0:
320,192,89316,1,0,0:0:0:0:
320,192,89436,1,0,0:0:0:0:
192,192,89724,128,0,93724:0:0:0:0:
320,192,90724,128,0,93724:0:0:0:0:
64,192,93724,1,0,0:0:0:0:
448,192,93724,128,0,96390:0:0:0:0:
64,192,94390,1,0,0:0:0:0:
320,192,94390,1,0,0:0:0:0:
192,192,94390,1,0,0:0:0:0:
320,192,94890,1,0,0:0:0:0:
64,192,94890,1,0,0:0:0:0:
192,192,95057,1,0,0:0:0:0:
64,192,95057,1,0,0:0:0:0:
320,192,95724,1,0,0:0:0:0:
64,192,95724,1,0,0:0:0:0:
192,192,95724,1,0,0:0:0:0:
64,192,96224,1,0,0:0:0:0:
320,192,96224,1,0,0:0:0:0:
192,192,96390,1,0,0:0:0:0:
320,192,96390,128,0,97724:0:0:0:0:
448,192,97057,1,0,0:0:0:0:
64,192,97057,1,0,0:0:0:0:
192,192,97057,1,0,0:0:0:0:
64,192,97557,1,0,0:0:0:0:
448,192,97557,1,0,0:0:0:0:
448,192,97724,1,0,0:0:0:0:
192,192,97724,128,0,99057:0:0:0:0:
448,192,98390,1,0,0:0:0:0:
64,192,98390,1,0,0:0:0:0:
320,192,98390,1,0,0:0:0:0:
448,192,98890,1,0,0:0:0:0:
64,192,98890,1,0,0:0:0:0:
320,192,99057,1,0,0:0:0:0:
64,192,99057,128,0,101724:0:0:0:0:
192,192,99724,1,0,0:0:0:0:
448,192,99724,1,0,0:0:0:0:
320,192,99724,1,0,0:0:0:0:
192,192,100224,1,0,0:0:0:0:
448,192,100224,1,0,0:0:0:0:
320,192,100390,1,0,0:0:0:0:
448,192,100390,1,0,0:0:0:0:
320,192,100724,1,0,0:0:0:0:
192,192,101057,1,0,0:0:0:0:
448,192,101057,1,0,0:0:0:0:
320,192,101057,1,0,0:0:0:0:
448,192,101557,1,0,0:0:0:0:
192,192,101557,1,0,0:0:0:0:
192,192,101724,1,0,0:0:0:0:
320,192,101724,128,0,103057:0:0:0:0:
448,192,102390,1,0,0:0:0:0:
64,192,102390,1,0,0:0:0:0:
192,192,102390,1,0,0:0:0:0:
448,192,102890,1,0,0:0:0:0:
64,192,102890,1,0,0:0:0:0:
64,192,103057,1,0,0:0:0:0:
192,192,103057,128,0,104390:0:0:0:0:
64,192,103724,1,0,0:0:0:0:
448,192,103724,1,0,0:0:0:0:
320,192,103724,1,0,0:0:0:0:
64,192,104224,1,0,0:0:0:0:
448,192,104224,1,0,0:0:0:0:
320,192,104390,1,0,0:0:0:0:
448,192,104390,128,0,107057:0:0:0:0:
192,192,104724,1,0,0:0:0:0:
64,192,105057,1,0,0:0:0:0:
320,192,105057,1,0,0:0:0:0:
192,192,105057,1,0,0:0:0:0:
192,192,105390,1,0,0:0:0:0:
320,192,105557,1,0,0:0:0:0:
64,192,105557,1,0,0:0:0:0:
192,192,105724,1,0,0:0:0:0:
64,192,105724,1,0,0:0:0:0:
192,192,106057,1,0,0:0:0:0:
64,192,106390,1,0,0:0:0:0:
320,192,106390,1,0,0:0:0:0:
192,192,106390,1,0,0:0:0:0:
64,192,106890,1,0,0:0:0:0:
320,192,106890,1,0,0:0:0:0:
192,192,107057,1,0,0:0:0:0:
320,192,107057,128,0,108390:0:0:0:0:
64,192,107390,1,0,0:0:0:0:
448,192,107724,1,0,0:0:0:0:
192,192,107724,1,0,0:0:0:0:
64,192,107724,1,0,0:0:0:0:
64,192,108224,1,0,0:0:0:0:
448,192,108224,1,0,0:0:0:0:
448,192,108390,1,0,0:0:0:0:
192,192,108390,128,0,109724:0:0:0:0:
320,192,108724,1,0,0:0:0:0:
448,192,109057,1,0,0:0:0:0:
64,192,109057,1,0,0:0:0:0:
320,192,109057,1,0,0:0:0:0:
448,192,109557,1,0,0:0:0:0:
64,192,109557,1,0,0:0:0:0:
320,192,109724,1,0,0:0:0:0:
64,192,109724,128,0,112390:0:0:0:0:
448,192,109724,1,0,0:0:0:0:
192,192,110057,1,0,0:0:0:0:
448,192,110390,1,0,0:0:0:0:
320,192,110390,1,0,0:0:0:0:
192,192,110390,1,0,0:0:0:0:
192,192,110724,1,0,0:0:0:0:
448,192,110890,1,0,0:0:0:0:
320,192,110890,1,0,0:0:0:0:
320,192,111057,1,0,0:0:0:0:
192,192,111057,1,0,0:0:0:0:
448,192,111390,1,0,0:0:0:0:
192,192,111724,1,0,0:0:0:0:
448,192,111724,1,0,0:0:0:0:
320,192,111724,1,0,0:0:0:0:
320,192,112057,1,0,0:0:0:0:
192,192,112224,1,0,0:0:0:0:
448,192,112224,1,0,0:0:0:0:
320,192,112390,1,0,0:0:0:0:
448,192,112390,128,0,115057:0:0:0:0:
192,192,112724,1,0,0:0:0:0:
192,192,113057,1,0,0:0:0:0:
64,192,113057,1,0,0:0:0:0:
320,192,113057,1,0,0:0:0:0:
64,192,113557,1,0,0:0:0:0:
192,192,113557,1,0,0:0:0:0:
192,192,113724,1,0,0:0:0:0:
320,192,113724,1,0,0:0:0:0:
320,192,114057,1,0,0:0:0:0:
64,192,114390,1,0,0:0:0:0:
192,192,114390,1,0,0:0:0:0:
320,192,114390,1,0,0:0:0:0:
192,192,114890,1,0,0:0:0:0:
64,192,114890,1,0,0:0:0:0:
320,192,115057,1,0,0:0:0:0:
64,192,115057,128,0,117724:0:0:0:0:
192,192,115224,1,0,0:0:0:0:
448,192,115224,1,0,0:0:0:0:
320,192,115390,1,0,0:0:0:0:
448,192,115390,1,0,0:0:0:0:
320,192,115557,1,0,0:0:0:0:
448,192,115557,1,0,0:0:0:0:
448,192,115724,1,0,0:0:0:0:
320,192,115724,1,0,0:0:0:0:
192,192,115724,1,0,0:0:0:0:
448,192,116057,1,0,0:0:0:0:
320,192,116390,1,0,0:0:0:0:
192,192,116390,1,0,0:0:0:0:
448,192,116557,1,0,0:0:0:0:
320,192,116557,1,0,0:0:0:0:
192,192,116724,1,0,0:0:0:0:
448,192,117057,1,0,0:0:0:0:
320,192,117057,1,0,0:0:0:0:
192,192,117057,1,0,0:0:0:0:
192,192,117390,1,0,0:0:0:0:
448,192,117724,1,0,0:0:0:0:
320,192,117724,128,0,119057:0:0:0:0:
192,192,118057,1,0,0:0:0:0:
64,192,118390,1,0,0:0:0:0:
448,192,118390,1,0,0:0:0:0:
192,192,118390,1,0,0:0:0:0:
192,192,118724,1,0,0:0:0:0:
64,192,119057,1,0,0:0:0:0:
192,192,119057,128,0,120390:0:0:0:0:
448,192,119224,1,0,0:0:0:0:
320,192,119224,1,0,0:0:0:0:
64,192,119390,1,0,0:0:0:0:
448,192,119724,1,0,0:0:0:0:
320,192,119724,1,0,0:0:0:0:
64,192,119724,1,0,0:0:0:0:
320,192,120057,1,0,0:0:0:0:
320,192,120390,1,0,0:0:0:0:
448,192,120390,128,0,123057:0:0:0:0:
64,192,120557,1,0,0:0:0:0:
192,192,120557,1,0,0:0:0:0:
320,192,120724,1,0,0:0:0:0:
64,192,120724,1,0,0:0:0:0:
64,192,120890,1,0,0:0:0:0:
192,192,120890,1,0,0:0:0:0:
320,192,121057,1,0,0:0:0:0:
192,192,121057,1,0,0:0:0:0:
64,192,121057,1,0,0:0:0:0:
320,192,121390,1,0,0:0:0:0:
320,192,121724,1,0,0:0:0:0:
64,192,121724,1,0,0:0:0:0:
192,192,121890,1,0,0:0:0:0:
64,192,121890,1,0,0:0:0:0:
320,192,122057,1,0,0:0:0:0:
64,192,122390,1,0,0:0:0:0:
320,192,122390,1,0,0:0:0:0:
192,192,122390,1,0,0:0:0:0:
192,192,122724,1,0,0:0:0:0:
320,192,123057,1,0,0:0:0:0:
64,192,123057,128,0,125724:0:0:0:0:
192,192,123224,1,0,0:0:0:0:
448,192,123224,1,0,0:0:0:0:
320,192,123390,1,0,0:0:0:0:
448,192,123390,1,0,0:0:0:0:
320,192,123557,1,0,0:0:0:0:
448,192,123557,1,0,0:0:0:0:
448,192,123724,1,0,0:0:0:0:
320,192,123724,1,0,0:0:0:0:
192,192,123724,1,0,0:0:0:0:
192,192,124057,1,0,0:0:0:0:
448,192,124390,1,0,0:0:0:0:
320,192,124390,1,0,0:0:0:0:
192,192,124557,1,0,0:0:0:0:
448,192,124557,1,0,0:0:0:0:
320,192,124724,1,0,0:0:0:0:
448,192,124724,1,0,0:0:0:0:
192,192,124724,1,0,0:0:0:0:
192,192,125057,1,0,0:0:0:0:
320,192,125057,1,0,0:0:0:0:
448,192,125057,1,0,0:0:0:0:
448,192,125724,128,0,131057:0:0:0:0:
192,192,125724,128,0,128390:0:0:0:0:
320,192,125724,1,0,0:0:0:0:
320,192,128390,128,0,129724:0:0:0:0:
192,192,129724,128,0,131057:0:0:0:0:
64,192,131057,128,0,133724:0:0:0:0:
192,192,131612,1,0,0:0:0:0:
320,192,131724,1,0,0:0:0:0:
448,192,131835,128,0,136390:0:0:0:0:
192,192,133724,128,0,135057:0:0:0:0:
320,192,135057,128,0,136390:0:0:0:0:
192,192,136390,128,0,139057:0:0:0:0:
64,192,136390,128,0,141724:0:0:0:0:
448,192,139057,128,0,140390:0:0:0:0:
192,192,139724,1,0,0:0:0:0:
320,192,139835,1,0,0:0:0:0:
192,192,139946,1,0,0:0:0:0:
320,192,140390,128,0,141724:0:0:0:0:
448,192,141724,128,0,144390:0:0:0:0:
192,192,141724,128,0,144390:0:0:0:0:
320,192,143057,128,0,146390:0:0:0:0:
64,192,144390,128,0,146390:0:0:0:0:
448,192,146390,1,0,0:0:0:0:
192,192,146390,1,0,0:0:0:0:
448,192,146557,1,0,0:0:0:0:
192,192,146557,1,0,0:0:0:0:
192,192,146890,1,0,0:0:0:0:
448,192,146890,1,0,0:0:0:0:
448,192,147057,1,0,0:0:0:0:
320,192,147057,1,0,0:0:0:0:
64,192,147057,128,0,149724:0:0:0:0:
192,192,147390,1,0,0:0:0:0:
448,192,147724,1,0,0:0:0:0:
320,192,147724,1,0,0:0:0:0:
192,192,147724,1,0,0:0:0:0:
192,192,148057,1,0,0:0:0:0:
448,192,148224,1,0,0:0:0:0:
320,192,148224,1,0,0:0:0:0:
320,192,148390,1,0,0:0:0:0:
192,192,148390,1,0,0:0:0:0:
448,192,149057,1,0,0:0:0:0:
192,192,149057,1,0,0:0:0:0:
320,192,149057,1,0,0:0:0:0:
448,192,149557,1,0,0:0:0:0:
192,192,149557,1,0,0:0:0:0:
320,192,149724,1,0,0:0:0:0:
192,192,149724,128,0,151057:0:0:0:0:
448,192,150057,1,0,0:0:0:0:
320,192,150390,1,0,0:0:0:0:
64,192,150390,1,0,0:0:0:0:
448,192,150390,1,0,0:0:0:0:
64,192,150890,1,0,0:0:0:0:
448,192,150890,1,0,0:0:0:0:
448,192,151057,1,0,0:0:0:0:
320,192,151057,128,0,152390:0:0:0:0:
192,192,151557,1,0,0:0:0:0:
64,192,151557,1,0,0:0:0:0:
448,192,151724,1,0,0:0:0:0:
64,192,151724,1,0,0:0:0:0:
192,192,151724,1,0,0:0:0:0:
64,192,152057,1,0,0:0:0:0:
448,192,152057,1,0,0:0:0:0:
192,192,152057,1,0,0:0:0:0:
64,192,152224,1,0,0:0:0:0:
448,192,152224,1,0,0:0:0:0:
192,192,152224,1,0,0:0:0:0:
448,192,152390,128,0,157724:0:0:0:0:
192,192,152390,128,0,155057:0:0:0:0:
64,192,155057,128,0,156390:0:0:0:0:
320,192,156390,128,0,157724:0:0:0:0:
192,192,157724,1,0,0:0:0:0:
64,192,157724,128,0,160390:0:0:0:0:
320,192,158057,1,0,0:0:0:0:
320,192,158390,1,0,0:0:0:0:
448,192,158390,1,0,0:0:0:0:
192,192,158390,1,0,0:0:0:0:
192,192,158724,1,0,0:0:0:0:
448,192,158890,1,0,0:0:0:0:
320,192,158890,1,0,0:0:0:0:
320,192,159057,1,0,0:0:0:0:
192,192,159057,1,0,0:0:0:0:
448,192,159390,1,0,0:0:0:0:
320,192,159724,1,0,0:0:0:0:
192,192,159724,1,0,0:0:0:0:
448,192,159724,1,0,0:0:0:0:
320,192,160224,1,0,0:0:0:0:
448,192,160224,1,0,0:0:0:0:
448,192,160390,1,0,0:0:0:0:
192,192,160390,128,0,161724:0:0:0:0:
64,192,160724,1,0,0:0:0:0:
320,192,161057,1,0,0:0:0:0:
448,192,161057,1,0,0:0:0:0:
64,192,161057,1,0,0:0:0:0:
448,192,161557,1,0,0:0:0:0:
64,192,161557,1,0,0:0:0:0:
64,192,161724,1,0,0:0:0:0:
320,192,161724,128,0,163057:0:0:0:0:
448,192,162057,1,0,0:0:0:0:
192,192,162390,1,0,0:0:0:0:
64,192,162390,1,0,0:0:0:0:
448,192,162390,1,0,0:0:0:0:
64,192,162724,1,0,0:0:0:0:
192,192,162890,1,0,0:0:0:0:
448,192,162890,1,0,0:0:0:0:
64,192,163057,1,0,0:0:0:0:
448,192,163057,128,0,165724:0:0:0:0:
320,192,163390,1,0,0:0:0:0:
192,192,163724,1,0,0:0:0:0:
64,192,163724,1,0,0:0:0:0:
320,192,163724,1,0,0:0:0:0:
64,192,164057,1,0,0:0:0:0:
320,192,164224,1,0,0:0:0:0:
192,192,164224,1,0,0:0:0:0:
192,192,164390,1,0,0:0:0:0:
64,192,164390,1,0,0:0:0:0:
320,192,164724,1,0,0:0:0:0:
320,192,165057,1,0,0:0:0:0:
192,192,165057,1,0,0:0:0:0:
64,192,165057,1,0,0:0:0:0:
320,192,165557,1,0,0:0:0:0:
64,192,165557,1,0,0:0:0:0:
192,192,165724,1,0,0:0:0:0:
64,192,165724,128,0,168390:0:0:0:0:
448,192,166057,1,0,0:0:0:0:
320,192,166390,1,0,0:0:0:0:
192,192,166390,1,0,0:0:0:0:
448,192,166390,1,0,0:0:0:0:
192,192,166890,1,0,0:0:0:0:
320,192,166890,1,0,0:0:0:0:
320,192,167057,1,0,0:0:0:0:
448,192,167057,1,0,0:0:0:0:
192,192,167390,1,0,0:0:0:0:
192,192,167724,1,0,0:0:0:0:
448,192,167724,1,0,0:0:0:0:
320,192,167724,1,0,0:0:0:0:
192,192,168390,128,0,173724:0:0:0:0:
320,192,168390,128,0,173390:0:0:0:0:
448,192,168390,128,0,173057:0:0:0:0:
448,192,174140,128,0,175019:0:0:0:0:
320,192,174590,128,0,175447:0:0:0:0:
192,192,175019,128,0,175876:0:0:0:0:
64,192,175447,128,0,175876:0:0:0:0:
448,192,175876,128,0,178340:0:0:0:0:
320,192,175876,128,0,178340:0:0:0:0:
64,192,177590,1,0,0:0:0:0:
192,192,177697,1,0,0:0:0:0:
64,192,177697,1,0,0:0:0:0:
192,192,177912,1,0,0:0:0:0:
64,192,178019,1,0,0:0:0:0:
192,192,178233,1,0,0:0:0:0:
64,192,178447,128,0,179090:0:0:0:0:
448,192,178447,128,0,179090:0:0:0:0:
320,192,178447,1,0,0:0:0:0:
192,192,178662,1,0,0:0:0:0:
320,192,178876,1,0,0:0:0:0:
192,192,179090,128,0,182304:0:0:0:0:
320,192,179090,128,0,181662:0:0:0:0:
448,192,179304,1,0,0:0:0:0:
64,192,179519,1,0,0:0:0:0:
448,192,179733,1,0,0:0:0:0:
64,192,179947,1,0,0:0:0:0:
448,192,180162,1,0,0:0:0:0:
64,192,180376,1,0,0:0:0:0:
448,192,180590,1,0,0:0:0:0:
64,192,180804,1,0,0:0:0:0:
448,192,181019,1,0,0:0:0:0:
64,192,181233,1,0,0:0:0:0:
448,192,181447,1,0,0:0:0:0:
64,192,181662,1,0,0:0:0:0:
448,192,181876,1,0,0:0:0:0:
320,192,181983,1,0,0:0:0:0:
64,192,182090,1,0,0:0:0:0:
320,192,182197,1,0,0:0:0:0:
448,192,182304,1,0,0:0:0:0:
64,192,182412,1,0,0:0:0:0:
320,192,182519,1,0,0:0:0:0:
192,192,182626,1,0,0:0:0:0:
448,192,182733,1,0,0:0:0:0:
320,192,182733,128,0,185197:0:0:0:0:
64,192,182733,1,0,0:0:0:0:
192,192,182840,1,0,0:0:0:0:
448,192,182947,1,0,0:0:0:0:
64,192,183054,1,0,0:0:0:0:
192,192,183162,1,0,0:0:0:0:
448,192,183269,1,0,0:0:0:0:
64,192,183376,1,0,0:0:0:0:
192,192,183483,1,0,0:0:0:0:
448,192,183590,1,0,0:0:0:0:
64,192,183697,1,0,0:0:0:0:
192,192,183804,1,0,0:0:0:0:
448,192,183912,1,0,0:0:0:0:
64,192,184019,1,0,0:0:0:0:
192,192,184126,1,0,0:0:0:0:
448,192,184233,1,0,0:0:0:0:
64,192,184340,1,0,0:0:0:0:
192,192,184447,1,0,0:0:0:0:
448,192,184554,1,0,0:0:0:0:
64,192,184662,1,0,0:0:0:0:
192,192,184769,1,0,0:0:0:0:
448,192,184876,1,0,0:0:0:0:
64,192,184983,1,0,0:0:0:0:
192,192,185090,1,0,0:0:0:0:
64,192,185197,1,0,0:0:0:0:
192,192,185304,128,0,185840:0:0:0:0:
448,192,185304,1,0,0:0:0:0:
320,192,185412,1,0,0:0:0:0:
64,192,185519,1,0,0:0:0:0:
448,192,185626,1,0,0:0:0:0:
320,192,185733,1,0,0:0:0:0:
448,192,185840,1,0,0:0:0:0:
64,192,185947,128,0,187876:0:0:0:0:
320,192,185947,128,0,187876:0:0:0:0:
192,192,185947,1,0,0:0:0:0:
192,192,187019,128,0,187876:0:0:0:0:
448,192,187447,128,0,187876:0:0:0:0:
448,192,188733,1,0,0:0:0:0:
320,192,188733,1,0,0:0:0:0:
64,192,188840,1,0,0:0:0:0:
192,192,188840,1,0,0:0:0:0:
64,192,189054,1,0,0:0:0:0:
192,192,189054,1,0,0:0:0:0:
448,192,189269,1,0,0:0:0:0:
64,192,189269,1,0,0:0:0:0:
192,192,189376,1,0,0:0:0:0:
320,192,189376,1,0,0:0:0:0:
448,192,189590,1,0,0:0:0:0:
320,192,189590,128,0,190233:0:0:0:0:
192,192,189912,128,0,190447:0:0:0:0:
64,192,190233,128,0,190447:0:0:0:0:
448,192,190447,1,0,0:0:0:0:
320,192,190447,128,0,190662:0:0:0:0:
192,192,190662,128,0,191304:0:0:0:0:
320,192,190876,128,0,191304:0:0:0:0:
448,192,190876,1,0,0:0:0:0:
448,192,191019,1,0,0:0:0:0:
448,192,191162,1,0,0:0:0:0:
448,192,191304,1,0,0:0:0:0:
64,192,191304,1,0,0:0:0:0:
192,192,191412,1,0,0:0:0:0:
448,192,191519,1,0,0:0:0:0:
320,192,191519,1,0,0:0:0:0:
64,192,191626,1,0,0:0:0:0:
448,192,191733,1,0,0:0:0:0:
192,192,191840,1,0,0:0:0:0:
320,192,191947,1,0,0:0:0:0:
64,192,191947,1,0,0:0:0:0:
192,192,192162,1,0,0:0:0:0:
64,192,192162,1,0,0:0:0:0:
448,192,192162,1,0,0:0:0:0:
320,192,192269,1,0,0:0:0:0:
192,192,192376,1,0,0:0:0:0:
64,192,192376,1,0,0:0:0:0:
320,192,192590,1,0,0:0:0:0:
448,192,192590,128,0,193019:0:0:0:0:
64,192,192697,1,0,0:0:0:0:
192,192,192804,1,0,0:0:0:0:
320,192,192912,1,0,0:0:0:0:
64,192,193019,1,0,0:0:0:0:
192,192,193019,128,0,193662:0:0:0:0:
64,192,193233,1,0,0:0:0:0:
320,192,193340,128,0,193876:0:0:0:0:
448,192,193340,1,0,0:0:0:0:
64,192,193447,1,0,0:0:0:0:
448,192,193662,128,0,193876:0:0:0:0:
64,192,193662,1,0,0:0:0:0:
64,192,193876,1,0,0:0:0:0:
192,192,193876,128,0,194090:0:0:0:0:
320,192,194090,128,0,194733:0:0:0:0:
448,192,194090,1,0,0:0:0:0:
192,192,194304,128,0,194733:0:0:0:0:
64,192,194304,1,0,0:0:0:0:
448,192,194519,1,0,0:0:0:0:
448,192,194733,1,0,0:0:0:0:
64,192,194733,1,0,0:0:0:0:
320,192,194840,1,0,0:0:0:0:
64,192,194947,1,0,0:0:0:0:
192,192,195054,1,0,0:0:0:0:
320,192,195162,1,0,0:0:0:0:
448,192,195162,1,0,0:0:0:0:
192,192,195376,1,0,0:0:0:0:
320,192,195483,1,0,0:0:0:0:
64,192,195590,1,0,0:0:0:0:
448,192,195590,1,0,0:0:0:0:
192,192,195590,1,0,0:0:0:0:
320,192,195804,1,0,0:0:0:0:
64,192,195912,1,0,0:0:0:0:
192,192,196019,128,0,196447:0:0:0:0:
320,192,196019,1,0,0:0:0:0:
448,192,196233,1,0,0:0:0:0:
64,192,196340,1,0,0:0:0:0:
320,192,196447,128,0,197090:0:0:0:0:
448,192,196447,1,0,0:0:0:0:
64,192,196662,1,0,0:0:0:0:
192,192,196769,128,0,197304:0:0:0:0:
448,192,196769,1,0,0:0:0:0:
64,192,196876,1,0,0:0:0:0:
64,192,197090,128,0,197304:0:0:0:0:
448,192,197090,1,0,0:0:0:0:
448,192,197304,1,0,0:0:0:0:
320,192,197304,128,0,197519:0:0:0:0:
192,192,197519,128,0,198162:0:0:0:0:
64,192,197519,1,0,0:0:0:0:
320,192,197733,128,0,198162:0:0:0:0:
448,192,197733,1,0,0:0:0:0:
448,192,197876,1,0,0:0:0:0:
448,192,198019,1,0,0:0:0:0:
64,192,198162,1,0,0:0:0:0:
448,192,198162,1,0,0:0:0:0:
192,192,198269,1,0,0:0:0:0:
448,192,198376,1,0,0:0:0:0:
64,192,198376,1,0,0:0:0:0:
320,192,198483,1,0,0:0:0:0:
192,192,198590,1,0,0:0:0:0:
448,192,198804,1,0,0:0:0:0:
64,192,198804,1,0,0:0:0:0:
192,192,198912,1,0,0:0:0:0:
64,192,199019,1,0,0:0:0:0:
320,192,199019,1,0,0:0:0:0:
448,192,199019,1,0,0:0:0:0:
448,192,199233,1,0,0:0:0:0:
192,192,199233,1,0,0:0:0:0:
64,192,199447,1,0,0:0:0:0:
320,192,199447,128,0,199876:0:0:0:0:
448,192,199662,1,0,0:0:0:0:
192,192,199662,1,0,0:0:0:0:
64,192,199876,1,0,0:0:0:0:
192,192,199876,128,0,200519:0:0:0:0:
448,192,200090,1,0,0:0:0:0:
320,192,200197,128,0,200733:0:0:0:0:
64,192,200197,1,0,0:0:0:0:
448,192,200304,1,0,0:0:0:0:
448,192,200519,128,0,200733:0:0:0:0:
64,192,200519,1,0,0:0:0:0:
64,192,200733,1,0,0:0:0:0:
192,192,200733,128,0,200947:0:0:0:0:
320,192,200947,128,0,201590:0:0:0:0:
448,192,200947,1,0,0:0:0:0:
192,192,201162,128,0,201590:0:0:0:0:
64,192,201162,1,0,0:0:0:0:
448,192,201269,1,0,0:0:0:0:
64,192,201376,1,0,0:0:0:0:
448,192,201483,1,0,0:0:0:0:
448,192,201590,1,0,0:0:0:0:
64,192,201590,1,0,0:0:0:0:
192,192,201697,1,0,0:0:0:0:
64,192,201804,1,0,0:0:0:0:
448,192,201804,1,0,0:0:0:0:
320,192,201912,1,0,0:0:0:0:
192,192,202019,1,0,0:0:0:0:
64,192,202233,1,0,0:0:0:0:
448,192,202233,1,0,0:0:0:0:
192,192,202340,1,0,0:0:0:0:
64,192,202447,1,0,0:0:0:0:
320,192,202447,1,0,0:0:0:0:
448,192,202447,1,0,0:0:0:0:
192,192,202662,1,0,0:0:0:0:
448,192,202662,1,0,0:0:0:0:
320,192,202876,1,0,0:0:0:0:
192,192,202876,128,0,203304:0:0:0:0:
64,192,203090,1,0,0:0:0:0:
320,192,203197,1,0,0:0:0:0:
64,192,203304,1,0,0:0:0:0:
448,192,203304,128,0,203947:0:0:0:0:
320,192,203626,128,0,204162:0:0:0:0:
192,192,203947,128,0,204162:0:0:0:0:
64,192,204162,1,0,0:0:0:0:
448,192,204162,128,0,204376:0:0:0:0:
320,192,204376,128,0,205019:0:0:0:0:
64,192,204376,1,0,0:0:0:0:
192,192,204483,1,0,0:0:0:0:
64,192,204590,128,0,205019:0:0:0:0:
448,192,204590,1,0,0:0:0:0:
448,192,204733,1,0,0:0:0:0:
448,192,204876,1,0,0:0:0:0:
448,192,205019,1,0,0:0:0:0:
192,192,205019,1,0,0:0:0:0:
320,192,205126,1,0,0:0:0:0:
448,192,205233,1,0,0:0:0:0:
64,192,205233,1,0,0:0:0:0:
320,192,205340,1,0,0:0:0:0:
192,192,205447,1,0,0:0:0:0:
64,192,205447,1,0,0:0:0:0:
448,192,205662,1,0,0:0:0:0:
64,192,205662,1,0,0:0:0:0:
320,192,205769,1,0,0:0:0:0:
192,192,205876,1,0,0:0:0:0:
448,192,205876,1,0,0:0:0:0:
64,192,205876,1,0,0:0:0:0:
448,192,206090,1,0,0:0:0:0:
64,192,206090,1,0,0:0:0:0:
320,192,206197,1,0,0:0:0:0:
192,192,206304,128,0,206733:0:0:0:0:
448,192,206304,1,0,0:0:0:0:
320,192,206519,1,0,0:0:0:0:
64,192,206733,128,0,207376:0:0:0:0:
448,192,206733,1,0,0:0:0:0:
448,192,206947,1,0,0:0:0:0:
192,192,207054,128,0,207590:0:0:0:0:
320,192,207054,1,0,0:0:0:0:
448,192,207162,1,0,0:0:0:0:
320,192,207376,128,0,207590:0:0:0:0:
448,192,207376,1,0,0:0:0:0:
448,192,207590,1,0,0:0:0:0:
64,192,207590,128,0,207804:0:0:0:0:
192,192,207804,128,0,208447:0:0:0:0:
448,192,207804,1,0,0:0:0:0:
320,192,207912,1,0,0:0:0:0:
448,192,208019,128,0,208447:0:0:0:0:
64,192,208019,1,0,0:0:0:0:
64,192,208162,1,0,0:0:0:0:
64,192,208304,1,0,0:0:0:0:
64,192,208447,1,0,0:0:0:0:
320,192,208447,1,0,0:0:0:0:
448,192,208554,1,0,0:0:0:0:
192,192,208662,1,0,0:0:0:0:
320,192,208662,1,0,0:0:0:0:
64,192,208769,1,0,0:0:0:0:
320,192,208876,1,0,0:0:0:0:
320,192,209090,1,0,0:0:0:0:
448,192,209090,1,0,0:0:0:0:
192,192,209197,1,0,0:0:0:0:
320,192,209304,1,0,0:0:0:0:
448,192,209304,1,0,0:0:0:0:
64,192,209304,1,0,0:0:0:0:
192,192,209519,1,0,0:0:0:0:
320,192,209519,1,0,0:0:0:0:
320,192,209733,128,0,210162:0:0:0:0:
448,192,209733,1,0,0:0:0:0:
64,192,209840,1,0,0:0:0:0:
448,192,209947,1,0,0:0:0:0:
448,192,210162,128,0,210804:0:0:0:0:
64,192,210162,1,0,0:0:0:0:
64,192,210376,1,0,0:0:0:0:
192,192,210483,128,0,211019:0:0:0:0:
320,192,210483,1,0,0:0:0:0:
64,192,210590,1,0,0:0:0:0:
320,192,210804,128,0,211019:0:0:0:0:
64,192,210804,1,0,0:0:0:0:
64,192,211019,1,0,0:0:0:0:
448,192,211019,128,0,211233:0:0:0:0:
320,192,211233,128,0,211876:0:0:0:0:
192,192,211233,1,0,0:0:0:0:
64,192,211447,128,0,211876:0:0:0:0:
448,192,211447,1,0,0:0:0:0:
448,192,211590,1,0,0:0:0:0:
448,192,211733,1,0,0:0:0:0:
448,192,211876,1,0,0:0:0:0:
192,192,211876,1,0,0:0:0:0:
64,192,211983,1,0,0:0:0:0:
448,192,212090,1,0,0:0:0:0:
320,192,212090,1,0,0:0:0:0:
192,192,212197,1,0,0:0:0:0:
320,192,212304,1,0,0:0:0:0:
448,192,212519,1,0,0:0:0:0:
64,192,212519,1,0,0:0:0:0:
192,192,212626,1,0,0:0:0:0:
64,192,212733,1,0,0:0:0:0:
320,192,212733,1,0,0:0:0:0:
448,192,212733,1,0,0:0:0:0:
448,192,212947,1,0,0:0:0:0:
192,192,212947,1,0,0:0:0:0:
192,192,213162,128,0,213590:0:0:0:0:
64,192,213162,1,0,0:0:0:0:
448,192,213269,1,0,0:0:0:0:
64,192,213376,1,0,0:0:0:0:
448,192,213590,1,0,0:0:0:0:
64,192,213590,128,0,214233:0:0:0:0:
448,192,213804,1,0,0:0:0:0:
320,192,213912,128,0,214447:0:0:0:0:
192,192,213912,1,0,0:0:0:0:
448,192,214019,1,0,0:0:0:0:
192,192,214233,128,0,214447:0:0:0:0:
448,192,214233,1,0,0:0:0:0:
448,192,214447,1,0,0:0:0:0:
64,192,214447,128,0,214662:0:0:0:0:
320,192,214662,128,0,215304:0:0:0:0:
192,192,214662,1,0,0:0:0:0:
448,192,214876,128,0,215304:0:0:0:0:
64,192,214876,1,0,0:0:0:0:
64,192,215019,1,0,0:0:0:0:
64,192,215162,1,0,0:0:0:0:
192,192,215304,1,0,0:0:0:0:
64,192,215304,128,0,215733:0:0:0:0:
448,192,215519,1,0,0:0:0:0:
192,192,215626,1,0,0:0:0:0:
320,192,215733,128,0,216162:0:0:0:0:
448,192,215733,1,0,0:0:0:0:
448,192,215947,1,0,0:0:0:0:
64,192,216054,1,0,0:0:0:0:
192,192,216162,128,0,216590:0:0:0:0:
448,192,216162,1,0,0:0:0:0:
320,192,216376,1,0,0:0:0:0:
64,192,216483,1,0,0:0:0:0:
448,192,216590,128,0,217019:0:0:0:0:
320,192,216590,128,0,217019:0:0:0:0:
64,192,216804,1,0,0:0:0:0:
64,192,217019,1,0,0:0:0:0:
192,192,217019,128,0,217662:0:0:0:0:
448,192,217233,128,0,217340:0:0:0:0:
320,192,217340,128,0,217876:0:0:0:0:
64,192,217340,128,0,217662:0:0:0:0:
448,192,217662,128,0,217876:0:0:0:0:
64,192,217876,1,0,0:0:0:0:
192,192,217876,1,0,0:0:0:0:
448,192,217983,1,0,0:0:0:0:
64,192,218090,1,0,0:0:0:0:
192,192,218090,128,0,218304:0:0:0:0:
448,192,218304,128,0,218519:0:0:0:0:
320,192,218304,1,0,0:0:0:0:
64,192,218519,128,0,218733:0:0:0:0:
192,192,218519,1,0,0:0:0:0:
320,192,218733,128,0,218947:0:0:0:0:
448,192,218733,1,0,0:0:0:0:
448,192,218947,128,0,219590:0:0:0:0:
64,192,218947,1,0,0:0:0:0:
192,192,219162,128,0,219590:0:0:0:0:
64,192,219162,1,0,0:0:0:0:
64,192,219304,1,0,0:0:0:0:
64,192,219447,1,0,0:0:0:0:
320,192,219590,1,0,0:0:0:0:
64,192,219590,1,0,0:0:0:0:
448,192,219804,1,0,0:0:0:0:
192,192,219804,1,0,0:0:0:0:
64,192,220019,1,0,0:0:0:0:
320,192,220019,128,0,220233:0:0:0:0:
448,192,220126,1,0,0:0:0:0:
64,192,220233,1,0,0:0:0:0:
192,192,220233,128,0,220447:0:0:0:0:
448,192,220447,1,0,0:0:0:0:
320,192,220447,128,0,220983:0:0:0:0:
192,192,220662,128,0,220769:0:0:0:0:
448,192,220662,1,0,0:0:0:0:
64,192,220769,128,0,220983:0:0:0:0:
448,192,220983,128,0,221304:0:0:0:0:
192,192,220983,1,0,0:0:0:0:
320,192,221090,128,0,221304:0:0:0:0:
64,192,221090,1,0,0:0:0:0:
192,192,221304,1,0,0:0:0:0:
64,192,221304,1,0,0:0:0:0:
64,192,221412,128,0,221733:0:0:0:0:
320,192,221412,1,0,0:0:0:0:
448,192,221519,1,0,0:0:0:0:
192,192,221519,128,0,221733:0:0:0:0:
320,192,221733,1,0,0:0:0:0:
448,192,221733,128,0,222162:0:0:0:0:
320,192,221947,1,0,0:0:0:0:
192,192,221947,128,0,222162:0:0:0:0:
64,192,222162,1,0,0:0:0:0:
320,192,222162,128,0,222590:0:0:0:0:
192,192,222376,128,0,223019:0:0:0:0:
64,192,222376,1,0,0:0:0:0:
64,192,222590,128,0,223019:0:0:0:0:
448,192,222590,1,0,0:0:0:0:
448,192,222733,1,0,0:0:0:0:
448,192,222876,1,0,0:0:0:0:
448,192,223019,1,0,0:0:0:0:
320,192,223019,1,0,0:0:0:0:
192,192,223233,1,0,0:0:0:0:
320,192,223233,1,0,0:0:0:0:
448,192,223447,1,0,0:0:0:0:
64,192,223447,1,0,0:0:0:0:
192,192,223554,1,0,0:0:0:0:
320,192,223662,1,0,0:0:0:0:
448,192,223662,1,0,0:0:0:0:
192,192,223769,1,0,0:0:0:0:
64,192,223876,128,0,224519:0:0:0:0:
448,192,223876,1,0,0:0:0:0:
320,192,224197,128,0,224733:0:0:0:0:
192,192,224519,128,0,224733:0:0:0:0:
448,192,224733,128,0,225162:0:0:0:0:
64,192,224733,1,0,0:0:0:0:
320,192,224947,128,0,225590:0:0:0:0:
192,192,225162,128,0,225590:0:0:0:0:
64,192,225162,1,0,0:0:0:0:
448,192,225304,1,0,0:0:0:0:
64,192,225447,1,0,0:0:0:0:
64,192,225590,1,0,0:0:0:0:
448,192,225590,1,0,0:0:0:0:
320,192,225697,1,0,0:0:0:0:
448,192,225804,1,0,0:0:0:0:
192,192,225804,1,0,0:0:0:0:
64,192,225912,1,0,0:0:0:0:
320,192,226019,1,0,0:0:0:0:
448,192,226233,1,0,0:0:0:0:
64,192,226233,1,0,0:0:0:0:
192,192,226340,1,0,0:0:0:0:
320,192,226447,1,0,0:0:0:0:
448,192,226447,1,0,0:0:0:0:
64,192,226447,1,0,0:0:0:0:
448,192,226662,1,0,0:0:0:0:
192,192,226662,1,0,0:0:0:0:
320,192,226769,1,0,0:0:0:0:
192,192,226876,128,0,227304:0:0:0:0:
64,192,226876,1,0,0:0:0:0:
448,192,227090,1,0,0:0:0:0:
320,192,227090,1,0,0:0:0:0:
64,192,227197,1,0,0:0:0:0:
320,192,227304,1,0,0:0:0:0:
448,192,227304,128,0,227947:0:0:0:0:
320,192,227519,1,0,0:0:0:0:
192,192,227626,128,0,228162:0:0:0:0:
64,192,227626,1,0,0:0:0:0:
320,192,227733,1,0,0:0:0:0:
320,192,227947,128,0,228162:0:0:0:0:
64,192,227947,1,0,0:0:0:0:
64,192,228162,128,0,228590:0:0:0:0:
448,192,228162,1,0,0:0:0:0:
192,192,228376,128,0,229019:0:0:0:0:
448,192,228376,1,0,0:0:0:0:
448,192,228590,1,0,0:0:0:0:
320,192,228590,128,0,229019:0:0:0:0:
64,192,228733,1,0,0:0:0:0:
448,192,228876,1,0,0:0:0:0:
64,192,229019,1,0,0:0:0:0:
448,192,229019,1,0,0:0:0:0:
320,192,229126,1,0,0:0:0:0:
192,192,229233,1,0,0:0:0:0:
64,192,229233,1,0,0:0:0:0:
320,192,229340,1,0,0:0:0:0:
448,192,229447,1,0,0:0:0:0:
192,192,229554,1,0,0:0:0:0:
64,192,229662,1,0,0:0:0:0:
448,192,229662,1,0,0:0:0:0:
320,192,229769,1,0,0:0:0:0:
64,192,229876,1,0,0:0:0:0:
192,192,229876,1,0,0:0:0:0:
448,192,229876,1,0,0:0:0:0:
448,192,230090,1,0,0:0:0:0:
192,192,230090,1,0,0:0:0:0:
320,192,230197,1,0,0:0:0:0:
64,192,230304,1,0,0:0:0:0:
192,192,230304,128,0,230733:0:0:0:0:
320,192,230519,1,0,0:0:0:0:
448,192,230519,1,0,0:0:0:0:
64,192,230626,1,0,0:0:0:0:
320,192,230733,128,0,231376:0:0:0:0:
448,192,230733,1,0,0:0:0:0:
64,192,230947,128,0,231054:0:0:0:0:
448,192,231054,128,0,231376:0:0:0:0:
192,192,231054,128,0,231590:0:0:0:0:
64,192,231376,128,0,231590:0:0:0:0:
320,192,231590,1,0,0:0:0:0:
448,192,231590,1,0,0:0:0:0:
64,192,231697,1,0,0:0:0:0:
320,192,231804,128,0,232019:0:0:0:0:
448,192,231804,1,0,0:0:0:0:
192,192,232019,1,0,0:0:0:0:
64,192,232019,128,0,232233:0:0:0:0:
448,192,232233,128,0,232447:0:0:0:0:
320,192,232233,1,0,0:0:0:0:
192,192,232447,128,0,232662:0:0:0:0:
64,192,232447,1,0,0:0:0:0:
64,192,232662,128,0,233304:0:0:0:0:
448,192,232662,1,0,0:0:0:0:
320,192,232876,128,0,233304:0:0:0:0:
448,192,232876,1,0,0:0:0:0:
448,192,233019,1,0,0:0:0:0:
448,192,233162,1,0,0:0:0:0:
192,192,233304,1,0,0:0:0:0:
448,192,233304,1,0,0:0:0:0:
320,192,233519,1,0,0:0:0:0:
64,192,233519,1,0,0:0:0:0:
192,192,233733,128,0,233947:0:0:0:0:
448,192,233733,1,0,0:0:0:0:
64,192,233840,1,0,0:0:0:0:
320,192,233947,128,0,234162:0:0:0:0:
448,192,233947,1,0,0:0:0:0:
192,192,234162,128,0,234697:0:0:0:0:
64,192,234162,1,0,0:0:0:0:
320,192,234376,128,0,234483:0:0:0:0:
64,192,234376,1,0,0:0:0:0:
448,192,234483,128,0,234697:0:0:0:0:
320,192,234697,1,0,0:0:0:0:
64,192,234697,128,0,235019:0:0:0:0:
448,192,234804,1,0,0:0:0:0:
192,192,234804,128,0,235019:0:0:0:0:
320,192,235019,1,0,0:0:0:0:
448,192,235019,1,0,0:0:0:0:
192,192,235126,1,0,0:0:0:0:
448,192,235126,128,0,235447:0:0:0:0:
320,192,235233,128,0,235447:0:0:0:0:
64,192,235233,1,0,0:0:0:0:
192,192,235447,1,0,0:0:0:0:
64,192,235447,128,0,235876:0:0:0:0:
448,192,235662,128,0,235876:0:0:0:0:
320,192,235662,1,0,0:0:0:0:
320,192,235876,1,0,0:0:0:0:
192,192,235876,128,0,236304:0:0:0:0:
320,192,236090,128,0,236947:0:0:0:0:
448,192,236090,1,0,0:0:0:0:
448,192,236304,128,0,236947:0:0:0:0:
64,192,236304,1,0,0:0:0:0:
192,192,236519,1,0,0:0:0:0:
192,192,236733,1,0,0:0:0:0:
64,192,236733,1,0,0:0:0:0:
64,192,236947,1,0,0:0:0:0:
192,192,237054,1,0,0:0:0:0:
64,192,237162,1,0,0:0:0:0:
320,192,237162,1,0,0:0:0:0:
448,192,237269,1,0,0:0:0:0:
64,192,237376,1,0,0:0:0:0:
320,192,237376,1,0,0:0:0:0:
192,192,237483,1,0,0:0:0:0:
320,192,237590,128,0,238126:0:0:0:0:
64,192,237590,1,0,0:0:0:0:
448,192,237804,1,0,0:0:0:0:
192,192,237804,128,0,237912:0:0:0:0:
64,192,237912,128,0,238126:0:0:0:0:
192,192,238126,1,0,0:0:0:0:
448,192,238126,128,0,238447:0:0:0:0:
64,192,238233,1,0,0:0:0:0:
320,192,238233,128,0,238447:0:0:0:0:
64,192,238447,1,0,0:0:0:0:
192,192,238447,1,0,0:0:0:0:
320,192,238554,1,0,0:0:0:0:
192,192,238662,128,0,238876:0:0:0:0:
64,192,238662,1,0,0:0:0:0:
320,192,238876,1,0,0:0:0:0:
448,192,238876,128,0,239090:0:0:0:0:
192,192,239090,1,0,0:0:0:0:
64,192,239090,128,0,239304:0:0:0:0:
448,192,239304,1,0,0:0:0:0:
320,192,239304,128,0,239733:0:0:0:0:
192,192,239519,128,0,240162:0:0:0:0:
64,192,239519,1,0,0:0:0:0:
448,192,239733,1,0,0:0:0:0:
64,192,239733,128,0,240162:0:0:0:0:
320,192,239947,1,0,0:0:0:0:
320,192,240162,1,0,0:0:0:0:
448,192,240162,1,0,0:0:0:0:
192,192,240376,1,0,0:0:0:0:
64,192,240376,1,0,0:0:0:0:
448,192,240590,1,0,0:0:0:0:
64,192,240590,128,0,240804:0:0:0:0:
192,192,240697,1,0,0:0:0:0:
320,192,240804,1,0,0:0:0:0:
448,192,240804,128,0,241019:0:0:0:0:
192,192,241019,128,0,241554:0:0:0:0:
64,192,241019,1,0,0:0:0:0:
64,192,241233,1,0,0:0:0:0:
448,192,241233,128,0,241340:0:0:0:0:
320,192,241340,128,0,241554:0:0:0:0:
448,192,241554,1,0,0:0:0:0:
64,192,241554,128,0,241876:0:0:0:0:
320,192,241662,1,0,0:0:0:0:
192,192,241662,128,0,241876:0:0:0:0:
448,192,241876,1,0,0:0:0:0:
320,192,241876,1,0,0:0:0:0:
64,192,241983,1,0,0:0:0:0:
448,192,241983,128,0,242304:0:0:0:0:
320,192,242090,128,0,242304:0:0:0:0:
192,192,242090,1,0,0:0:0:0:
192,192,242304,1,0,0:0:0:0:
64,192,242304,128,0,242519:0:0:0:0:
320,192,242519,1,0,0:0:0:0:
448,192,242519,128,0,242733:0:0:0:0:
64,192,242733,1,0,0:0:0:0:
192,192,242733,128,0,242947:0:0:0:0:
320,192,242947,128,0,243590:0:0:0:0:
448,192,242947,1,0,0:0:0:0:
64,192,242947,128,0,243162:0:0:0:0:
192,192,243162,1,0,0:0:0:0:
448,192,243162,128,0,243590:0:0:0:0:
64,192,243376,1,0,0:0:0:0:
192,192,243590,1,0,0:0:0:0:
64,192,243590,1,0,0:0:0:0:
64,192,243804,1,0,0:0:0:0:
448,192,243804,1,0,0:0:0:0:
192,192,243912,1,0,0:0:0:0:
64,192,244019,1,0,0:0:0:0:
320,192,244019,1,0,0:0:0:0:
448,192,244126,1,0,0:0:0:0:
64,192,244233,1,0,0:0:0:0:
320,192,244233,1,0,0:0:0:0:
192,192,244340,1,0,0:0:0:0:
448,192,244442,128,0,245123:0:0:0:0:
320,192,244442,1,0,0:0:0:0:
64,192,244442,1,0,0:0:0:0:
320,192,244669,128,0,245123:0:0:0:0:
64,192,244896,128,0,245351:0:0:0:0:
192,192,245123,128,0,245351:0:0:0:0:
320,192,245351,1,0,0:0:0:0:
448,192,245351,1,0,0:0:0:0:
64,192,245464,1,0,0:0:0:0:
192,192,245464,1,0,0:0:0:0:
320,192,245578,1,0,0:0:0:0:
192,192,245692,128,0,245919:0:0:0:0:
64,192,245692,128,0,245919:0:0:0:0:
320,192,245919,1,0,0:0:0:0:
448,192,245919,1,0,0:0:0:0:
192,192,246032,1,0,0:0:0:0:
64,192,246032,1,0,0:0:0:0:
64,192,246260,128,0,247396:0:0:0:0:
320,192,246260,1,0,0:0:0:0:
192,192,246260,1,0,0:0:0:0:
448,192,246260,128,0,247396:0:0:0:0:
320,192,248078,128,0,248873:0:0:0:0:
448,192,248078,128,0,248873:0:0:0:0:
192,192,248987,128,0,249782:0:0:0:0:
64,192,248987,128,0,249782:0:0:0:0:
192,192,249896,128,0,250805:0:0:0:0:
320,192,249896,128,0,250805:0:0:0:0:
320,192,251487,128,0,251714:0:0:0:0:
64,192,251487,128,0,251714:0:0:0:0:
192,192,251942,128,0,252169:0:0:0:0:
448,192,251942,128,0,252169:0:0:0:0:
192,192,252396,128,0,252623:0:0:0:0:
320,192,252396,128,0,252623:0:0:0:0:
448,192,252851,128,0,253419:0:0:0:0:
320,192,252851,128,0,253419:0:0:0:0:
192,192,253532,1,0,0:0:0:0:
64,192,253532,128,0,254669:0:0:0:0:
320,192,253760,1,0,0:0:0:0:
192,192,253987,1,0,0:0:0:0:
448,192,254214,1,0,0:0:0:0:
192,192,254442,1,0,0:0:0:0:
448,192,254669,1,0,0:0:0:0:
320,192,254896,1,0,0:0:0:0:
192,192,255123,1,0,0:0:0:0:
448,192,255351,128,0,256146:0:0:0:0:
64,192,255351,1,0,0:0:0:0:
320,192,255578,1,0,0:0:0:0:
64,192,255805,1,0,0:0:0:0:
192,192,256032,1,0,0:0:0:0:
320,192,256260,128,0,257055:0:0:0:0:
64,192,256260,1,0,0:0:0:0:
448,192,256487,1,0,0:0:0:0:
192,192,256714,1,0,0:0:0:0:
64,192,256942,1,0,0:0:0:0:
192,192,257169,128,0,258078:0:0:0:0:
448,192,257169,1,0,0:0:0:0:
64,192,257396,1,0,0:0:0:0:
320,192,257623,1,0,0:0:0:0:
64,192,257851,1,0,0:0:0:0:
448,192,258078,1,0,0:0:0:0:
320,192,258305,1,0,0:0:0:0:
192,192,258532,1,0,0:0:0:0:
192,192,258760,128,0,258987:0:0:0:0:
64,192,258760,128,0,258987:0:0:0:0:
448,192,259214,128,0,259442:0:0:0:0:
320,192,259214,128,0,259442:0:0:0:0:
320,192,259669,128,0,259896:0:0:0:0:
192,192,259669,128,0,259896:0:0:0:0:
64,192,260123,128,0,260692:0:0:0:0:
192,192,260123,128,0,260692:0:0:0:0:
448,192,260805,128,0,261942:0:0:0:0:
320,192,260805,1,0,0:0:0:0:
320,192,261146,1,0,0:0:0:0:
64,192,261260,1,0,0:0:0:0:
192,192,261260,1,0,0:0:0:0:
320,192,261373,1,0,0:0:0:0:
64,192,261487,1,0,0:0:0:0:
192,192,261714,1,0,0:0:0:0:
64,192,261714,1,0,0:0:0:0:
192,192,261942,1,0,0:0:0:0:
320,192,261942,1,0,0:0:0:0:
64,192,262169,1,0,0:0:0:0:
192,192,262396,1,0,0:0:0:0:
320,192,262623,128,0,263419:0:0:0:0:
448,192,262623,1,0,0:0:0:0:
64,192,262964,1,0,0:0:0:0:
192,192,262964,1,0,0:0:0:0:
448,192,263192,1,0,0:0:0:0:
192,192,263305,1,0,0:0:0:0:
64,192,263305,1,0,0:0:0:0:
192,192,263532,128,0,264328:0:0:0:0:
64,192,263532,1,0,0:0:0:0:
448,192,263760,1,0,0:0:0:0:
320,192,263760,1,0,0:0:0:0:
448,192,263987,1,0,0:0:0:0:
64,192,263987,1,0,0:0:0:0:
448,192,264214,1,0,0:0:0:0:
320,192,264214,1,0,0:0:0:0:
320,192,264442,1,0,0:0:0:0:
64,192,264442,128,0,265351:0:0:0:0:
192,192,264782,1,0,0:0:0:0:
320,192,264896,1,0,0:0:0:0:
448,192,264896,1,0,0:0:0:0:
192,192,265010,1,0,0:0:0:0:
448,192,265123,1,0,0:0:0:0:
320,192,265351,1,0,0:0:0:0:
448,192,265351,1,0,0:0:0:0:
320,192,265578,1,0,0:0:0:0:
192,192,265578,1,0,0:0:0:0:
192,192,265805,1,0,0:0:0:0:
448,192,266032,1,0,0:0:0:0:
64,192,266032,128,0,266260:0:0:0:0:
320,192,266260,1,0,0:0:0:0:
192,192,266260,1,0,0:0:0:0:
448,192,266487,128,0,266714:0:0:0:0:
320,192,266487,1,0,0:0:0:0:
64,192,266601,1,0,0:0:0:0:
192,192,266601,1,0,0:0:0:0:
192,192,266828,1,0,0:0:0:0:
64,192,266828,1,0,0:0:0:0:
448,192,266942,1,0,0:0:0:0:
320,192,266942,128,0,267169:0:0:0:0:
64,192,267169,1,0,0:0:0:0:
192,192,267169,1,0,0:0:0:0:
448,192,267282,1,0,0:0:0:0:
320,192,267282,1,0,0:0:0:0:
64,192,267396,1,0,0:0:0:0:
192,192,267396,128,0,267623:0:0:0:0:
320,192,267623,128,0,267851:0:0:0:0:
64,192,267623,1,0,0:0:0:0:
192,192,267851,1,0,0:0:0:0:
448,192,267851,128,0,268078:0:0:0:0:
320,192,268078,1,0,0:0:0:0:
64,192,268078,128,0,269214:0:0:0:0:
448,192,268305,1,0,0:0:0:0:
192,192,268419,1,0,0:0:0:0:
320,192,268419,1,0,0:0:0:0:
448,192,268532,1,0,0:0:0:0:
320,192,268646,1,0,0:0:0:0:
192,192,268646,1,0,0:0:0:0:
448,192,268760,1,0,0:0:0:0:
320,192,268987,1,0,0:0:0:0:
448,192,268987,1,0,0:0:0:0:
192,192,269214,1,0,0:0:0:0:
320,192,269214,1,0,0:0:0:0:
448,192,269442,1,0,0:0:0:0:
64,192,269442,1,0,0:0:0:0:
192,192,269669,1,0,0:0:0:0:
320,192,269669,1,0,0:0:0:0:
64,192,269896,1,0,0:0:0:0:
448,192,269896,128,0,270805:0:0:0:0:
320,192,270010,1,0,0:0:0:0:
192,192,270123,1,0,0:0:0:0:
320,192,270237,1,0,0:0:0:0:
64,192,270351,1,0,0:0:0:0:
320,192,270464,1,0,0:0:0:0:
192,192,270578,1,0,0:0:0:0:
64,192,270692,1,0,0:0:0:0:
192,192,270805,1,0,0:0:0:0:
320,192,270805,128,0,271714:0:0:0:0:
448,192,270919,1,0,0:0:0:0:
64,192,271032,1,0,0:0:0:0:
448,192,271146,1,0,0:0:0:0:
64,192,271260,1,0,0:0:0:0:
448,192,271373,1,0,0:0:0:0:
64,192,271487,1,0,0:0:0:0:
448,192,271601,1,0,0:0:0:0:
64,192,271714,1,0,0:0:0:0:
192,192,271771,1,0,0:0:0:0:
448,192,271828,1,0,0:0:0:0:
320,192,271885,1,0,0:0:0:0:
64,192,271942,1,0,0:0:0:0:
192,192,271998,1,0,0:0:0:0:
448,192,272055,1,0,0:0:0:0:
320,192,272112,1,0,0:0:0:0:
64,192,272169,1,0,0:0:0:0:
192,192,272226,1,0,0:0:0:0:
448,192,272282,1,0,0:0:0:0:
320,192,272339,1,0,0:0:0:0:
64,192,272396,1,0,0:0:0:0:
192,192,272453,1,0,0:0:0:0:
448,192,272510,1,0,0:0:0:0:
320,192,272567,1,0,0:0:0:0:
64,192,272623,1,0,0:0:0:0:
192,192,272680,1,0,0:0:0:0:
320,192,272737,1,0,0:0:0:0:
448,192,272794,1,0,0:0:0:0:
64,192,272851,1,0,0:0:0:0:
192,192,272907,1,0,0:0:0:0:
320,192,272964,1,0,0:0:0:0:
448,192,273021,1,0,0:0:0:0:
64,192,273078,1,0,0:0:0:0:
192,192,273135,1,0,0:0:0:0:
320,192,273192,1,0,0:0:0:0:
448,192,273248,1,0,0:0:0:0:
64,192,273305,1,0,0:0:0:0:
192,192,273362,1,0,0:0:0:0:
320,192,273419,1,0,0:0:0:0:
448,192,273476,1,0,0:0:0:0:
64,192,273532,128,0,273646:0:0:0:0:
320,192,273873,128,0,273987:0:0:0:0:
192,192,274214,128,0,274328:0:0:0:0:
448,192,274555,128,0,274669:0:0:0:0:
448,192,274896,1,0,0:0:0:0:
64,192,274896,1,0,0:0:0:0:
320,192,274896,128,0,275010:0:0:0:0:
192,192,275123,128,0,275237:0:0:0:0:
448,192,275351,1,0,0:0:0:0:
64,192,275351,1,0,0:0:0:0:
320,192,275351,1,0,0:0:0:0:
192,192,275351,1,0,0:0:0:0:
448,192,275464,1,0,0:0:0:0:
192,192,275578,1,0,0:0:0:0:
64,192,275578,1,0,0:0:0:0:
320,192,275692,1,0,0:0:0:0:
192,192,275805,1,0,0:0:0:0:
64,192,275805,1,0,0:0:0:0:
448,192,275805,1,0,0:0:0:0:
320,192,275919,1,0,0:0:0:0:
64,192,276032,1,0,0:0:0:0:
448,192,276032,1,0,0:0:0:0:
320,192,276260,1,0,0:0:0:0:
448,192,276260,1,0,0:0:0:0:
64,192,276373,1,0,0:0:0:0:
448,192,276487,1,0,0:0:0:0:
320,192,276714,1,0,0:0:0:0:
192,192,276714,1,0,0:0:0:0:
64,192,276714,1,0,0:0:0:0:
64,192,276942,1,0,0:0:0:0:
448,192,276942,1,0,0:0:0:0:
192,192,277055,1,0,0:0:0:0:
320,192,277169,1,0,0:0:0:0:
448,192,277169,1,0,0:0:0:0:
64,192,277169,128,0,277396:0:0:0:0:
320,192,277396,1,0,0:0:0:0:
192,192,277396,1,0,0:0:0:0:
448,192,277623,1,0,0:0:0:0:
64,192,277623,1,0,0:0:0:0:
192,192,277623,1,0,0:0:0:0:
320,192,277737,1,0,0:0:0:0:
192,192,277851,1,0,0:0:0:0:
64,192,277851,1,0,0:0:0:0:
320,192,278078,1,0,0:0:0:0:
448,192,278078,1,0,0:0:0:0:
64,192,278192,1,0,0:0:0:0:
448,192,278305,1,0,0:0:0:0:
192,192,278419,1,0,0:0:0:0:
320,192,278532,1,0,0:0:0:0:
448,192,278532,1,0,0:0:0:0:
64,192,278532,1,0,0:0:0:0:
448,192,278760,1,0,0:0:0:0:
192,192,278760,1,0,0:0:0:0:
64,192,278987,1,0,0:0:0:0:
320,192,278987,1,0,0:0:0:0:
448,192,278987,128,0,279214:0:0:0:0:
192,192,279214,1,0,0:0:0:0:
64,192,279214,1,0,0:0:0:0:
320,192,279328,1,0,0:0:0:0:
448,192,279442,1,0,0:0:0:0:
64,192,279442,1,0,0:0:0:0:
192,192,279442,1,0,0:0:0:0:
320,192,279669,1,0,0:0:0:0:
448,192,279669,1,0,0:0:0:0:
64,192,279782,1,0,0:0:0:0:
448,192,279896,1,0,0:0:0:0:
192,192,279896,1,0,0:0:0:0:
64,192,280010,1,0,0:0:0:0:
320,192,280123,1,0,0:0:0:0:
64,192,280351,1,0,0:0:0:0:
192,192,280351,1,0,0:0:0:0:
448,192,280351,1,0,0:0:0:0:
64,192,280578,1,0,0:0:0:0:
448,192,280578,1,0,0:0:0:0:
320,192,280692,1,0,0:0:0:0:
448,192,280805,1,0,0:0:0:0:
192,192,280805,1,0,0:0:0:0:
64,192,280805,128,0,281032:0:0:0:0:
320,192,281032,1,0,0:0:0:0:
448,192,281032,1,0,0:0:0:0:
192,192,281146,1,0,0:0:0:0:
320,192,281260,1,0,0:0:0:0:
448,192,281260,1,0,0:0:0:0:
64,192,281260,1,0,0:0:0:0:
192,192,281373,1,0,0:0:0:0:
448,192,281487,1,0,0:0:0:0:
64,192,281487,1,0,0:0:0:0:
320,192,281601,1,0,0:0:0:0:
64,192,281714,1,0,0:0:0:0:
192,192,281714,1,0,0:0:0:0:
448,192,281828,1,0,0:0:0:0:
64,192,281942,1,0,0:0:0:0:
320,192,282169,1,0,0:0:0:0:
192,192,282169,1,0,0:0:0:0:
448,192,282169,1,0,0:0:0:0:
448,192,282396,1,0,0:0:0:0:
64,192,282396,1,0,0:0:0:0:
64,192,282510,1,0,0:0:0:0:
192,192,282567,1,0,0:0:0:0:
320,192,282623,1,0,0:0:0:0:
448,192,282623,1,0,0:0:0:0:
192,192,282851,1,0,0:0:0:0:
64,192,282851,1,0,0:0:0:0:
448,192,283078,1,0,0:0:0:0:
320,192,283078,1,0,0:0:0:0:
64,192,283078,1,0,0:0:0:0:
192,192,283192,1,0,0:0:0:0:
448,192,283305,128,0,283532:0:0:0:0:
320,192,283305,1,0,0:0:0:0:
64,192,283419,1,0,0:0:0:0:
320,192,283532,1,0,0:0:0:0:
192,192,283532,1,0,0:0:0:0:
64,192,283646,1,0,0:0:0:0:
320,192,283760,1,0,0:0:0:0:
192,192,283873,1,0,0:0:0:0:
320,192,283987,1,0,0:0:0:0:
448,192,283987,1,0,0:0:0:0:
64,192,283987,1,0,0:0:0:0:
192,192,284214,1,0,0:0:0:0:
320,192,284328,1,0,0:0:0:0:
192,192,284442,1,0,0:0:0:0:
448,192,284442,1,0,0:0:0:0:
64,192,284442,128,0,284669:0:0:0:0:
448,192,284669,1,0,0:0:0:0:
192,192,284669,1,0,0:0:0:0:
320,192,284782,1,0,0:0:0:0:
64,192,284896,1,0,0:0:0:0:
448,192,284896,1,0,0:0:0:0:
192,192,284896,1,0,0:0:0:0:
320,192,285010,1,0,0:0:0:0:
192,192,285123,1,0,0:0:0:0:
320,192,285237,1,0,0:0:0:0:
64,192,285351,1,0,0:0:0:0:
192,192,285351,1,0,0:0:0:0:
448,192,285464,1,0,0:0:0:0:
320,192,285578,1,0,0:0:0:0:
192,192,285692,1,0,0:0:0:0:
64,192,285805,1,0,0:0:0:0:
448,192,285805,1,0,0:0:0:0:
320,192,285805,1,0,0:0:0:0:
320,192,286032,1,0,0:0:0:0:
192,192,286032,1,0,0:0:0:0:
64,192,286260,1,0,0:0:0:0:
192,192,286260,1,0,0:0:0:0:
448,192,286260,128,0,286487:0:0:0:0:
320,192,286487,1,0,0:0:0:0:
192,192,286601,1,0,0:0:0:0:
64,192,286714,1,0,0:0:0:0:
320,192,286714,1,0,0:0:0:0:
448,192,286714,1,0,0:0:0:0:
192,192,286828,1,0,0:0:0:0:
448,192,286942,1,0,0:0:0:0:
320,192,286942,1,0,0:0:0:0:
192,192,287169,1,0,0:0:0:0:
64,192,287169,1,0,0:0:0:0:
448,192,287282,1,0,0:0:0:0:
64,192,287396,1,0,0:0:0:0:
320,192,287510,1,0,0:0:0:0:
448,192,287623,1,0,0:0:0:0:
192,192,287623,1,0,0:0:0:0:
64,192,287623,1,0,0:0:0:0:
320,192,287851,1,0,0:0:0:0:
192,192,287964,1,0,0:0:0:0:
448,192,288078,1,0,0:0:0:0:
320,192,288078,1,0,0:0:0:0:
64,192,288078,128,0,288305:0:0:0:0:
192,192,288305,1,0,0:0:0:0:
448,192,288305,1,0,0:0:0:0:
320,192,288419,1,0,0:0:0:0:
192,192,288532,1,0,0:0:0:0:
64,192,288532,1,0,0:0:0:0:
448,192,288532,1,0,0:0:0:0:
320,192,288760,1,0,0:0:0:0:
192,192,288873,1,0,0:0:0:0:
320,192,288987,1,0,0:0:0:0:
448,192,288987,1,0,0:0:0:0:
64,192,289101,1,0,0:0:0:0:
320,192,289214,1,0,0:0:0:0:
192,192,289328,1,0,0:0:0:0:
64,192,289442,1,0,0:0:0:0:
320,192,289442,1,0,0:0:0:0:
448,192,289442,1,0,0:0:0:0:
192,192,289669,1,0,0:0:0:0:
448,192,289669,1,0,0:0:0:0:
64,192,289896,1,0,0:0:0:0:
320,192,289896,1,0,0:0:0:0:
448,192,289896,128,0,290123:0:0:0:0:
192,192,290010,1,0,0:0:0:0:
64,192,290123,1,0,0:0:0:0:
320,192,290237,1,0,0:0:0:0:
64,192,290351,1,0,0:0:0:0:
192,192,290351,1,0,0:0:0:0:
448,192,290351,1,0,0:0:0:0:
320,192,290464,1,0,0:0:0:0:
64,192,290578,1,0,0:0:0:0:
448,192,290692,1,0,0:0:0:0:
320,192,290805,1,0,0:0:0:0:
192,192,290805,1,0,0:0:0:0:
448,192,291032,1,0,0:0:0:0:
64,192,291032,1,0,0:0:0:0:
320,192,291146,1,0,0:0:0:0:
192,192,291260,1,0,0:0:0:0:
448,192,291260,1,0,0:0:0:0:
64,192,291260,1,0,0:0:0:0:
320,192,291487,1,0,0:0:0:0:
448,192,291487,1,0,0:0:0:0:
192,192,291601,1,0,0:0:0:0:
320,192,291714,1,0,0:0:0:0:
448,192,291714,1,0,0:0:0:0:
64,192,291714,128,0,291942:0:0:0:0:
192,192,291942,1,0,0:0:0:0:
448,192,292055,1,0,0:0:0:0:
64,192,292169,1,0,0:0:0:0:
320,192,292169,1,0,0:0:0:0:
192,192,292169,1,0,0:0:0:0:
448,192,292282,1,0,0:0:0:0:
64,192,292396,1,0,0:0:0:0:
320,192,292510,1,0,0:0:0:0:
64,192,292623,1,0,0:0:0:0:
192,192,292623,1,0,0:0:0:0:
448,192,292851,1,0,0:0:0:0:
64,192,292851,1,0,0:0:0:0:
320,192,293078,1,0,0:0:0:0:
192,192,293078,1,0,0:0:0:0:
448,192,293078,1,0,0:0:0:0:
192,192,293305,1,0,0:0:0:0:
64,192,293305,1,0,0:0:0:0:
320,192,293419,1,0,0:0:0:0:
192,192,293532,1,0,0:0:0:0:
64,192,293532,1,0,0:0:0:0:
448,192,293532,128,0,293760:0:0:0:0:
192,192,293760,1,0,0:0:0:0:
320,192,293873,1,0,0:0:0:0:
448,192,293987,1,0,0:0:0:0:
64,192,293987,1,0,0:0:0:0:
192,192,293987,1,0,0:0:0:0:
320,192,294101,1,0,0:0:0:0:
192,192,294214,1,0,0:0:0:0:
64,192,294214,1,0,0:0:0:0:
448,192,294328,1,0,0:0:0:0:
320,192,294442,1,0,0:0:0:0:
192,192,294442,1,0,0:0:0:0:
64,192,294555,1,0,0:0:0:0:
448,192,294669,1,0,0:0:0:0:
320,192,294669,1,0,0:0:0:0:
192,192,294782,1,0,0:0:0:0:
320,192,294896,1,0,0:0:0:0:
448,192,294896,1,0,0:0:0:0:
64,192,294896,1,0,0:0:0:0:
192,192,295010,1,0,0:0:0:0:
448,192,295123,1,0,0:0:0:0:
64,192,295123,1,0,0:0:0:0:
320,192,295237,1,0,0:0:0:0:
64,192,295351,1,0,0:0:0:0:
192,192,295351,1,0,0:0:0:0:
448,192,295351,128,0,295578:0:0:0:0:
320,192,295464,1,0,0:0:0:0:
64,192,295578,1,0,0:0:0:0:
192,192,295692,1,0,0:0:0:0:
320,192,295805,1,0,0:0:0:0:
64,192,295805,1,0,0:0:0:0:
448,192,295805,1,0,0:0:0:0:
192,192,295919,1,0,0:0:0:0:
448,192,296032,1,0,0:0:0:0:
320,192,296032,1,0,0:0:0:0:
64,192,296146,1,0,0:0:0:0:
192,192,296260,1,0,0:0:0:0:
320,192,296260,1,0,0:0:0:0:
320,192,296487,1,0,0:0:0:0:
448,192,296487,1,0,0:0:0:0:
192,192,296601,1,0,0:0:0:0:
448,192,296714,1,0,0:0:0:0:
64,192,296714,1,0,0:0:0:0:
320,192,296714,1,0,0:0:0:0:
192,192,296942,1,0,0:0:0:0:
448,192,296942,1,0,0:0:0:0:
320,192,297055,1,0,0:0:0:0:
192,192,297169,1,0,0:0:0:0:
64,192,297169,128,0,297396:0:0:0:0:
320,192,297396,1,0,0:0:0:0:
448,192,297396,1,0,0:0:0:0:
192,192,297510,1,0,0:0:0:0:
448,192,297623,1,0,0:0:0:0:
320,192,297623,1,0,0:0:0:0:
64,192,297623,1,0,0:0:0:0:
192,192,297737,1,0,0:0:0:0:
64,192,297851,1,0,0:0:0:0:
448,192,297851,128,0,298078:0:0:0:0:
320,192,297964,1,0,0:0:0:0:
192,192,298078,1,0,0:0:0:0:
64,192,298078,1,0,0:0:0:0:
448,192,298192,1,0,0:0:0:0:
320,192,298305,1,0,0:0:0:0:
192,192,298419,1,0,0:0:0:0:
320,192,298532,1,0,0:0:0:0:
448,192,298532,1,0,0:0:0:0:
64,192,298532,1,0,0:0:0:0:
192,192,298646,1,0,0:0:0:0:
64,192,298760,1,0,0:0:0:0:
448,192,298760,1,0,0:0:0:0:
320,192,298873,1,0,0:0:0:0:
448,192,298987,1,0,0:0:0:0:
192,192,298987,1,0,0:0:0:0:
64,192,298987,128,0,299214:0:0:0:0:
192,192,299214,1,0,0:0:0:0:
320,192,299214,1,0,0:0:0:0:
320,192,299442,1,0,0:0:0:0:
64,192,299442,1,0,0:0:0:0:
448,192,299442,1,0,0:0:0:0:
192,192,299555,1,0,0:0:0:0:
320,192,299669,1,0,0:0:0:0:
192,192,299782,1,0,0:0:0:0:
320,192,299896,1,0,0:0:0:0:
448,192,299896,128,0,300123:0:0:0:0:
64,192,300010,1,0,0:0:0:0:
320,192,300123,1,0,0:0:0:0:
192,192,300237,1,0,0:0:0:0:
320,192,300351,1,0,0:0:0:0:
64,192,300351,1,0,0:0:0:0:
448,192,300351,1,0,0:0:0:0:
448,192,300578,1,0,0:0:0:0:
64,192,300578,1,0,0:0:0:0:
320,192,300692,1,0,0:0:0:0:
448,192,300805,1,0,0:0:0:0:
192,192,300805,1,0,0:0:0:0:
64,192,300805,128,0,301032:0:0:0:0:
320,192,301032,1,0,0:0:0:0:
448,192,301032,1,0,0:0:0:0:
192,192,301146,1,0,0:0:0:0:
448,192,301260,1,0,0:0:0:0:
64,192,301260,1,0,0:0:0:0:
320,192,301260,128,0,301487:0:0:0:0:
192,192,301373,1,0,0:0:0:0:
448,192,301487,1,0,0:0:0:0:
64,192,301601,1,0,0:0:0:0:
320,192,301714,1,0,0:0:0:0:
448,192,301714,128,0,301942:0:0:0:0:
192,192,301828,1,0,0:0:0:0:
320,192,301942,1,0,0:0:0:0:
64,192,302055,1,0,0:0:0:0:
320,192,302169,1,0,0:0:0:0:
448,192,302169,1,0,0:0:0:0:
192,192,302169,128,0,302396:0:0:0:0:
448,192,302396,1,0,0:0:0:0:
64,192,302396,1,0,0:0:0:0:
320,192,302510,1,0,0:0:0:0:
448,192,302623,1,0,0:0:0:0:
192,192,302623,1,0,0:0:0:0:
64,192,302623,128,0,302851:0:0:0:0:
192,192,302851,1,0,0:0:0:0:
320,192,302851,1,0,0:0:0:0:
64,192,303078,1,0,0:0:0:0:
448,192,303078,1,0,0:0:0:0:
320,192,303078,128,0,303305:0:0:0:0:
64,192,303305,1,0,0:0:0:0:
448,192,303305,1,0,0:0:0:0:
192,192,303419,1,0,0:0:0:0:
64,192,303532,1,0,0:0:0:0:
448,192,303532,128,0,303760:0:0:0:0:
320,192,303646,1,0,0:0:0:0:
192,192,303760,1,0,0:0:0:0:
320,192,303873,1,0,0:0:0:0:
192,192,303987,1,0,0:0:0:0:
64,192,303987,1,0,0:0:0:0:
320,192,304101,1,0,0:0:0:0:
448,192,304101,1,0,0:0:0:0:
64,192,304214,1,0,0:0:0:0:
192,192,304214,1,0,0:0:0:0:
320,192,304328,1,0,0:0:0:0:
448,192,304328,1,0,0:0:0:0:
192,192,304442,1,0,0:0:0:0:
64,192,304442,1,0,0:0:0:0:
448,192,304442,1,0,0:0:0:0:
448,192,304669,1,0,0:0:0:0:
64,192,304669,1,0,0:0:0:0:
320,192,304782,1,0,0:0:0:0:
192,192,304896,1,0,0:0:0:0:
448,192,304896,1,0,0:0:0:0:
64,192,304896,1,0,0:0:0:0:
64,192,305123,1,0,0:0:0:0:
320,192,305123,1,0,0:0:0:0:
192,192,305351,1,0,0:0:0:0:
448,192,305351,1,0,0:0:0:0:
64,192,305351,1,0,0:0:0:0:
64,192,305578,1,0,0:0:0:0:
320,192,305578,1,0,0:0:0:0:
320,192,305805,1,0,0:0:0:0:
448,192,305805,1,0,0:0:0:0:
64,192,305919,1,0,0:0:0:0:
192,192,305919,1,0,0:0:0:0:
320,192,306032,1,0,0:0:0:0:
448,192,306032,1,0,0:0:0:0:
192,192,306146,1,0,0:0:0:0:
64,192,306146,1,0,0:0:0:0:
320,192,306260,1,0,0:0:0:0:
448,192,306260,1,0,0:0:0:0:
64,192,306260,1,0,0:0:0:0:
64,192,306487,1,0,0:0:0:0:
448,192,306487,1,0,0:0:0:0:
192,192,306601,1,0,0:0:0:0:
64,192,306714,1,0,0:0:0:0:
320,192,306714,1,0,0:0:0:0:
448,192,306714,1,0,0:0:0:0:
192,192,306942,1,0,0:0:0:0:
448,192,306942,1,0,0:0:0:0:
64,192,307169,1,0,0:0:0:0:
320,192,307169,1,0,0:0:0:0:
448,192,307169,1,0,0:0:0:0:
192,192,307396,1,0,0:0:0:0:
448,192,307396,1,0,0:0:0:0:
448,192,307623,1,0,0:0:0:0:
320,192,307623,1,0,0:0:0:0:
64,192,307737,1,0,0:0:0:0:
192,192,307737,1,0,0:0:0:0:
320,192,307851,1,0,0:0:0:0:
448,192,307851,1,0,0:0:0:0:
192,192,307964,1,0,0:0:0:0:
64,192,307964,1,0,0:0:0:0:
320,192,308078,1,0,0:0:0:0:
448,192,308078,1,0,0:0:0:0:
64,192,308078,1,0,0:0:0:0:
192,192,308192,1,0,0:0:0:0:
64,192,308305,1,0,0:0:0:0:
448,192,308305,1,0,0:0:0:0:
320,192,308419,1,0,0:0:0:0:
192,192,308532,1,0,0:0:0:0:
64,192,308532,1,0,0:0:0:0:
320,192,308646,1,0,0:0:0:0:
448,192,308646,1,0,0:0:0:0:
192,192,308760,1,0,0:0:0:0:
64,192,308760,1,0,0:0:0:0:
320,192,308873,1,0,0:0:0:0:
448,192,308873,1,0,0:0:0:0:
448,192,308987,1,0,0:0:0:0:
192,192,308987,1,0,0:0:0:0:
64,192,308987,1,0,0:0:0:0:
320,192,309101,1,0,0:0:0:0:
192,192,309214,1,0,0:0:0:0:
320,192,309328,1,0,0:0:0:0:
64,192,309442,1,0,0:0:0:0:
192,192,309442,1,0,0:0:0:0:
320,192,309555,1,0,0:0:0:0:
448,192,309555,1,0,0:0:0:0:
192,192,309669,1,0,0:0:0:0:
64,192,309669,1,0,0:0:0:0:
320,192,309782,1,0,0:0:0:0:
448,192,309782,1,0,0:0:0:0:
192,192,309896,1,0,0:0:0:0:
64,192,309896,1,0,0:0:0:0:
448,192,309896,128,0,310010:0:0:0:0:
320,192,309972,1,0,0:0:0:0:
64,192,310048,1,0,0:0:0:0:
192,192,310123,1,0,0:0:0:0:
448,192,310199,1,0,0:0:0:0:
64,192,310237,128,0,310351:0:0:0:0:
320,192,310275,1,0,0:0:0:0:
192,192,310351,1,0,0:0:0:0:
448,192,310426,1,0,0:0:0:0:
64,192,310502,1,0,0:0:0:0:
320,192,310578,128,0,310692:0:0:0:0:
192,192,310578,1,0,0:0:0:0:
448,192,310654,1,0,0:0:0:0:
64,192,310729,1,0,0:0:0:0:
320,192,310805,1,0,0:0:0:0:
448,192,310881,1,0,0:0:0:0:
192,192,310919,128,0,311032:0:0:0:0:
64,192,310957,1,0,0:0:0:0:
448,192,311032,1,0,0:0:0:0:
320,192,311108,1,0,0:0:0:0:
64,192,311184,1,0,0:0:0:0:
448,192,311260,128,0,311373:0:0:0:0:
192,192,311260,1,0,0:0:0:0:
320,192,311335,1,0,0:0:0:0:
64,192,311411,1,0,0:0:0:0:
320,192,311487,128,0,311601:0:0:0:0:
192,192,311487,1,0,0:0:0:0:
448,192,311563,1,0,0:0:0:0:
64,192,311638,1,0,0:0:0:0:
192,192,311714,1,0,0:0:0:0:
320,192,311714,1,0,0:0:0:0:
448,192,311714,128,0,312055:0:0:0:0:
320,192,312055,1,0,0:0:0:0:
192,192,312055,1,0,0:0:0:0:
192,192,312396,1,0,0:0:0:0:
64,192,312396,1,0,0:0:0:0:
320,192,312623,1,0,0:0:0:0:
64,192,312623,1,0,0:0:0:0:
448,192,312623,1,0,0:0:0:0:
192,192,312851,1,0,0:0:0:0:
448,192,312851,1,0,0:0:0:0:
64,192,313078,1,0,0:0:0:0:
320,192,313078,1,0,0:0:0:0:
448,192,313305,1,0,0:0:0:0:
192,192,313305,1,0,0:0:0:0:
448,192,313532,1,0,0:0:0:0:
64,192,313532,128,0,313873:0:0:0:0:
448,192,313873,1,0,0:0:0:0:
192,192,313873,1,0,0:0:0:0:
320,192,314214,1,0,0:0:0:0:
448,192,314214,1,0,0:0:0:0:
192,192,314442,1,0,0:0:0:0:
64,192,314442,1,0,0:0:0:0:
448,192,314442,1,0,0:0:0:0:
448,192,314669,1,0,0:0:0:0:
320,192,314669,1,0,0:0:0:0:
320,192,314896,1,0,0:0:0:0:
192,192,314896,1,0,0:0:0:0:
192,192,315123,1,0,0:0:0:0:
64,192,315123,1,0,0:0:0:0:
64,192,315351,1,0,0:0:0:0:
448,192,315351,128,0,315692:0:0:0:0:
320,192,315351,1,0,0:0:0:0:
192,192,315692,1,0,0:0:0:0:
64,192,315692,1,0,0:0:0:0:
320,192,316032,1,0,0:0:0:0:
192,192,316032,1,0,0:0:0:0:
64,192,316260,1,0,0:0:0:0:
192,192,316260,1,0,0:0:0:0:
448,192,316260,1,0,0:0:0:0:
448,192,316487,1,0,0:0:0:0:
320,192,316714,1,0,0:0:0:0:
64,192,316714,1,0,0:0:0:0:
192,192,316942,1,0,0:0:0:0:
448,192,316942,1,0,0:0:0:0:
64,192,317169,1,0,0:0:0:0:
320,192,317169,1,0,0:0:0:0:
192,192,317396,1,0,0:0:0:0:
64,192,317396,1,0,0:0:0:0:
448,192,317510,1,0,0:0:0:0:
192,192,317623,1,0,0:0:0:0:
320,192,317623,1,0,0:0:0:0:
192,192,317851,1,0,0:0:0:0:
64,192,317851,1,0,0:0:0:0:
320,192,317964,1,0,0:0:0:0:
448,192,317964,1,0,0:0:0:0:
64,192,318078,1,0,0:0:0:0:
192,192,318078,1,0,0:0:0:0:
448,192,318305,1,0,0:0:0:0:
320,192,318305,1,0,0:0:0:0:
192,192,318532,1,0,0:0:0:0:
64,192,318532,1,0,0:0:0:0:
320,192,318760,1,0,0:0:0:0:
192,192,318760,1,0,0:0:0:0:
448,192,318987,1,0,0:0:0:0:
192,192,318987,1,0,0:0:0:0:
64,192,318987,128,0,319328:0:0:0:0:
320,192,319328,1,0,0:0:0:0:
448,192,319328,1,0,0:0:0:0:
192,192,319669,1,0,0:0:0:0:
320,192,319669,1,0,0:0:0:0:
320,192,319896,1,0,0:0:0:0:
448,192,319896,1,0,0:0:0:0:
64,192,319896,1,0,0:0:0:0:
64,192,320123,1,0,0:0:0:0:
192,192,320351,1,0,0:0:0:0:
448,192,320351,1,0,0:0:0:0:
320,192,320578,1,0,0:0:0:0:
64,192,320578,1,0,0:0:0:0:
448,192,320805,1,0,0:0:0:0:
64,192,320805,1,0,0:0:0:0:
448,192,321146,1,0,0:0:0:0:
64,192,321146,1,0,0:0:0:0:
192,192,321487,1,0,0:0:0:0:
320,192,321487,1,0,0:0:0:0:
64,192,321714,1,0,0:0:0:0:
448,192,321714,1,0,0:0:0:0:
192,192,321714,1,0,0:0:0:0:
320,192,321942,1,0,0:0:0:0:
448,192,321942,1,0,0:0:0:0:
192,192,322169,1,0,0:0:0:0:
320,192,322169,1,0,0:0:0:0:
64,192,322396,1,0,0:0:0:0:
192,192,322396,1,0,0:0:0:0:
320,192,322623,1,0,0:0:0:0:
192,192,322623,1,0,0:0:0:0:
448,192,322623,128,0,322964:0:0:0:0:
192,192,322964,1,0,0:0:0:0:
64,192,322964,1,0,0:0:0:0:
320,192,323305,1,0,0:0:0:0:
192,192,323305,1,0,0:0:0:0:
64,192,323532,1,0,0:0:0:0:
192,192,323532,1,0,0:0:0:0:
448,192,323532,1,0,0:0:0:0:
448,192,323760,1,0,0:0:0:0:
192,192,323760,1,0,0:0:0:0:
320,192,323987,1,0,0:0:0:0:
64,192,323987,1,0,0:0:0:0:
192,192,324214,1,0,0:0:0:0:
448,192,324214,1,0,0:0:0:0:
64,192,324442,1,0,0:0:0:0:
448,192,324442,1,0,0:0:0:0:
192,192,324669,1,0,0:0:0:0:
320,192,324669,1,0,0:0:0:0:
64,192,324782,1,0,0:0:0:0:
320,192,324896,1,0,0:0:0:0:
448,192,324896,1,0,0:0:0:0:
448,192,325123,1,0,0:0:0:0:
64,192,325123,1,0,0:0:0:0:
320,192,325237,1,0,0:0:0:0:
64,192,325351,1,0,0:0:0:0:
192,192,325351,128,0,326260:0:0:0:0:
320,192,325578,1,0,0:0:0:0:
320,192,325805,128,0,326260:0:0:0:0:
448,192,325805,1,0,0:0:0:0:
64,192,326032,1,0,0:0:0:0:
64,192,326260,128,0,329669:0:0:0:0:
448,192,326260,128,0,329669:0:0:0:0:
192,192,327623,128,0,329669:0:0:0:0:
320,192,328987,128,0,329669:0:0:0:0:
