osu file format v14

[General]
AudioFilename: ME!ME!ME.mp3
AudioLeadIn: 0
PreviewTime: 125724
Countdown: 0
SampleSet: Soft
StackLeniency: 0.7
Mode: 0
LetterboxInBreaks: 0
WidescreenStoryboard: 0

[Editor]
DistanceSpacing: 1.8
BeatDivisor: 4
GridSize: 4
TimelineZoom: 3.199999

[Metadata]
Title:ME!ME!ME! feat. daoko
TitleUnicode:ME!ME!ME! feat. daoko
Artist:TeddyLoid
ArtistUnicode:TeddyLoid
Creator:Kin
Version:Addiction
Source:
Tags:日本アニメ(ーター)見本市 Nihon Nippon Anime
BeatmapID:660345
BeatmapSetID:293581

[Difficulty]
HPDrainRate:7
CircleSize:4
OverallDifficulty:8
ApproachRate:9
SliderMultiplier:2
SliderTickRate:1

[Events]
//Background and Video events
0,0,"mememe_by_irask-d8a8xrp.png",0,0
//Break Periods
2,51356,56316
2,168590,173562
//Storyboard Layer 0 (Background)
//Storyboard Layer 1 (Fail)
//Storyboard Layer 2 (Pass)
//Storyboard Layer 3 (Foreground)
//Storyboard Sound Samples

[TimingPoints]
5076,480,4,2,2,80,1,0
5796,-133.333333333333,4,2,2,80,0,0
10836,-100,4,2,1,80,0,0
15876,-100,4,2,0,80,0,0
16176,-100,4,2,1,80,0,0
27396,-100,4,2,0,80,0,0
27756,-100,4,2,1,80,0,0
34836,-100,4,2,2,80,0,0
34956,-100,4,2,2,60,0,0
35316,-100,4,2,1,80,0,0
35436,-100,4,2,2,80,0,0
35556,-100,4,2,2,60,0,0
35676,-100,4,2,2,40,0,0
35796,-100,4,2,1,80,0,0
38916,-100,4,2,0,80,0,0
39276,-100,4,2,1,80,0,0
57876,-80,4,2,1,80,0,0
58836,-100,4,2,1,80,0,0
89724,666.666666666667,6,2,0,60,1,0
93724,666.666666666667,4,2,3,80,1,0
125724,-100,4,2,1,20,0,0
131724,-100,4,2,1,30,0,0
131765,-100,4,2,1,20,0,0
146390,-100,4,2,3,80,0,0
152390,-100,4,2,3,20,0,0
157724,-100,4,2,3,80,0,0
168390,-100,4,2,2,80,0,0
174162,428.571428571429,4,2,1,80,1,0
175876,-200,4,2,1,80,0,0
177590,-100,4,2,3,80,0,0
178447,-200,4,2,1,80,0,0
181876,-100,4,2,1,80,0,0
182733,-200,4,2,1,80,0,0
187876,-200,4,2,1,5,0,0
187983,-100,4,2,3,80,0,0
189590,-100,4,2,4,80,0,0
195162,-100,4,2,3,80,0,0
195269,-100,4,2,4,80,0,0
199662,-100,4,2,3,80,0,0
199769,-100,4,2,4,80,0,0
213188,-100,4,2,4,40,0,0
213590,-100,4,2,4,80,0,0
244442,454.545454545455,4,2,4,80,1,0
244555,-100,4,2,3,80,0,0
246260,-200,4,2,1,80,0,0
253532,-100,4,2,1,80,0,0
260805,-100,4,2,3,80,0,0
273532,-200,4,2,1,80,0,0
274896,-100,4,2,1,80,0,0
275351,-83.3333333333333,4,2,1,80,0,1
297169,-83.3333333333333,4,2,1,80,0,0
308305,-83.3333333333333,4,2,0,80,0,0
308419,-83.3333333333333,4,2,1,80,0,0
309214,-83.3333333333333,4,2,0,80,0,0
309328,-83.3333333333333,4,2,1,80,0,0
309896,-83.3333333333333,4,2,1,70,0,0
310351,-83.3333333333333,4,2,1,60,0,0
310805,-83.3333333333333,4,2,1,50,0,0
311260,-83.3333333333333,4,2,1,40,0,0
311714,-133.333333333333,4,2,1,80,0,0
329697,-100,4,2,1,5,0,0

[Colours]
Combo1 : 255,102,255
Combo2 : 72,72,255
Combo3 : 94,174,255
Combo4 : 168,0,168

[HitObjects]
256,192,1236,12,0,4836,0:0:0:0:
116,128,5076,5,4,0:0:0:0:
132,144,5796,2,0,P|192:164|284:144,1,150.000005722046,2|0,0:0|0:0,0:0:0:0:
360,60,6516,1,2,0:0:0:0:
360,60,6756,1,0,0:0:0:0:
424,228,6996,6,0,P|440:300|416:376,1,150.000005722046,2|0,0:0|0:0,0:0:0:0:
256,240,7716,1,2,0:0:0:0:
256,240,7956,2,0,L|252:160,1,75.0000028610231,0|0,3:0|0:0,0:0:0:0:
156,32,8436,2,0,L|152:106,1,75.0000028610231,8|0,0:0|0:0,0:0:0:0:
144,272,8916,6,0,P|168:320|264:356,1,150.000005722046,2|0,0:2|0:0,0:0:0:0:
388,264,9636,1,2,0:0:0:0:
388,264,9876,2,0,B|392:224|392:224|388:184,1,75.0000028610231,0|0,3:0|0:0,0:0:0:0:
244,80,10356,2,0,B|240:120|240:120|244:160,1,75.0000028610231,8|0,3:2|0:0,0:0:0:0:
360,16,10836,5,0,1:0:0:0:
372,44,10956,1,8,0:0:0:0:
256,232,11196,1,4,0:3:0:0:
140,44,11436,2,0,P|100:76|80:128,1,100,4|0,0:3|0:0,0:0:0:0:
72,160,11796,5,8,0:0:0:0:
70,199,11916,1,8,0:0:0:0:
82,237,12036,1,8,0:0:0:0:
107,268,12156,1,8,0:0:0:0:
142,287,12276,5,0,1:0:0:0:
122,301,12396,1,0,1:0:0:0:
101,315,12516,1,0,1:0:0:0:
80,329,12636,1,0,1:0:0:0:
60,343,12756,6,0,B|104:368|104:368|164:376,1,100,4|0,1:0|0:0,0:0:0:0:
340,220,13236,2,0,B|296:195|296:195|236:187,1,100,10|0,0:0|0:0,0:0:0:0:
432,340,13716,2,0,P|468:304|480:232,1,100,2|0,1:2|0:0,0:0:0:0:
368,48,14196,2,0,P|332:84|320:156,1,100,10|0,0:0|0:0,0:0:0:0:
144,336,14676,6,0,P|172:296|172:232,1,100,2|0,1:2|0:0,0:0:0:0:
140,148,15036,1,2,0:0:0:0:
128,108,15156,2,0,P|120:64|136:8,1,100,8|0,0:0|0:0,0:0:0:0:
377,11,15636,1,0,1:0:0:0:
444,112,15876,1,8,0:0:0:0:
256,344,16116,6,0,L|252:316,1,25,10|2,0:0|0:0,0:0:0:0:
217,355,16236,2,0,L|220:384,1,25,2|2,0:0|0:0,0:0:0:0:
178,360,16356,2,0,L|180:316,1,25,2|2,0:0|0:0,0:0:0:0:
138,356,16476,2,0,L|136:384,1,25,2|2,0:0|0:0,0:0:0:0:
100,345,16596,6,0,P|56:320|32:264,1,100,2|0,1:2|0:0,0:0:0:0:
228,136,17076,2,0,P|272:161|296:217,1,100,10|0,0:0|0:0,0:0:0:0:
96,68,17556,2,0,P|128:24|180:0,1,100,2|0,1:2|0:0,0:0:0:0:
96,232,18036,2,0,P|128:276|180:300,1,100,8|0,0:0|0:0,0:0:0:0:
424,140,18516,6,0,P|392:96|340:72,1,100,2|0,1:2|0:0,0:0:0:0:
264,88,18876,2,0,B|212:92|212:92|164:84,1,100,2|0,0:0|0:0,0:0:0:0:
76,64,19236,2,0,L|63:15,1,50,2|0,0:0|0:0,0:0:0:0:
104,148,19476,2,0,P|108:192|96:220,1,50,8|0,0:0|0:0,0:0:0:0:
219,312,19716,2,0,P|212:335|197:355,1,50,0|0,1:0|0:0,0:0:0:0:
224,220,19956,1,8,0:0:0:0:
248,217,20076,1,2,0:0:0:0:
273,214,20196,1,2,0:0:0:0:
298,212,20316,1,2,0:0:0:0:
323,209,20436,6,0,B|372:220|372:220|440:216,1,100,4|0,1:2|0:0,0:0:0:0:
496,132,20796,1,0,0:0:0:0:
496,132,20916,2,0,B|500:84|500:84|492:32,1,100,8|0,0:0|0:0,0:0:0:0:
256,144,21396,1,0,1:0:0:0:
20,32,21636,1,0,0:0:0:0:
20,32,21756,1,0,0:0:0:0:
20,32,21876,1,10,0:0:0:0:
40,292,22116,1,0,0:0:0:0:
256,144,22356,5,2,1:2:0:0:
472,292,22596,1,0,0:0:0:0:
472,292,22716,1,0,0:0:0:0:
472,292,22836,2,0,B|456:340|456:340|412:372,1,100,8|0,0:0|0:0,0:0:0:0:
200,220,23316,1,2,1:2:0:0:
440,204,23556,1,0,0:0:0:0:
224,312,23796,1,8,0:0:0:0:
240,72,24036,1,0,0:0:0:0:
240,72,24156,1,0,0:0:0:0:
240,72,24276,5,2,1:2:0:0:
440,204,24516,1,0,0:0:0:0:
200,188,24756,1,8,0:0:0:0:
396,52,24996,1,0,0:0:0:0:
396,52,25116,1,0,0:0:0:0:
396,52,25236,1,0,1:0:0:0:
316,280,25476,1,0,0:0:0:0:
88,200,25716,2,0,B|76:152|76:152|80:96,1,100,8|0,0:0|0:0,0:0:0:0:
204,36,26076,1,0,0:0:0:0:
204,36,26196,6,0,B|216:84|216:84|212:140,1,100,2|0,1:2|0:0,0:0:0:0:
172,372,26676,1,8,0:0:0:0:
396,288,26916,1,2,0:0:0:0:
436,300,27036,1,0,0:0:0:0:
476,312,27156,1,0,1:0:0:0:
212,134,27396,1,8,0:0:0:0:
172,372,27636,1,10,0:0:0:0:
172,372,27876,2,0,L|122:375,1,50
232,304,28116,6,0,L|331:310,1,100,2|0,1:2|0:0,0:0:0:0:
488,128,28596,2,0,L|388:134,1,100,8|0,0:0|0:0,0:0:0:0:
288,88,28956,1,0,0:0:0:0:
288,88,29076,2,0,B|244:64|244:64|192:60,1,100,0|0,1:0|0:0,0:0:0:0:
16,224,29556,2,0,B|60:248|60:248|112:252,1,100,10|0,0:0|0:0,0:0:0:0:
352,272,30036,5,2,1:2:0:0:
176,108,30276,1,0,0:0:0:0:
176,108,30396,1,0,0:0:0:0:
176,108,30516,1,8,0:0:0:0:
192,348,30756,1,0,0:0:0:0:
328,148,30996,1,2,1:2:0:0:
112,252,31236,2,0,L|48:276,1,50
192,348,31476,2,0,L|238:330,1,50,8|0,0:0|0:0,0:0:0:0:
352,272,31716,1,0,0:0:0:0:
388,256,31836,1,0,0:0:0:0:
424,240,31956,6,0,P|436:192|416:132,1,100,2|0,1:2|0:0,0:0:0:0:
356,56,32316,1,0,0:0:0:0:
320,76,32436,2,0,B|272:96|272:96|200:92,1,100,8|0,0:0|0:0,0:0:0:0:
160,324,32916,1,0,1:0:0:0:
48,112,33156,1,0,0:0:0:0:
32,76,33276,1,0,0:0:0:0:
16,40,33396,1,8,0:0:0:0:
264,220,33636,1,0,0:0:0:0:
24,248,33876,6,0,P|8:300|32:360,1,100,2|0,1:2|0:0,0:0:0:0:
260,356,34356,1,8,0:0:0:0:
228,116,34596,1,0,0:0:0:0:
228,116,34716,1,0,0:0:0:0:
228,116,34836,2,0,L|220:40,1,50,8|8,1:2|0:0,0:0:0:0:
104,204,35076,2,0,L|109:253,1,50,8|0,0:0|0:0,0:0:0:0:
260,356,35316,1,8,0:0:0:0:
298,366,35436,1,8,0:0:0:0:
338,367,35556,1,8,0:0:0:0:
377,358,35676,1,8,0:0:0:0:
392,372,35796,6,0,P|384:324|396:256,1,100,4|0,1:0|0:0,0:0:0:0:
488,52,36276,1,8,0:0:0:0:
256,112,36516,1,0,0:0:0:0:
256,112,36636,1,0,0:0:0:0:
256,112,36756,1,0,1:0:0:0:
468,228,36996,1,0,0:0:0:0:
356,16,37236,1,8,0:0:0:0:
316,252,37476,1,2,0:0:0:0:
316,252,37596,1,2,0:0:0:0:
316,252,37716,6,0,B|304:300|304:300|272:340,1,100,0|0,1:0|0:0,0:0:0:0:
124,148,38196,1,8,0:0:0:0:
88,384,38436,1,0,0:0:0:0:
88,384,38556,1,0,0:0:0:0:
88,384,38676,1,0,1:0:0:0:
256,208,38916,2,0,L|304:256,1,50,8|0,0:0|0:0,0:0:0:0:
424,384,39156,2,0,L|432:312,1,50,8|0,0:0|0:0,0:0:0:0:
448,148,39396,1,0,0:0:0:0:
448,148,39516,1,0,0:0:0:0:
448,148,39636,6,0,P|452:88|436:40,1,100,0|0,1:0|0:0,0:0:0:0:
256,208,40116,1,8,0:0:0:0:
70,50,40356,1,2,0:0:0:0:
70,50,40476,1,2,0:0:0:0:
70,50,40596,1,0,1:0:0:0:
32,288,40836,1,0,0:0:0:0:
256,208,41076,1,8,0:0:0:0:
480,288,41316,1,2,0:0:0:0:
480,288,41436,1,2,0:0:0:0:
480,288,41556,5,0,1:0:0:0:
441,50,41796,1,0,0:0:0:0:
360,276,42036,1,8,0:0:0:0:
258,110,42276,2,0,P|247:159|256:208,1,100,0|0,0:0|1:0,0:0:0:0:
480,288,42756,1,0,0:0:0:0:
360,276,42996,1,8,0:0:0:0:
441,50,43236,2,0,P|420:96|360:128,1,100,0|0,0:0|1:0,0:0:0:0:
328,16,43716,5,0,0:0:0:0:
258,110,43956,1,8,0:0:0:0:
480,288,44196,1,2,0:0:0:0:
492,328,44316,1,2,0:0:0:0:
504,368,44436,1,0,1:0:0:0:
360,276,44676,1,0,0:0:0:0:
428,180,44916,1,8,0:0:0:0:
156,240,45156,2,0,P|107:252|58:244,1,100,0|0,0:0|1:0,0:0:0:0:
104,132,45636,5,0,0:0:0:0:
60,20,45876,1,8,0:0:0:0:
156,240,46116,1,2,0:0:0:0:
172,276,46236,1,2,0:0:0:0:
188,312,46356,1,0,1:0:0:0:
104,132,46596,1,0,0:0:0:0:
180,40,46836,1,8,0:0:0:0:
328,280,47076,2,0,B|376:288|376:288|448:280,1,100,0|0,0:0|1:0,0:0:0:0:
504,192,47556,5,0,0:0:0:0:
384,172,47796,1,8,0:0:0:0:
172,356,48036,1,2,0:0:0:0:
132,348,48156,1,2,0:0:0:0:
92,340,48276,1,0,1:0:0:0:
156,240,48516,1,0,0:0:0:0:
92,140,48756,1,8,0:0:0:0:
364,68,48996,2,0,P|416:92|476:76,1,100,0|0,0:0|1:0,0:0:0:0:
424,12,49476,5,0,0:0:0:0:
400,172,49716,1,0,0:0:0:0:
444,240,49956,1,0,0:0:0:0:
452,256,50076,1,2,0:0:0:0:
460,272,50196,2,0,L|448:376,1,100
348,304,50676,1,2,0:0:0:0:
240,360,50916,2,0,P|208:364|172:356,1,50,2|2,0:0|0:0,0:0:0:0:
164,352,51156,5,4,1:0:0:0:
152,32,56916,5,2,0:0:0:0:
152,32,57076,2,0,P|204:40|240:32,1,66.6666666666667
360,116,57396,1,2,0:0:0:0:
360,116,57556,2,0,P|308:124|272:116,1,66.6666666666667
84,224,57876,5,2,0:0:0:0:
84,224,58036,2,0,P|132:236|180:236,1,83.3333333333333
420,324,58356,1,2,0:0:0:0:
420,323,58516,2,0,P|379:334|338:337,1,83.3333333333333
472,260,58836,6,0,P|464:208|480:152,1,100,4|0,1:0|0:0,0:0:0:0:
288,8,59316,2,0,P|296:60|280:116,1,100,8|0,1:2|0:0,0:0:0:0:
100,260,59796,2,0,B|92:228|92:228|108:196|108:196|100:164,1,100,0|0,1:0|0:0,0:0:0:0:
256,348,60276,1,8,1:2:0:0:
372,372,60516,1,0,0:0:0:0:
372,372,60636,1,0,0:0:0:0:
372,372,60756,6,0,P|424:380|476:372,1,100,0|0,1:0|0:0,0:0:0:0:
308,196,61236,2,0,P|256:188|204:196,1,100,8|0,1:2|0:0,0:0:0:0:
41,373,61716,2,0,B|68:380|68:380|108:368|108:368|140:376,1,100,0|0,1:0|0:0,0:0:0:0:
372,372,62196,1,8,1:2:0:0:
308,196,62436,1,0,0:0:0:0:
308,196,62556,1,0,0:0:0:0:
308,196,62676,6,0,P|304:144|316:96,1,100,0|0,1:0|0:0,0:0:0:0:
88,20,63156,2,0,P|92:72|80:120,1,100,8|0,1:2|0:0,0:0:0:0:
260,280,63636,2,0,P|308:292|364:272,1,100,0|0,1:0|0:0,0:0:0:0:
128,196,64116,2,0,P|80:208|24:188,1,100,8|0,1:2|0:0,0:0:0:0:
260,112,64596,5,0,1:0:0:0:
424,288,64836,1,0,0:0:0:0:
188,244,65076,1,8,1:2:0:0:
404,144,65316,1,0,0:0:0:0:
288,356,65556,1,0,1:0:0:0:
168,364,65796,1,0,0:0:0:0:
76,288,66036,1,8,1:2:0:0:
92,168,66276,1,0,0:0:0:0:
92,168,66396,1,0,0:0:0:0:
92,168,66516,6,0,B|100:116|100:116|92:52,1,100,0|0,1:0|0:0,0:0:0:0:
216,276,66996,2,0,B|208:328|208:328|216:392,1,100,8|0,1:2|0:0,0:0:0:0:
336,168,67476,2,0,B|344:116|344:116|336:52,1,100,0|0,1:0|0:0,0:0:0:0:
460,276,67956,1,8,1:2:0:0:
356,336,68196,1,0,0:0:0:0:
356,336,68316,1,0,0:0:0:0:
356,336,68436,6,0,L|224:320,1,100,0|0,1:0|0:0,0:0:0:0:
36,224,68916,2,0,L|168:208,1,100,8|0,1:2|0:0,0:0:0:0:
356,116,69396,2,0,L|224:100,1,100,0|0,1:0|0:0,0:0:0:0:
36,8,69876,1,8,1:2:0:0:
0,124,70116,1,0,0:0:0:0:
0,124,70236,1,0,0:0:0:0:
0,124,70356,6,0,P|0:176|32:228,1,100,0|0,1:0|0:0,0:0:0:0:
240,104,70836,2,0,P|194:130|165:183,1,100,8|0,1:2|0:0,0:0:0:0:
377,301,71316,2,0,P|331:275|270:276,1,100,0|0,1:0|0:0,0:0:0:0:
56,352,71796,2,0,P|101:378|162:376,1,100,8|0,1:2|0:0,0:0:0:0:
48,160,72276,2,0,B|44:136|64:116|64:116|44:96|48:68,1,100,0|0,1:0|0:0,0:0:0:0:
152,28,72636,1,0,0:0:0:0:
152,28,72756,2,0,P|200:20|252:28,1,100,8|0,1:2|0:0,0:0:0:0:
416,96,73236,2,0,B|421:122|436:140|436:140|420:172|420:172|436:204|420:240,1,150,0|0,1:0|0:0,0:0:0:0:
336,348,73716,2,0,B|330:321|316:304|316:304|332:272|332:272|316:240|332:204,1,150,8|0,1:2|0:0,0:0:0:0:
244,364,74196,6,0,P|192:372|144:364,1,100,2|0,1:2|0:0,0:0:0:0:
48,212,74676,2,0,P|100:204|148:212,1,100,10|0,1:2|0:0,0:0:0:0:
256,260,75156,5,2,1:2:0:0:
376,244,75316,1,2,0:0:0:0:
408,128,75476,1,2,0:0:0:0:
256,260,75636,1,2,1:2:0:0:
358,324,75796,1,2,0:0:0:0:
457,256,75956,1,2,0:0:0:0:
256,260,76116,6,0,P|204:268|148:260,1,100,2|2,1:2|0:0,0:0:0:0:
64,60,76596,2,0,B|80:112|80:112|128:152,1,100,10|0,0:0|0:0,0:0:0:0:
256,260,77076,5,2,1:2:0:0:
351,186,77236,1,2,0:0:0:0:
321,69,77396,1,2,0:0:0:0:
256,260,77556,1,10,1:2:0:0:
376,264,77716,1,2,0:0:0:0:
428,156,77876,1,2,0:0:0:0:
256,260,78036,6,0,P|230:279|156:296,1,100,2|2,1:2|0:0,0:0:0:0:
36,116,78516,2,0,P|56:172|108:196,1,100,10|0,1:2|0:0,0:0:0:0:
256,260,78996,5,2,1:2:0:0:
376,264,79156,1,2,0:0:0:0:
428,156,79316,1,2,0:0:0:0:
256,260,79476,1,10,1:2:0:0:
136,264,79636,1,2,0:0:0:0:
84,156,79796,1,2,0:0:0:0:
256,260,79956,6,0,P|288:276|352:276,1,100,2|2,1:2|0:0,0:0:0:0:
472,92,80436,2,0,B|436:132|436:132|384:144,1,100,10|0,0:0|0:0,0:0:0:0:
132,128,80916,2,0,B|148:124|148:124|164:124|164:124|180:128|180:128|196:136|196:136|204:148|204:148|220:144|220:144|236:148|236:148|252:144|252:144|268:148|268:148|270:147,1,150,0|0,1:0|0:0,0:0:0:0:
360,240,81396,2,0,B|344:244|344:244|328:244|328:244|312:240|312:240|296:232|296:232|288:220|288:220|272:224|272:224|256:220|256:220|240:224|240:224|224:220|224:220|221:220,1,150,8|0,1:2|0:0,0:0:0:0:
392,144,81876,6,0,P|440:176|456:228,1,100,2|0,1:2|0:0,0:0:0:0:
256,312,82356,1,10,1:2:0:0:
161,238,82516,1,2,0:0:0:0:
191,121,82676,1,2,0:0:0:0:
256,312,82836,1,2,1:2:0:0:
351,238,82996,1,2,0:0:0:0:
321,121,83156,1,2,0:0:0:0:
256,312,83316,2,0,B|248:324|248:324|248:340|248:340|240:352|240:352|240:364|240:364|224:352|224:352|204:344|204:344|184:340|184:340|164:340|164:340|148:344,1,150,10|0,1:2|0:0,0:0:0:0:
56,368,83796,6,0,P|56:312|92:268,1,100,2|0,1:2|0:0,0:0:0:0:
256,312,84276,1,10,1:2:0:0:
376,296,84436,1,2,0:0:0:0:
408,180,84596,1,2,0:0:0:0:
256,312,84756,1,2,1:2:0:0:
358,376,84916,1,2,0:0:0:0:
457,308,85076,1,2,0:0:0:0:
256,312,85236,2,0,B|239:310|239:310|224:317|224:317|208:316|208:316|192:323|192:323|176:321|176:321|161:328|161:328|145:327|145:327|129:334|129:334|109:333,1,150,10|0,1:2|0:0,0:0:0:0:
24,316,85716,6,0,P|44:276|120:248,1,100,2|0,1:2|0:0,0:0:0:0:
256,312,86196,1,10,1:2:0:0:
351,238,86356,1,2,0:0:0:0:
321,121,86516,1,2,0:0:0:0:
256,312,86676,1,2,1:2:0:0:
376,316,86836,1,2,0:0:0:0:
428,208,86996,1,2,0:0:0:0:
256,312,87156,2,0,B|240:316|240:316|228:328|228:328|212:332|212:332|200:343|200:343|184:348|184:348|172:360|172:360|157:364|157:364|145:375|145:375|125:382,1,150,10|0,1:2|0:0,0:0:0:0:
100,296,87636,6,0,P|96:244|124:188,1,100,2|0,1:2|0:0,0:0:0:0:
256,312,88116,1,10,1:2:0:0:
300,200,88276,1,2,0:0:0:0:
420,200,88436,1,2,0:0:0:0:
256,312,88596,1,2,1:2:0:0:
136,312,88756,1,2,0:0:0:0:
92,200,88916,1,2,0:0:0:0:
256,312,89076,6,2,P|296:320|316:316,1,50,2|2,3:2|3:2,3:2:0:0:
460,248,89316,2,2,P|436:240|411:241,1,50,2|2,3:2|3:2,3:2:0:0:
256,192,89724,12,0,93557,0:0:0:0:
264,200,93724,5,4,1:2:0:0:
340,36,93890,1,0,1:0:0:0:
412,88,94057,2,0,L|461:84,1,50
328,124,94390,2,0,P|295:118|276:104,1,50,8|0,0:0|0:0,0:0:0:0:
340,36,94724,1,2,0:0:0:0:
340,36,94890,1,0,1:0:0:0:
232,180,95057,6,0,L|228:240,1,50,0|0,1:0|0:0,0:0:0:0:
224,320,95390,1,0,0:0:0:0:
148,272,95557,1,0,0:0:0:0:
300,368,95724,2,0,L|356:364,1,50,8|0,0:0|0:0,0:0:0:0:
440,356,96057,1,2,0:0:0:0:
440,356,96224,1,0,1:0:0:0:
472,144,96390,6,0,L|468:84,1,50,0|0,1:0|0:0,0:0:0:0:
316,16,96724,2,0,L|312:65,1,50
164,148,97057,1,8,0:0:0:0:
220,220,97224,1,0,0:0:0:0:
132,232,97390,1,2,0:0:0:0:
132,232,97557,1,0,1:0:0:0:
288,112,97724,6,0,L|344:116,1,50,0|0,1:0|0:0,0:0:0:0:
404,176,98057,1,0,0:0:0:0:
428,88,98224,1,0,0:0:0:0:
280,236,98390,2,0,P|228:236|176:256,1,100,8|2,0:0|0:0,0:0:0:0:
132,324,98890,1,0,1:0:0:0:
24,144,99057,6,0,L|28:92,1,50,0|0,1:0|0:0,0:0:0:0:
40,4,99390,1,0,0:0:0:0:
112,60,99557,1,0,0:0:0:0:
0,228,99724,2,0,L|3:277,1,50,8|0,0:0|0:0,0:0:0:0:
8,368,100057,1,0,0:0:0:0:
8,368,100224,1,0,1:0:0:0:
208,280,100390,6,0,L|284:284,1,50,0|0,1:0|0:0,0:0:0:0:
328,224,100724,1,2,0:0:0:0:
388,292,100890,1,0,0:0:0:0:
144,360,101057,2,0,P|112:316|112:288,1,50,8|0,0:0|0:0,0:0:0:0:
132,232,101390,1,0,0:0:0:0:
132,232,101557,1,0,1:0:0:0:
368,360,101724,6,0,P|400:316|400:288,1,50,0|0,1:0|0:0,0:0:0:0:
416,232,102057,1,2,0:0:0:0:
372,152,102224,1,0,0:0:0:0:
181,235,102390,2,0,L|132:232,1,50,8|0,0:0|0:0,0:0:0:0:
56,280,102724,1,0,0:0:0:0:
56,280,102890,1,0,1:0:0:0:
4,76,103057,6,0,L|12:20,1,50,0|0,1:0|0:0,0:0:0:0:
76,128,103390,2,0,L|83:177,1,50
240,68,103724,2,0,P|268:72|296:68,1,50,8|0,0:0|0:0,0:0:0:0:
364,20,104057,1,0,0:0:0:0:
364,20,104224,1,0,1:0:0:0:
424,220,104390,6,0,L|416:284,1,50,0|0,1:0|0:0,0:0:0:0:
336,308,104724,1,2,0:0:0:0:
408,360,104890,1,0,0:0:0:0:
256,244,105057,2,0,L|184:248,1,50,8|0,0:0|0:0,0:0:0:0:
132,300,105390,1,2,0:0:0:0:
132,300,105557,1,0,1:0:0:0:
304,180,105724,6,0,L|353:177,1,50,0|0,1:0|0:0,0:0:0:0:
448,168,106057,1,2,0:0:0:0:
392,92,106224,1,0,0:0:0:0:
256,244,106390,2,0,L|184:248,1,50,8|0,0:0|0:0,0:0:0:0:
132,300,106724,1,0,0:0:0:0:
132,300,106890,1,0,1:0:0:0:
68,100,107057,6,0,L|76:44,1,50,0|0,1:0|0:0,0:0:0:0:
160,148,107390,2,0,P|192:160|228:160,1,50,2|0,0:0|0:0,0:0:0:0:
428,124,107724,2,0,P|396:112|360:112,1,50,8|0,0:0|0:0,0:0:0:0:
300,152,108057,1,0,0:0:0:0:
300,152,108224,1,0,1:0:0:0:
436,312,108390,6,0,P|440:340|428:376,1,50,0|0,1:0|0:0,0:0:0:0:
348,332,108724,1,2,0:0:0:0:
372,244,108890,1,0,0:0:0:0:
172,312,109057,2,0,P|140:316|104:308,1,50,8|0,0:0|0:0,0:0:0:0:
28,184,109390,1,0,0:0:0:0:
0,344,109557,1,0,1:0:0:0:
112,228,109724,6,0,P|120:172|96:120,1,100,0|2,1:0|0:0,0:0:0:0:
28,184,110224,1,0,0:0:0:0:
208,172,110390,2,0,L|264:180,1,50,8|0,0:0|0:0,0:0:0:0:
324,240,110724,1,2,0:0:0:0:
324,240,110890,1,0,1:0:0:0:
456,76,111057,6,0,L|452:12,1,50,0|0,1:0|0:0,0:0:0:0:
396,152,111390,2,0,L|392:201,1,50,2|0,0:0|0:0,0:0:0:0:
300,12,111724,1,8,0:0:0:0:
256,92,111890,1,0,0:0:0:0:
212,12,112057,1,0,0:0:0:0:
212,12,112224,1,0,1:0:0:0:
104,192,112390,6,0,L|108:248,1,50,0|0,1:0|0:0,0:0:0:0:
172,368,112724,1,2,0:0:0:0:
256,256,112890,1,0,0:0:0:0:
340,368,113057,2,0,P|392:376|448:368,1,100,8|0,0:0|0:0,0:0:0:0:
512,316,113557,1,0,1:0:0:0:
396,140,113724,6,0,L|400:76,1,50,0|0,1:0|0:0,0:0:0:0:
256,44,114057,2,0,L|259:93,1,50,2|0,0:0|0:0,0:0:0:0:
116,140,114390,2,0,P|72:144|52:136,1,50,8|0,0:0|0:0,0:0:0:0:
95,6,114724,2,0,L|92:56,1,50,0|0,1:0|1:0,0:0:0:0:
80,288,115057,6,0,L|83:337,1,50,4|0,1:2|0:0,0:0:0:0:
212,220,115390,1,0,1:0:0:0:
336,340,115557,1,0,1:0:0:0:
376,172,115724,2,0,L|372:112,1,50,8|0,0:0|0:0,0:0:0:0:
296,28,116057,2,0,L|292:88,1,50,2|0,0:0|0:0,0:0:0:0:
212,220,116390,5,0,1:0:0:0:
336,340,116557,1,0,1:0:0:0:
376,172,116724,1,2,1:2:0:0:
260,296,116890,1,0,1:0:0:0:
208,132,117057,2,0,P|204:96|208:72,1,50,8|0,0:0|0:0,0:0:0:0:
260,12,117390,1,2,0:0:0:0:
308,84,117557,1,0,0:0:0:0:
108,184,117724,6,0,L|104:240,1,50,0|0,1:0|0:0,0:0:0:0:
24,276,118057,1,2,0:0:0:0:
100,324,118224,1,0,0:0:0:0:
208,132,118390,2,0,L|204:82,1,50,8|0,0:0|0:0,0:0:0:0:
311,34,118724,2,0,L|308:84,1,50,2|0,0:0|0:0,0:0:0:0:
292,172,119057,5,0,1:0:0:0:
356,320,119224,1,0,1:0:0:0:
392,216,119390,1,2,0:0:0:0:
220,296,119557,1,0,1:0:0:0:
220,296,119724,2,0,L|156:288,1,50,8|0,0:0|0:0,0:0:0:0:
52,220,120057,2,0,L|116:212,1,50,2|0,0:0|0:0,0:0:0:0:
192,200,120390,5,0,1:0:0:0:
300,44,120557,1,0,1:0:0:0:
120,108,120724,1,0,1:0:0:0:
304,160,120890,1,0,1:0:0:0:
188,12,121057,1,8,0:0:0:0:
192,200,121224,1,2,0:0:0:0:
192,200,121390,2,0,L|196:276,1,50,2|0,0:0|0:0,0:0:0:0:
256,316,121724,5,0,1:0:0:0:
72,360,121890,1,0,1:0:0:0:
20,176,122057,2,0,L|24:112,1,50,2|0,1:2|0:0,0:0:0:0:
188,12,122390,2,0,L|192:76,1,50,8|0,0:0|0:0,0:0:0:0:
356,176,122724,2,0,L|359:126,1,50,2|0,0:0|0:0,0:0:0:0:
364,36,123057,5,0,1:0:0:0:
348,264,123224,1,0,1:0:0:0:
456,108,123390,1,0,1:0:0:0:
250,207,123557,1,0,1:0:0:0:
439,223,123724,2,0,P|448:256|448:280,1,50,8|0,0:0|0:0,0:0:0:0:
312,352,124057,1,2,0:0:0:0:
240,296,124224,1,0,0:0:0:0:
250,207,124390,5,0,1:0:0:0:
88,288,124557,1,0,0:0:0:0:
100,108,124724,2,0,L|96:52,1,50,10|0,0:0|0:0,0:0:0:0:
250,207,125057,2,0,L|246:256,1,50,8|0,0:0|0:0,0:0:0:0:
176,312,125390,1,0,0:0:0:0:
88,288,125724,6,0,B|60:252|60:208|112:180|140:144|112:80|60:76|12:80|4:132|4:132|0:176|36:208|88:192|88:192|132:176|132:176|152:184|152:184|208:176|252:208,1,600,6|0,0:0|0:0,0:0:0:0:
412,288,128390,6,0,B|460:304|520:264|512:192|460:164|460:164|436:152|436:152|424:128|424:128|404:116|404:116|392:96|392:96|360:112|316:112|292:96,2,400,2|2|2,0:0|0:0|0:0,0:0:0:0:
256,200,131724,6,0,L|256:180,40,12.5,2|0|0|2|0|2|0|2|0|2|0|0|2|0|0|2|0|2|0|0|2|0|0|0|2|2|0|0|0|0|2|0|2|0|0|0|2|0|0|0|2,0:0|0:0|0:0|0:0|0:0|0:0|0:0|0:0|0:0|0:0|0:0|0:0|0:0|0:0|0:0|0:0|0:0|0:0|0:0|0:0|0:0|0:0|0:0|0:0|0:0|0:0|0:0|0:0|0:0|0:0|0:0|0:0|0:0|0:0|0:0|0:0|0:0|0:0|0:0|0:0|0:0,0:0:0:0:
216,280,133724,6,0,B|196:360|116:360|84:328|84:328|48:292|72:240|72:240|96:188|48:100,1,400,2|2,0:0|0:0,0:0:0:0:
296,280,136390,2,0,B|316:360|396:360|428:328|428:328|464:292|440:240|440:240|416:188|457:112,1,400,2|0,0:0|0:0,0:0:0:0:
88,258,139057,6,0,B|120:212|120:152|92:120|92:120|104:96|104:96|100:72|100:72|200:32|200:104|304:68,2,400,2|2|2,0:0|0:0|0:0,0:0:0:0:
256,192,144390,5,2,0:0:0:0:
256,192,144557,12,0,146057,0:0:0:0:
132,288,146390,5,8,0:0:0:0:
196,88,146557,1,8,0:0:0:0:
132,288,146890,1,0,0:0:0:0:
340,256,147057,6,0,P|384:260|404:252,1,50,4|0,1:2|0:0,0:0:0:0:
476,232,147390,1,0,0:0:0:0:
408,172,147557,1,0,0:0:0:0:
264,328,147724,2,0,L|200:324,1,50,8|0,0:0|0:0,0:0:0:0:
128,356,148057,1,2,0:0:0:0:
128,356,148224,1,0,1:0:0:0:
52,160,148390,6,0,L|56:96,1,50,0|0,1:0|0:0,0:0:0:0:
148,32,148724,2,0,L|152:96,1,50
220,280,149057,2,0,P|252:284|280:280,1,50,8|2,0:0|0:0,0:0:0:0:
356,256,149390,1,2,0:0:0:0:
356,256,149557,1,0,1:0:0:0:
280,60,149724,6,0,L|284:8,1,50,0|0,1:0|0:0,0:0:0:0:
196,132,150057,1,2,0:0:0:0:
344,148,150224,1,0,0:0:0:0:
256,272,150390,2,0,P|248:300|256:328,1,50,8|0,0:0|0:0,0:0:0:0:
344,300,150724,1,0,0:0:0:0:
344,300,150890,1,0,1:0:0:0:
164,292,151057,6,0,L|112:296,1,50,0|0,1:0|0:0,0:0:0:0:
40,344,151390,1,0,0:0:0:0:
40,344,151557,1,0,1:0:0:0:
8,136,151724,2,0,L|12:84,1,50,8|0,0:0|0:0,0:0:0:0:
80,264,152057,1,8,0:0:0:0:
244,168,152224,1,8,0:0:0:0:
244,168,152390,6,0,L|328:172,1,50
416,228,153057,1,0,0:0:0:0:
440,188,153224,1,0,0:0:0:0:
416,152,153390,1,0,0:0:0:0:
440,116,153557,2,0,P|456:68|432:12,1,100
376,68,154057,5,0,0:0:0:0:
332,84,154224,1,0,0:0:0:0:
288,76,154390,2,0,P|252:60|224:0,1,100
176,164,155057,5,0,0:0:0:0:
160,204,155224,2,0,L|164:268,1,50
184,332,155557,1,0,0:0:0:0:
224,312,155724,1,0,0:0:0:0:
264,332,155890,2,0,P|312:340|364:332,1,100
424,284,156390,6,0,L|428:228,1,50
432,152,156724,1,0,0:0:0:0:
336,24,157057,1,0,0:0:0:0:
320,68,157557,5,0,0:0:0:0:
320,67,157724,6,0,P|316:92|317:117,1,50,4|0,1:2|0:0,0:0:0:0:
372,192,158057,1,2,0:0:0:0:
316,264,158224,1,0,0:0:0:0:
112,308,158390,2,0,L|48:300,1,50,8|0,0:0|0:0,0:0:0:0:
0,236,158724,1,2,0:0:0:0:
0,236,158890,1,0,1:0:0:0:
208,204,159057,6,0,L|272:196,1,50,0|0,1:0|0:0,0:0:0:0:
144,156,159390,2,0,L|80:148,1,50,2|0,0:0|0:0,0:0:0:0:
316,264,159724,2,0,P|336:240|340:192,1,50,8|0,0:0|0:0,0:0:0:0:
257,197,160057,1,0,0:0:0:0:
257,197,160224,1,0,1:0:0:0:
428,316,160390,6,0,L|480:312,1,50,0|0,1:0|0:0,0:0:0:0:
316,264,160724,1,2,0:0:0:0:
256,332,160890,1,0,0:0:0:0:
196,128,161057,2,0,P|192:92|196:68,1,50,8|0,0:0|0:0,0:0:0:0:
256,12,161390,1,0,0:0:0:0:
256,12,161557,1,0,1:0:0:0:
313,214,161724,6,0,P|317:239|316:264,1,50,0|0,1:0|0:0,0:0:0:0:
256,332,162057,1,2,0:0:0:0:
196,264,162224,1,0,0:0:0:0:
404,236,162390,2,0,L|460:240,1,50,8|0,0:0|0:0,0:0:0:0:
512,296,162724,1,0,0:0:0:0:
512,296,162890,1,0,1:0:0:0:
305,328,163057,6,0,L|256:332,1,50,0|0,1:0|0:0,0:0:0:0:
168,344,163390,1,2,0:0:0:0:
196,264,163557,1,0,0:0:0:0:
48,112,163724,2,0,P|44:80|56:48,1,50,8|0,0:0|0:0,0:0:0:0:
120,12,164057,1,0,0:0:0:0:
120,12,164224,1,0,1:0:0:0:
316,84,164390,6,0,L|380:80,1,50,0|0,1:0|0:0,0:0:0:0:
440,28,164724,1,2,0:0:0:0:
448,116,164890,1,0,0:0:0:0:
256,32,165057,2,0,P|224:28|176:32,1,50,8|0,0:0|0:0,0:0:0:0:
144,96,165390,1,0,0:0:0:0:
144,96,165557,1,0,1:0:0:0:
112,304,165724,6,0,L|115:353,1,50,0|0,1:0|0:0,0:0:0:0:
156,224,166057,1,2,0:0:0:0:
200,304,166224,1,0,0:0:0:0:
312,128,166390,2,0,P|316:96|308:68,1,50,8|0,0:0|0:0,0:0:0:0:
228,108,166724,1,0,0:0:0:0:
228,108,166890,1,0,1:0:0:0:
428,44,167057,6,0,L|488:48,1,50,0|0,1:0|0:0,0:0:0:0:
361,124,167390,2,0,L|312:128,1,50,2|0,0:0|0:0,0:0:0:0:
428,212,167724,1,8,0:0:0:0:
428,212,168390,5,0,1:0:0:0:
256,192,174162,12,0,175662,0:0:0:0:
200,248,175876,6,0,B|256:236|256:236|304:224|316:184|308:136|256:124|204:136|196:184|208:224|256:236|256:236|312:248,1,375,4|0,1:0|0:0,0:0:0:0:
332,104,177590,2,0,P|352:128|364:152,1,50,0|8,1:0|0:0,0:0:0:0:
180,104,177912,2,0,P|160:128|148:152,1,50,8|4,1:2|1:3,0:0:0:0:
256,336,178233,1,4,0:3:0:0:
256,336,178447,6,0,B|284:336|284:336|328:352|328:352|360:352,1,100,4|0,1:0|0:0,0:0:0:0:
196,260,179090,2,0,B|168:260|168:260|124:276|124:276|100:276|100:276|40:276|-16:220|-16:140|40:84|100:84|100:84|124:84|124:84|248:84|192:40|324:40,1,625,4|0,1:0|0:0,0:0:0:0:
364,48,181876,5,8,0:3:0:0:
399,65,181983,1,4,3:0:0:0:
424,96,182090,1,4,3:0:0:0:
434,135,182197,1,4,3:0:0:0:
428,174,182304,2,0,P|424:216|432:252,1,50,8|4,0:0|0:3,0:0:0:0:
320,348,182519,2,0,P|324:306|316:270,1,50,8|4,0:3|0:3,0:0:0:0:
236,164,182733,6,0,B|216:108|216:108|204:72|208:32|240:16|296:16|312:68|300:116|256:120|216:108|216:108|124:76|124:76|88:88|48:76|48:76|20:104|24:156,1,550,4|0,1:0|0:0,0:0:0:0:
140,280,185304,2,0,B|140:304|140:304|124:352|124:352|124:380,1,100,4|0,1:0|0:0,0:0:0:0:
192,208,185947,1,4,1:0:0:0:
256,192,186162,12,2,187876,0:0:0:0:
116,184,188733,5,8,0:0:0:0:
108,224,188840,1,8,0:0:0:0:
256,120,189054,1,8,0:0:0:0:
404,224,189269,1,8,0:0:0:0:
396,184,189376,1,0,1:0:0:0:
256,352,189590,6,0,P|208:360|144:344,1,100,4|0,1:0|0:0,0:0:0:0:
92,292,189912,1,0,0:0:0:0:
92,292,190019,2,0,L|96:232,1,50,2|0,0:0|0:0,0:0:0:0:
188,152,190233,2,0,L|192:212,1,50,2|0,0:0|0:0,0:0:0:0:
256,264,190447,2,0,P|304:272|356:260,1,100,8|0,0:0|0:0,0:0:0:0:
412,156,190876,2,0,P|404:120|412:72,2,75,2|2|2,0:0|0:0|0:0,0:0:0:0:
468,216,191304,6,0,P|481:246|480:286,1,50,8|0,0:1|0:0,0:0:0:0:
330,361,191519,2,0,P|301:379|262:385,1,50
163,252,191733,2,0,P|139:227|126:189,1,50
242,68,191947,1,0,0:0:0:0:
242,68,192054,1,0,0:0:0:0:
242,68,192161,2,0,P|261:40|297:21,1,50,8|0,0:0|0:0,0:0:0:0:
384,148,192376,2,0,P|364:175|328:194,1,50
412,36,192590,2,0,P|460:60|492:120,1,100
472,216,193019,6,0,B|464:268|464:268|472:324,1,100,8|2,0:1|0:0,0:0:0:0:
392,360,193340,1,0,0:0:0:0:
392,360,193447,2,0,P|340:368|280:360,1,100
180,152,193876,1,8,0:0:0:0:
100,312,194090,1,0,0:0:0:0:
300,180,194304,1,2,0:0:0:0:
356,288,194519,1,0,0:0:0:0:
356,288,194626,1,0,0:0:0:0:
356,288,194733,6,0,L|420:292,1,50,8|0,0:1|0:0,0:0:0:0:
256,348,194947,2,0,L|192:352,1,50
100,312,195162,1,2,1:2:0:0:
300,180,195376,2,0,L|364:184,1,50
456,144,195591,1,8,0:0:0:0:
256,16,195804,1,2,0:0:0:0:
172,104,196019,2,0,B|168:120|168:120|176:140|176:140|168:160|168:160|176:184|176:184|168:204|168:204|176:224|176:224|168:244,1,150
88,336,196447,6,0,B|80:316|80:316|88:296|88:296|80:276|80:276|88:252|88:252|80:232,1,100,8|0,0:1|0:0,0:0:0:0:
168,332,196769,1,0,0:0:0:0:
168,332,196876,2,0,P|220:320|252:272,1,100
120,104,197304,2,0,P|71:113|39:150,1,100,8|0,0:0|0:0,0:0:0:0:
116,188,197626,1,0,0:0:0:0:
120,216,197733,2,0,P|108:248|112:304,2,75,2|2|2,0:0|0:0|0:0,0:0:0:0:
232,268,198162,6,0,P|260:276|300:276,1,50,8|0,0:1|0:0,0:0:0:0:
436,188,198376,2,0,P|408:196|368:196,1,50
232,108,198590,2,0,P|260:116|300:116,1,50
436,28,198804,1,0,0:0:0:0:
436,28,198912,1,0,0:0:0:0:
436,28,199019,2,0,P|408:36|368:36,1,50,8|0,0:0|0:0,0:0:0:0:
448,140,199233,2,0,L|436:188,1,50
416,308,199447,2,0,B|422:301|422:301|442:297|442:297|454:285|454:285|470:281|470:281|482:269|482:269|502:265,1,100,0|2,0:0|1:2,0:0:0:0:
312,344,199876,6,0,P|260:352|196:336,1,100,8|0,0:1|0:0,0:0:0:0:
128,372,200197,1,0,0:0:0:0:
128,372,200304,2,0,P|124:324|160:272,1,100
384,332,200733,2,0,P|388:284|352:232,1,100,8|0,0:0|0:0,0:0:0:0:
192,184,201162,2,0,L|128:176,1,50
256,312,201376,2,0,L|320:304,1,50
100,116,201590,5,8,0:1:0:0:
100,116,201804,2,0,P|68:164|84:224,1,100,2|0,0:0|0:0,0:0:0:0:
144,372,202233,1,0,0:0:0:0:
256,232,202447,1,8,0:0:0:0:
88,296,202662,1,0,0:0:0:0:
264,328,202876,2,0,B|284:336|284:336|304:332|304:332|324:340|324:340|344:336|344:336|364:344|364:344|384:340|384:340|408:348,1,150
484,268,203304,6,0,P|500:224|488:168,1,100,8|0,0:1|0:0,0:0:0:0:
412,96,203626,1,0,0:0:0:0:
412,96,203733,2,0,B|364:108|364:108|300:100,1,100
156,192,204162,1,8,0:0:0:0:
136,228,204269,1,0,0:0:0:0:
132,268,204376,2,0,P|132:308|140:336,1,50
292,352,204590,2,0,P|312:308|308:248,1,100
456,368,205019,6,0,L|512:376,1,50,8|0,0:1|0:0,0:0:0:0:
341,344,205233,2,0,L|292:352,1,50
212,312,205447,1,0,0:0:0:0:
372,160,205662,2,0,L|421:167,1,50
501,127,205876,1,8,0:0:0:0:
368,8,206090,1,0,0:0:0:0:
308,224,206304,2,0,B|300:244|300:244|304:260|304:260|284:292|284:340|308:376,1,150
392,314,206733,5,8,0:1:0:0:
408,316,206840,1,0,0:0:0:0:
425,319,206947,2,0,L|484:316,1,50
308,224,207162,1,0,0:0:0:0:
292,222,207269,1,0,0:0:0:0:
276,220,207376,2,0,L|217:223,1,50
80,120,207590,2,0,L|138:123,1,50,8|0,0:0|0:0,0:0:0:0:
88,296,207804,1,0,0:0:0:0:
84,308,207912,1,0,0:0:0:0:
80,320,208019,2,0,B|56:276|56:276|52:216,1,100
80,120,208340,1,0,0:0:0:0:
80,120,208447,6,0,L|138:123,1,50,8|0,0:1|0:0,0:0:0:0:
226,222,208662,2,0,L|276:220,1,50
348,272,208876,1,0,0:0:0:0:
508,92,209090,2,0,L|458:89,1,50
386,141,209304,1,8,0:0:0:0:
236,44,209519,1,0,0:0:0:0:
226,222,209733,2,0,B|228:240|228:240|220:256|220:256|224:276|224:276|216:296|216:296|220:316|220:316|212:336|212:336|216:352|216:352|212:364,1,150
120,316,210162,5,8,0:1:0:0:
104,320,210269,1,0,0:0:0:0:
88,324,210376,2,0,L|32:320,1,50
8,152,210590,1,0,0:0:0:0:
4,136,210697,1,0,0:0:0:0:
0,120,210804,2,0,L|4:64,1,50
172,40,211019,2,0,L|244:24,1,50,8|0,0:0|0:0,0:0:0:0:
221,199,211233,1,0,0:0:0:0:
222,216,211340,1,0,0:0:0:0:
224,232,211447,2,0,P|268:228|300:232,2,75,2|2|2,0:0|0:0|0:0,0:0:0:0:
64,264,211876,6,0,L|4:268,1,50,8|0,0:1|0:0,0:0:0:0:
0,120,212090,2,0,L|60:124,1,50
112,188,212304,1,0,0:0:0:0:
276,12,212519,2,0,L|216:16,1,50
164,80,212733,1,8,0:0:0:0:
360,180,212947,1,8,0:1:0:0:
164,280,213162,6,0,L|144:288,12,12.5
180,292,213590,5,8,0:1:0:0:
196,304,213697,1,0,0:0:0:0:
212,316,213804,2,0,L|280:312,1,50
448,212,214019,1,0,0:0:0:0:
432,224,214126,1,0,0:0:0:0:
416,236,214233,2,0,L|348:232,1,50
212,136,214447,2,0,L|280:132,1,50,8|0,0:0|0:0,0:0:0:0:
104,228,214662,1,0,0:0:0:0:
92,212,214769,1,0,0:0:0:0:
84,196,214876,2,0,P|72:160|72:120,2,75,2|2|2,0:0|0:0|0:0,0:0:0:0:
212,136,215304,5,8,0:1:0:0:
212,136,215519,2,0,L|312:144,1,100
488,308,215947,1,0,0:0:0:0:
488,308,216054,1,0,0:0:0:0:
488,308,216162,2,0,L|432:312,1,50,8|0,0:0|0:0,0:0:0:0:
312,372,216376,2,0,L|256:376,1,50
132,324,216590,2,0,B|128:304|128:304|136:284|136:284|128:264|128:264|136:244|136:244|128:224|128:224|136:204|136:204|132:180,1,150
72,88,217019,6,0,P|120:72|184:84,1,100
264,132,217340,1,2,0:0:0:0:
264,132,217447,2,0,B|316:132|316:132|368:116,1,100
452,228,217769,1,0,0:0:0:0:
460,248,217876,2,0,P|468:288|464:324,1,50,8|0,0:0|0:0,0:0:0:0:
308,356,218090,2,0,P|300:316|304:280,1,50,2|0,0:0|0:0,0:0:0:0:
344,196,218304,1,0,0:0:0:0:
144,292,218519,1,0,0:0:0:0:
124,300,218626,1,0,0:0:0:0:
104,308,218733,6,0,P|52:316|0:308,1,100,8|0,0:1|0:0,0:0:0:0:
180,196,219162,2,0,P|188:156|180:108,2,75,2|2|2,0:0|0:0|0:0,0:0:0:0:
260,312,219590,2,0,P|309:318|358:310,1,100,8|0,0:0|0:0,0:0:0:0:
436,260,219912,1,0,0:0:0:0:
436,260,220019,2,0,L|440:196,1,50
308,88,220233,2,0,L|311:137,1,50
260,312,220447,6,0,P|208:324|140:304,1,100,8|0,0:1|0:0,0:0:0:0:
92,256,220769,1,0,0:0:0:0:
80,272,220876,2,0,B|67:221|67:221|76:168,1,100
256,16,221304,2,0,B|268:66|268:66|260:120,1,100,8|0,0:0|0:0,0:0:0:0:
236,200,221626,1,0,0:0:0:0:
236,200,221733,2,0,P|236:240|248:268,1,50
412,300,221947,2,0,P|412:260|400:232,1,50
256,348,222162,6,0,B|236:344|236:344|216:348|216:348|196:344|196:344|176:348|176:348|156:344|156:344|136:348|136:348|116:344|116:344|96:348,1,150,8|0,0:1|0:0,0:0:0:0:
76,228,222590,2,0,P|40:240|4:276,2,75,2|2|2,0:0|0:0|0:0,0:0:0:0:
196,224,223019,2,0,P|244:236|316:216,1,100,8|0,0:0|0:0,0:0:0:0:
392,160,223340,1,0,0:0:0:0:
404,144,223447,2,0,L|400:88,1,50
508,268,223662,2,0,L|504:317,1,50
308,360,223876,6,0,P|259:368|210:356,1,100,8|0,0:1|0:0,0:0:0:0:
136,304,224197,1,0,0:0:0:0:
136,304,224304,2,0,L|128:196,1,100
280,16,224733,2,0,L|272:115,1,100,8|0,0:0|0:0,0:0:0:0:
348,208,225054,1,0,0:0:0:0:
372,224,225162,2,0,P|404:232|452:224,2,75,2|0|0,0:0|0:0|0:0,0:0:0:0:
288,312,225590,5,8,0:1:0:0:
268,320,225697,1,0,0:0:0:0:
248,328,225804,2,0,L|192:320,1,50
8,228,226019,2,0,L|64:220,1,50
216,84,226233,1,0,0:0:0:0:
196,81,226340,1,0,0:0:0:0:
176,76,226447,2,0,L|126:83,1,50,8|0,0:0|0:0,0:0:0:0:
304,200,226662,2,0,L|354:207,1,50,8|0,0:1|0:0,0:0:0:0:
176,320,226876,2,0,B|156:332|156:332|132:328|132:328|104:344|56:340,1,100
64,160,227304,5,8,0:1:0:0:
264,292,227519,1,0,0:0:0:0:
280,304,227626,1,0,0:0:0:0:
296,316,227733,2,0,B|344:324|344:324|412:308,1,100
393,71,228162,2,0,B|344:60|344:60|296:68,1,100,8|0,0:0|0:0,0:0:0:0:
188,124,228483,1,0,0:0:0:0:
188,152,228590,2,0,P|184:196|164:232,2,75,2|2|2,0:0|0:0|0:0,0:0:0:0:
64,160,229019,6,0,P|32:148|-4:148,1,50,8|0,0:1|0:0,0:0:0:0:
72,368,229233,2,0,P|104:380|140:380,1,50
256,200,229447,2,0,P|260:172|252:132,1,50
72,24,229662,1,0,0:0:0:0:
72,24,229769,1,0,0:0:0:0:
72,24,229876,2,0,P|64:48|64:84,1,50,8|0,0:0|0:0,0:0:0:0:
68,224,230090,2,0,L|72:284,1,50
184,160,230304,2,0,P|224:124|280:124,1,100,8|0,0:1|0:0,0:0:0:0:
444,288,230733,6,0,P|404:324|348:324,1,100,8|0,0:1|0:0,0:0:0:0:
276,296,231054,1,0,0:0:0:0:
276,296,231162,2,0,B|228:280|228:280|176:276,1,100
4,112,231590,2,0,B|52:128|52:128|104:132,1,100,8|0,0:0|0:0,0:0:0:0:
204,64,231912,1,0,0:0:0:0:
220,88,232019,2,0,P|232:136|212:192,1,100
160,288,232340,1,0,0:0:0:0:
188,300,232447,6,0,L|292:296,1,100,8|0,0:1|0:0,0:0:0:0:
448,120,232876,2,0,P|436:72|412:40,2,75,2|2|2,0:0|0:0|0:0,0:0:0:0:
328,128,233304,2,0,P|292:140|232:132,1,100,8|0,0:0|0:0,0:0:0:0:
168,68,233626,1,0,0:0:0:0:
168,68,233733,2,0,L|96:76,1,50,2|0,0:0|0:0,0:0:0:0:
56,176,233947,2,0,L|6:181,1,50,2|0,0:0|0:0,0:0:0:0:
120,280,234162,6,0,P|168:288|220:280,1,100
292,228,234483,1,0,0:0:0:0:
292,228,234590,2,0,L|280:120,1,100
500,32,235019,2,0,L|488:131,1,100,8|0,0:0|0:0,0:0:0:0:
476,220,235340,1,0,0:0:0:0:
476,220,235447,2,0,L|482:269,1,50
400,304,235662,2,0,L|393:353,1,50
292,228,235876,5,8,0:1:0:0:
273,235,235983,1,0,0:0:0:0:
254,239,236090,2,0,P|216:244|184:236,1,50
50,99,236304,5,0,0:0:0:0:
68,92,236411,1,0,0:0:0:0:
88,88,236518,2,0,P|126:83|158:91,1,50
76,224,236733,2,0,P|74:248|78:273,1,50,8|0,0:0|0:0,0:0:0:0:
188,360,236947,2,0,L|240:356,1,50,2|2,0:0|0:0,0:0:0:0:
440,292,237162,2,0,L|388:288,1,50,2|2,0:0|0:0,0:0:0:0:
188,224,237376,2,0,L|240:220,1,50,2|2,0:0|0:0,0:0:0:0:
440,156,237590,6,0,L|340:148,1,100,8|2,0:1|0:0,0:0:0:0:
260,104,237912,1,0,0:0:0:0:
260,104,238019,2,0,P|240:60|252:8,1,100
440,156,238447,2,0,P|460:200|448:252,1,100,8|0,0:0|0:0,0:0:0:0:
368,208,238769,1,0,0:0:0:0:
352,220,238876,2,0,L|284:216,1,50
232,276,239090,2,0,L|164:272,1,50
380,308,239304,6,0,P|424:280|436:200,1,100,8|0,0:1|0:0,0:0:0:0:
352,220,239626,1,0,0:0:0:0:
344,192,239733,2,0,L|336:104,2,75,2|0|0,0:0|0:0|0:0,0:0:0:0:
156,232,240162,2,0,P|143:279|160:328,1,100,8|0,0:0|0:0,0:0:0:0:
256,352,240483,1,0,0:0:0:0:
256,352,240590,2,0,L|316:356,1,50
444,224,240804,2,0,L|384:228,1,50
212,120,241019,6,0,L|311:126,1,100,8|0,0:1|0:0,0:0:0:0:
396,92,241340,1,0,0:0:0:0:
396,92,241447,2,0,P|428:56|428:4,1,100
444,224,241876,2,0,P|436:280|444:328,1,100,8|0,0:0|0:0,0:0:0:0:
364,276,242197,1,0,0:0:0:0:
348,288,242304,2,0,L|272:280,1,50,2|0,0:0|0:0,0:0:0:0:
208,200,242519,2,0,L|284:192,1,50,2|0,0:0|0:0,0:0:0:0:
144,276,242733,5,8,0:1:0:0:
129,262,242840,1,0,0:0:0:0:
117,246,242947,2,0,P|108:204|112:176,1,50
256,48,243162,1,0,0:0:0:0:
270,61,243269,1,0,0:0:0:0:
282,77,243376,2,0,P|291:119|287:147,1,50
256,248,243590,1,2,0:0:0:0:
256,248,243804,6,2,L|248:304,1,50
388,212,244019,2,2,L|444:220,1,50
352,79,244233,2,2,L|360:23,1,50
220,116,244442,6,0,L|121:101,1,100,8|0,0:1|0:0,0:0:0:0:
0,236,244896,2,0,L|99:251,1,100
188,332,245351,1,8,0:0:0:0:
224,320,245464,1,8,0:0:0:0:
356,196,245692,1,8,0:0:0:0:
224,64,245919,1,8,0:0:0:0:
188,52,246032,1,4,1:3:0:0:
72,192,246260,6,0,P|72:304|192:280,1,250,4|0,1:0|0:0,0:0:0:0:
124,248,248078,6,0,P|148:200|92:116,1,150,2|0,0:0|0:0,0:0:0:0:
268,48,248987,2,0,P|244:96|300:180,1,150,2|0,0:0|0:0,0:0:0:0:
324,104,249896,2,0,B|225:117|225:117|112:96,1,200,2|0,0:0|0:0,0:0:0:0:
40,80,251487,6,0,L|36:132,1,50,2|0,0:0|0:0,0:0:0:0:
128,284,251942,2,0,L|132:232,1,50,2|0,0:0|0:0,0:0:0:0:
224,80,252396,2,0,L|220:132,1,50,2|0,0:0|0:0,0:0:0:0:
316,284,252851,2,0,B|320:232|320:232|360:176,1,100
432,280,253532,5,2,0:0:0:0:
432,280,253760,1,0,0:0:0:0:
484,172,253987,2,0,P|495:121|480:68,1,100,2|0,0:0|0:0,0:0:0:0:
388,4,254442,1,2,0:0:0:0:
288,68,254669,1,0,0:0:0:0:
484,172,254896,1,2,0:0:0:0:
288,272,255123,1,2,0:0:0:0:
288,272,255351,6,0,L|188:260,1,100,2|0,0:0|0:0,0:0:0:0:
40,160,255805,2,0,L|140:148,1,100,2|0,0:0|0:0,0:0:0:0:
204,48,256260,1,2,0:0:0:0:
264,152,256487,1,0,0:0:0:0:
324,48,256714,1,2,0:0:0:0:
140,148,256942,1,0,0:0:0:0:
140,148,257169,2,0,L|40:160,1,100,2|0,0:0|0:0,0:0:0:0:
188,260,257623,6,0,L|288:272,1,100,2|0,0:0|0:0,0:0:0:0:
372,188,258078,1,2,0:0:0:0:
436,288,258305,1,0,0:0:0:0:
508,124,258532,1,2,0:0:0:0:
344,44,258760,6,0,P|272:52|236:44,1,100,2|0,0:0|0:0,0:0:0:0:
84,132,259214,2,0,P|156:140|192:132,1,100,2|0,0:0|0:0,0:0:0:0:
344,220,259669,2,0,P|272:228|236:220,1,100,2|0,0:0|0:0,0:0:0:0:
412,152,260123,2,0,P|440:208|424:272,1,100
344,324,260578,1,0,0:0:0:0:
180,256,260805,6,0,P|168:204|184:144,1,100,0|0,1:0|0:0,0:0:0:0:
216,80,261146,1,0,0:0:0:0:
216,80,261260,2,0,L|288:76,1,50,8|8,0:0|0:0,0:0:0:0:
352,148,261487,1,0,1:0:0:0:
352,148,261600,1,0,1:0:0:0:
352,148,261714,2,0,L|401:145,1,50,8|0,0:0|0:0,0:0:0:0:
284,236,261942,2,0,L|234:238,1,50,8|0,0:0|0:0,0:0:0:0:
364,308,262169,2,0,P|388:268|384:208,1,100
256,92,262623,6,0,P|188:100|140:84,1,100,0|0,1:0|0:0,0:0:0:0:
120,80,262964,2,0,P|84:72|48:76,1,50,8|0,0:0|0:0,0:0:0:0:
56,236,263192,1,8,0:0:0:0:
56,236,263305,2,0,P|92:244|128:240,1,50,0|0,1:0|1:0,0:0:0:0:
256,176,263532,1,8,0:0:0:0:
360,324,263760,1,8,0:0:0:0:
436,160,263987,2,0,P|424:112|440:56,1,100
256,32,264442,5,8,1:2:0:0:
172,192,264669,1,0,1:0:0:0:
160,220,264782,1,0,1:0:0:0:
148,248,264896,2,0,L|152:304,1,50,8|8,0:0|0:0,0:0:0:0:
44,168,265123,2,0,L|40:112,1,50,0|0,1:0|1:0,0:0:0:0:
92,348,265351,2,0,P|128:372|204:352,1,100,8|8,0:0|0:0,0:0:0:0:
256,272,265805,1,0,0:0:0:0:
256,272,266032,1,0,0:0:0:0:
420,348,266260,6,0,P|436:300|428:240,1,100,0|8,1:0|0:0,0:0:0:0:
344,280,266601,2,0,P|328:232|336:172,1,100,0|8,1:0|0:0,0:0:0:0:
256,136,266942,2,0,L|256:80,1,50,0|0,1:0|0:0,0:0:0:0:
179,183,267169,2,0,P|148:188|128:184,1,50,8|0,0:0|0:0,0:0:0:0:
344,280,267396,2,0,P|375:284|395:280,1,50,8|0,0:0|0:0,0:0:0:0:
476,244,267623,2,0,P|464:196|472:136,1,100
400,48,268078,6,0,P|348:56|284:40,1,100,8|0,1:2|0:0,0:0:0:0:
220,8,268419,1,8,0:0:0:0:
220,8,268532,2,0,L|156:16,1,50,0|8,1:0|0:0,0:0:0:0:
56,100,268760,2,0,L|120:108,1,50,0|0,1:0|0:0,0:0:0:0:
220,188,268987,2,0,P|240:236|228:296,1,100,8|8,0:0|0:0,0:0:0:0:
80,376,269442,1,8,0:0:0:0:
4,212,269669,1,8,0:0:0:0:
158,118,269896,5,8,0:0:0:0:
192,99,270009,1,8,0:0:0:0:
232,96,270123,1,8,0:0:0:0:
269,109,270236,1,8,0:0:0:0:
298,137,270350,1,8,0:0:0:0:
312,174,270464,1,8,0:0:0:0:
310,214,270577,1,8,0:0:0:0:
291,249,270691,1,8,0:0:0:0:
260,273,270805,5,8,0:0:0:0:
294,322,270918,1,8,0:0:0:0:
346,350,271032,1,8,0:0:0:0:
405,351,271145,1,8,0:0:0:0:
458,324,271259,1,8,0:0:0:0:
493,276,271373,1,8,0:0:0:0:
501,217,271486,1,8,0:0:0:0:
481,161,271600,1,8,0:0:0:0:
437,121,271714,6,8,L|456:100,6,25,8|8|8|8|8|8|8,1:2|0:0|0:0|0:0|0:0|0:0|0:0,0:0:0:0:
380,192,272169,6,0,L|399:213,6,25,8|8|8|8|8|8|8,1:2|0:0|0:0|0:0|0:0|0:0|0:0,0:0:0:0:
304,112,272623,6,0,L|323:91,6,25,8|8|8|8|8|8|8,1:2|0:0|0:0|0:0|0:0|0:0|0:0,0:0:0:0:
224,204,273078,6,8,L|243:225,6,25,8|8|8|8|8|8|8,1:2|0:0|0:0|1:2|0:0|0:0|0:0,0:0:0:0:
140,104,273532,6,0,P|104:152|104:176,1,75,2|2,0:0|0:0,0:0:0:0:
409,164,274214,2,0,P|399:129|372:104,1,75,2|2,0:0|0:0,0:0:0:0:
256,348,274896,5,8,0:0:0:0:
256,348,275351,5,4,1:0:0:0:
207,360,275464,1,0,0:0:0:0:
159,349,275578,2,0,P|120:336|88:308,1,59.9999981689454
28,136,275805,2,0,L|32:68,1,59.9999981689454,8|0,0:0|0:0,0:0:0:0:
160,188,276032,1,0,0:0:0:0:
196,220,276146,1,0,0:0:0:0:
244,232,276260,6,0,L|312:228,1,59.9999981689454,0|0,1:0|0:0,0:0:0:0:
476,144,276487,2,0,L|416:140,1,59.9999981689454
416,308,276714,2,0,L|484:304,1,59.9999981689454,8|0,0:0|0:0,0:0:0:0:
304,228,276942,1,0,0:0:0:0:
254,231,277055,1,0,0:0:0:0:
204,234,277169,6,0,L|112:228,1,59.9999981689454,4|0,1:0|0:0,0:0:0:0:
36,100,277396,2,0,P|32:72|40:32,1,59.9999981689454
60,208,277623,2,0,P|64:236|56:276,1,59.9999981689454,8|0,0:0|0:0,0:0:0:0:
144,120,277851,1,0,0:0:0:0:
193,114,277964,1,0,0:0:0:0:
243,108,278078,6,0,L|324:116,1,59.9999981689454,0|0,1:0|0:0,0:0:0:0:
452,192,278305,2,0,L|371:199,1,59.9999981689454
396,52,278532,2,0,L|388:132,1,59.9999981689454,8|0,0:0|0:0,0:0:0:0:
312,260,278759,2,0,L|304:179,1,59.9999981689454
256,352,278987,5,0,1:0:0:0:
208,340,279101,1,0,0:0:0:0:
160,328,279214,2,0,L|88:340,1,59.9999981689454
4,184,279442,5,8,0:0:0:0:
52,172,279556,1,0,0:0:0:0:
100,160,279669,2,0,L|172:172,1,59.9999981689454
228,124,279896,2,0,P|236:88|220:48,1,59.9999981689454,0|0,1:0|0:0,0:0:0:0:
312,260,280123,2,0,P|348:268|388:252,1,59.9999981689454
332,68,280351,2,0,P|316:136|352:188,1,119.999996337891,8|0,0:0|0:0,0:0:0:0:
191,336,280805,5,4,1:2:0:0:
144,348,280918,1,0,0:0:0:0:
97,332,281032,2,0,P|64:316|40:288,1,59.9999981689454
62,104,281260,1,8,0:0:0:0:
109,92,281373,1,0,0:0:0:0:
156,108,281487,2,0,P|189:124|213:152,1,59.9999981689454
232,316,281714,6,0,L|236:376,1,59.9999981689454,0|0,1:0|0:0,0:0:0:0:
332,200,281942,2,0,L|392:204,1,59.9999981689454
204,140,282169,2,0,L|84:147,1,119.999996337891,8|0,0:0|0:0,0:0:0:0:
32,196,282510,1,0,0:0:0:0:
32,196,282623,6,0,P|4:244|24:316,1,119.999996337891,0|0,1:0|0:0,0:0:0:0:
232,316,283078,2,0,L|292:320,1,59.9999981689454,8|0,0:0|0:0,0:0:0:0:
412,260,283305,1,0,0:0:0:0:
416,244,283419,1,0,0:0:0:0:
420,228,283532,6,0,L|416:160,1,59.9999981689454,0|0,1:0|0:0,0:0:0:0:
296,48,283760,2,0,L|292:107,1,59.9999981689454
192,196,283987,1,8,0:0:0:0:
164,220,284101,1,0,0:0:0:0:
136,244,284214,2,0,L|52:240,1,59.9999981689454
232,316,284442,5,4,1:2:0:0:
276,336,284556,1,0,0:0:0:0:
320,356,284669,2,0,L|404:352,1,59.9999981689454
484,220,284896,1,8,0:0:0:0:
440,200,285010,1,0,0:0:0:0:
396,180,285123,2,0,L|312:184,1,59.9999981689454
144,196,285351,5,0,1:0:0:0:
144,196,285464,1,0,0:0:0:0:
144,196,285578,2,0,L|228:200,1,59.9999981689454
280,320,285805,2,0,L|276:236,1,59.9999981689454,8|0,0:0|0:0,0:0:0:0:
264,68,286032,2,0,L|260:152,1,59.9999981689454
192,284,286260,5,4,1:2:0:0:
172,328,286373,1,0,0:0:0:0:
152,372,286487,2,0,L|84:380,1,59.9999981689454
0,224,286714,1,8,0:0:0:0:
20,180,286827,1,0,0:0:0:0:
40,136,286941,2,0,L|108:128,1,59.9999981689454
148,120,287169,6,0,P|188:108|216:84,1,59.9999981689454,0|0,1:0|0:0,0:0:0:0:
192,284,287396,2,0,L|200:344,1,59.9999981689454
328,208,287623,2,0,L|343:89,1,119.999996337891,8|0,0:0|0:0,0:0:0:0:
416,296,288078,5,4,1:2:0:0:
374,323,288191,1,0,0:0:0:0:
325,332,288305,2,0,L|248:328,1,59.9999981689454
125,179,288532,1,8,0:0:0:0:
167,206,288645,1,0,0:0:0:0:
216,216,288759,2,0,L|293:211,1,59.9999981689454
408,124,288987,6,0,L|288:116,1,119.999996337891,0|0,1:0|0:0,0:0:0:0:
216,112,289328,1,0,0:0:0:0:
216,112,289442,2,0,P|160:96|124:40,1,119.999996337891,8|0,0:0|0:0,0:0:0:0:
48,248,289896,5,4,1:2:0:0:
44,272,290010,1,0,0:0:0:0:
40,296,290123,2,0,L|48:360,1,59.9999981689454
216,256,290351,1,8,0:0:0:0:
262,237,290464,1,0,0:0:0:0:
311,238,290578,1,0,0:0:0:0:
356,259,290691,1,0,0:0:0:0:
390,296,290805,6,0,L|452:292,1,59.9999981689454,0|0,1:0|0:0,0:0:0:0:
256,372,291032,2,0,L|194:367,1,59.9999981689454
311,238,291260,2,0,P|336:184|308:120,1,119.999996337891,8|0,0:0|0:0,0:0:0:0:
228,68,291601,1,0,0:0:0:0:
204,76,291714,6,0,L|132:72,1,59.9999981689454,4|0,1:2|0:0,0:0:0:0:
0,184,291942,1,0,0:0:0:0:
24,192,292056,1,0,0:0:0:0:
48,200,292169,2,0,L|120:196,1,59.9999981689454,8|0,0:0|0:0,0:0:0:0:
208,304,292396,2,0,L|136:300,1,59.9999981689454
276,228,292623,6,0,P|312:288|304:340,1,119.999996337891,0|0,1:0|0:0,0:0:0:0:
408,256,292964,1,0,0:0:0:0:
424,240,293078,2,0,B|448:188|448:188|444:120,1,119.999996337891,8|0,0:0|0:0,0:0:0:0:
256,28,293532,5,4,1:2:0:0:
208,13,293645,1,0,0:0:0:0:
160,26,293759,1,0,0:0:0:0:
126,61,293872,1,0,0:0:0:0:
114,109,293987,2,0,L|120:184,1,59.9999981689454,8|0,0:0|0:0,0:0:0:0:
216,324,294214,2,0,L|220:264,1,59.9999981689454
280,92,294442,5,0,1:0:0:0:
306,50,294555,1,0,0:0:0:0:
350,26,294669,1,0,0:0:0:0:
399,26,294782,1,0,0:0:0:0:
443,50,294896,1,8,0:0:0:0:
469,92,295010,1,0,0:0:0:0:
473,141,295123,2,0,P|468:180|480:232,1,59.9999981689454
316,300,295351,5,0,1:0:0:0:
272,323,295464,1,0,0:0:0:0:
222,326,295578,1,0,0:0:0:0:
176,308,295691,1,0,0:0:0:0:
141,272,295805,1,8,0:0:0:0:
125,225,295919,1,0,0:0:0:0:
129,176,296032,1,0,0:0:0:0:
154,133,296146,1,0,0:0:0:0:
194,104,296260,6,0,L|256:96,1,59.9999981689454,0|0,1:0|0:0,0:0:0:0:
404,208,296487,2,0,L|342:199,1,59.9999981689454
464,300,296714,2,0,P|500:260|508:180,1,119.999996337891,8|0,0:0|0:0,0:0:0:0:
472,96,297055,1,0,0:0:0:0:
472,96,297169,6,0,L|353:78,1,119.999996337891,0|0,1:0|0:0,0:0:0:0:
172,196,297623,1,8,0:0:0:0:
364,296,297851,1,0,0:0:0:0:
364,296,297964,1,0,0:0:0:0:
364,296,298078,1,0,1:0:0:0:
152,332,298305,1,0,0:0:0:0:
308,176,298532,1,8,0:0:0:0:
96,124,298760,1,0,0:0:0:0:
96,124,298873,1,0,0:0:0:0:
96,124,298987,6,0,B|72:180|72:180|80:244,1,119.999996337891,4|0,1:2|0:0,0:0:0:0:
291,290,299442,2,0,B|315:234|315:234|308:176,1,119.999996337891,8|0,0:0|0:0,0:0:0:0:
284,72,299782,1,0,0:0:0:0:
284,72,299896,2,0,P|224:52|152:68,1,119.999996337891,0|0,1:0|0:0,0:0:0:0:
0,196,300351,1,8,0:0:0:0:
168,323,300578,1,0,0:0:0:0:
168,323,300692,1,0,0:0:0:0:
168,323,300805,6,0,P|227:331|284:312,1,119.999996337891,4|0,1:2|0:0,0:0:0:0:
212,108,301260,1,8,0:0:0:0:
388,232,301487,1,0,0:0:0:0:
388,232,301601,1,0,0:0:0:0:
388,232,301714,1,0,1:0:0:0:
172,236,301942,1,0,0:0:0:0:
344,108,302169,1,8,0:0:0:0:
283,312,302396,1,0,0:0:0:0:
283,312,302510,1,0,0:0:0:0:
283,312,302623,6,0,P|227:331|168:323,1,119.999996337891,4|0,1:2|0:0,0:0:0:0:
80,124,303078,1,8,0:0:0:0:
296,148,303305,1,0,0:0:0:0:
296,148,303419,1,0,0:0:0:0:
296,148,303532,2,0,P|356:156|440:144,1,119.999996337891,0|0,1:0|0:0,0:0:0:0:
224,52,303987,1,8,0:0:0:0:
191,89,304100,1,8,0:0:0:0:
177,137,304214,1,8,0:0:0:0:
184,186,304327,1,8,0:0:0:0:
210,228,304442,6,0,P|260:260|328:260,1,119.999996337891,12|0,1:2|0:0,0:0:0:0:
464,104,304896,2,0,P|414:72|346:72,1,119.999996337891,8|0,0:0|0:0,0:0:0:0:
444,268,305351,2,0,P|426:211|374:167,1,119.999996337891,8|0,0:0|0:0,0:0:0:0:
323,380,305805,1,8,0:0:0:0:
344,335,305918,1,8,0:0:0:0:
340,286,306032,1,8,0:0:0:0:
312,245,306145,1,8,0:0:0:0:
268,224,306260,6,0,B|208:216|208:216|140:228,1,119.999996337891,12|0,1:2|0:0,0:0:0:0:
0,68,306714,2,0,B|60:76|60:76|128:64,1,119.999996337891,8|0,0:0|0:0,0:0:0:0:
320,144,307169,2,0,B|260:152|260:152|192:140,1,119.999996337891,8|0,0:0|0:0,0:0:0:0:
12,244,307623,5,8,1:2:0:0:
15,293,307736,1,8,0:0:0:0:
42,334,307850,1,8,0:0:0:0:
86,357,307963,1,8,0:0:0:0:
135,357,308078,2,0,P|187:339|219:271,1,119.999996337891,12|8,1:2|0:0,0:0:0:0:
12,140,308532,5,8,0:0:0:0:
15,91,308645,1,8,0:0:0:0:
42,50,308759,1,8,0:0:0:0:
86,27,308872,1,8,0:0:0:0:
135,27,308987,2,0,P|187:44|219:112,1,119.999996337891,12|8,1:2|0:0,0:0:0:0:
256,348,309442,5,8,0:0:0:0:
303,363,309555,1,8,0:0:0:0:
353,367,309669,1,8,0:0:0:0:
402,362,309782,1,8,0:0:0:0:
450,346,309896,6,4,L|464:376,6,29.9999990844727,4|4|4|4|4|4|4,1:3|0:3|0:3|0:3|0:3|0:3|0:3,0:3:0:0:
484,244,310351,6,4,L|513:230,6,29.9999990844727,4|4|4|4|4|4|4,1:3|0:3|0:3|0:3|0:3|0:3|0:3,0:3:0:0:
381,210,310805,6,4,L|367:180,6,29.9999990844727,4|4|4|4|4|4|4,1:3|0:3|0:3|0:3|0:3|0:3|0:3,0:3:0:0:
347,313,311260,6,4,L|317:326,6,29.9999990844727,4|4|4|4|4|4|4,1:3|0:3|0:3|0:3|0:3|0:3|0:3,0:3:0:0:
416,280,311714,6,0,P|452:244|448:168,2,112.500004291535,4|2|0,1:0|0:0|0:0,0:0:0:0:
336,324,312623,1,8,0:0:0:0:
256,216,312851,1,2,0:0:0:0:
176,324,313078,1,2,0:0:0:0:
72,196,313305,1,2,0:0:0:0:
184,80,313532,6,0,L|272:88,1,75.0000028610231,0|0,1:0|0:0,0:0:0:0:
296,152,313873,2,0,L|370:158,1,75.0000028610231,0|0,1:0|0:0,0:0:0:0:
256,216,314214,1,0,1:0:0:0:
116,136,314442,2,0,P|96:100|100:52,1,75.0000028610231,8|0,0:0|0:0,0:0:0:0:
184,80,314896,1,2,0:0:0:0:
160,212,315123,1,2,0:0:0:0:
36,160,315351,6,0,P|24:220|48:284,2,112.500004291535,0|2|0,1:0|0:0|0:0,0:0:0:0:
160,212,316260,2,0,L|240:204,1,75.0000028610231,8|0,0:0|0:0,0:0:0:0:
368,100,316714,1,0,0:0:0:0:
356,236,316942,1,0,0:0:0:0:
256,84,317169,6,0,P|244:52|248:12,1,75.0000028610231,0|0,1:0|0:0,0:0:0:0:
368,100,317623,1,0,0:0:0:0:
356,236,317851,1,0,1:0:0:0:
352,272,317964,1,0,1:0:0:0:
348,308,318078,2,0,L|356:368,1,37.5000014305115,8|2,0:0|0:0,0:0:0:0:
256,252,318305,1,0,1:0:0:0:
256,252,318532,2,0,L|265:177,1,75.0000028610231,2|2,0:0|0:0,0:0:0:0:
120,72,318987,6,0,L|129:146,1,75.0000028610231,0|2,1:0|0:0,0:0:0:0:
80,212,319328,1,2,0:0:0:0:
80,212,319442,1,0,0:0:0:0:
144,332,319669,1,0,0:0:0:0:
256,252,319896,2,0,P|292:244|336:252,1,75.0000028610231,8|2,0:0|0:0,0:0:0:0:
448,316,320351,1,2,0:0:0:0:
448,180,320578,1,2,0:0:0:0:
340,360,320805,6,0,P|303:365|266:357,1,75.0000028610231,0|0,1:0|0:0,0:0:0:0:
256,252,321146,2,0,P|219:257|182:249,1,75.0000028610231,0|0,1:0|0:0,0:0:0:0:
172,144,321487,1,0,1:0:0:0:
316,36,321714,2,0,P|356:40|400:36,1,75.0000028610231,8|0,0:0|0:0,0:0:0:0:
504,116,322169,1,2,0:0:0:0:
392,192,322396,1,2,0:0:0:0:
504,268,322623,6,0,L|496:356,1,75.0000028610231,0|0,1:0|0:0,0:0:0:0:
464,376,322964,2,0,P|424:384|372:364,1,75.0000028610231,2|0,0:0|0:0,0:0:0:0:
352,356,323305,1,2,0:0:0:0:
392,192,323532,2,0,P|400:152|376:96,1,75.0000028610231,8|0,0:0|0:0,0:0:0:0:
344,44,323987,1,2,0:0:0:0:
256,148,324214,1,2,0:0:0:0:
168,44,324442,5,0,1:0:0:0:
64,192,324669,1,2,0:0:0:0:
168,340,324896,1,2,0:0:0:0:
256,236,325123,1,0,1:0:0:0:
292,240,325237,1,0,1:0:0:0:
328,244,325351,2,0,L|428:236,1,75.0000028610231,8|0,0:0|1:0,0:0:0:0:
512,156,325805,1,2,0:0:0:0:
388,100,326032,1,2,0:0:0:0:
416,368,326260,5,2,0:0:0:0:
256,192,326373,12,0,329726,0:0:0:0:
