osu file format v13

[General]
AudioFilename: Daoko&Teddyloid - ME!ME!ME.mp3
AudioLeadIn: 0
PreviewTime: -1
Countdown: 0
SampleSet: Soft
StackLeniency: 0.7
Mode: 0
LetterboxInBreaks: 0
WidescreenStoryboard: 0

[Editor]
Bookmarks: 35155,206696,219714,272420,299693
DistanceSpacing: 0.9
BeatDivisor: 4
GridSize: 16
TimelineZoom: 3.199999

[Metadata]
Title:ME!ME!ME
TitleUnicode:ME!ME!ME
Artist:TeddyLoid & daoko
ArtistUnicode:TeddyLoid & daoko
Creator:azer467
Version:Aze
Source:
Tags:teddyloid me!me!me daoko
BeatmapID:596975
BeatmapSetID:261475

[Difficulty]
HPDrainRate:6
CircleSize:4.5
OverallDifficulty:4
ApproachRate:8.5
SliderMultiplier:2.2
SliderTickRate:1

[Events]
//Background and Video events
0,0,"background.jpg",0,0
//Break Periods
2,54140,60945
2,92420,95344
2,154759,159384
2,170926,176426
2,249325,262271
//Storyboard Layer 0 (Background)
//Storyboard Layer 1 (Fail)
//Storyboard Layer 2 (Pass)
//Storyboard Layer 3 (Foreground)
//Storyboard Sound Samples

[TimingPoints]
21300,480,4,2,0,100,1,0
21300,-100,4,1,0,100,0,0
61620,-100,4,3,0,100,0,0
68733,-50,4,3,0,100,0,0
69300,-100,4,3,0,100,0,0
86020,-50,4,3,0,100,0,0
86460,-100,4,3,0,100,0,0
87940,-50,4,3,0,100,0,0
88460,-100,4,3,0,100,0,0
89860,-50,4,3,0,100,0,0
90420,-100,4,2,0,100,0,0
96060,666.666666666669,4,2,0,100,1,0
128018,1333.33333333333,4,1,0,50,1,0
128018,-200,4,2,0,5,0,0
147184,-100,4,2,0,100,0,0
149101,666.666666666667,4,2,0,100,1,0
178767,1333.33333333333,4,1,0,100,1,0
178867,-200,4,1,0,100,0,0
191511,-100,4,3,0,100,0,0
192500,428.571428571429,4,3,0,100,1,1
192546,-100,4,3,0,100,0,1
219821,-100,4,1,0,100,0,0
249125,454.545454545455,4,2,0,100,1,0
278215,-100,4,1,0,100,0,1
300034,-200,4,2,0,100,0,0
300943,-100,4,2,0,100,0,0
301852,-200,4,2,0,100,0,0
303443,-100,4,2,0,100,0,0
306738,-100,4,3,0,100,0,0
314579,909.090909090909,4,2,0,100,1,0
314579,-200,4,2,0,100,0,0
317306,-100,4,2,0,100,0,0
318215,-200,4,2,0,100,0,0

[HitObjects]
256,192,21300,5,8,0:0:0:0:
136,76,22260,1,0,0:0:0:0:
160,76,22380,1,0,0:0:0:0:
236,76,22620,2,0,L|292:76|292:76,3,50,0|0|0|0,0:0|0:0|0:0|0:0,0:0:0:0:
68,320,23220,6,0,L|168:280,1,100,0|0,0:0|0:0,0:0:0:0:
208,316,23700,1,0,0:0:0:0:
128,176,23940,1,0,0:0:0:0:
268,112,24180,1,0,0:0:0:0:
444,192,24420,1,0,0:0:0:0:
344,104,24660,1,0,0:0:0:0:
328,132,24780,1,0,0:0:0:0:
316,164,24900,6,0,P|292:196|216:268,1,100,0|0,0:0|0:0,0:0:0:0:
128,208,25380,1,0,0:0:0:0:
60,92,25620,1,0,0:0:0:0:
192,60,25860,1,0,0:0:0:0:
284,200,26100,1,0,0:0:0:0:
356,44,26340,1,0,0:0:0:0:
376,72,26460,1,0,0:0:0:0:
400,108,26580,2,0,L|440:208,1,100
368,220,27060,5,0,0:0:0:0:
312,236,27300,1,0,0:0:0:0:
248,248,27540,1,0,0:0:0:0:
248,248,27780,1,0,0:0:0:0:
128,188,28020,1,0,0:0:0:0:
4,280,28260,5,0,0:0:0:0:
44,92,28500,1,0,0:0:0:0:
168,104,28740,1,0,0:0:0:0:
152,152,28860,1,0,0:0:0:0:
176,188,28980,2,0,L|264:116,1,100
288,96,29460,1,0,0:0:0:0:
260,208,29700,1,0,0:0:0:0:
412,164,29940,2,0,P|432:204|416:268,1,110
268,316,30420,1,0,0:0:0:0:
240,88,30660,1,0,0:0:0:0:
48,80,30900,5,0,0:0:0:0:
128,192,31140,1,0,0:0:0:0:
192,64,31380,1,0,0:0:0:0:
192,64,31620,1,0,0:0:0:0:
192,64,31860,2,0,P|192:160|100:260,1,200
256,144,32580,5,0,0:0:0:0:
240,224,32820,1,0,0:0:0:0:
320,208,33060,1,0,0:0:0:0:
384,176,33300,1,0,0:0:0:0:
136,296,33540,1,0,0:0:0:0:
272,156,33780,1,0,0:0:0:0:
208,256,34020,5,0,0:0:0:0:
224,48,34260,1,0,0:0:0:0:
384,176,34500,1,0,0:0:0:0:
272,152,34740,1,0,0:0:0:0:
352,160,34980,5,0,0:0:0:0:
236,84,35220,1,0,0:0:0:0:
232,224,35460,1,0,0:0:0:0:
64,200,35700,1,0,0:0:0:0:
72,96,35940,6,0,B|88:120|168:112|168:116,1,100
236,108,36420,1,0,0:0:0:0:
368,224,36660,1,0,0:0:0:0:
408,88,36900,2,0,P|376:108|300:108,1,100
172,56,37380,2,0,P|224:44|248:40,3,50,0|0|0|0,0:0|0:0|0:0|0:0,0:0:0:0:
272,48,37860,5,0,0:0:0:0:
296,72,37980,1,0,0:0:0:0:
320,92,38100,1,0,0:0:0:0:
344,148,38340,2,0,B|376:224|376:224|224:264,1,233.75
124,288,39060,1,0,0:0:0:0:
260,252,39300,1,0,0:0:0:0:
388,296,39540,1,0,0:0:0:0:
268,188,39780,5,0,0:0:0:0:
248,172,39900,1,0,0:0:0:0:
220,152,40020,1,0,0:0:0:0:
196,120,40260,2,0,B|228:48|228:48|356:76|356:76,1,206.25,0|0,0:0|0:0,0:0:0:0:
396,88,40980,1,0,0:0:0:0:
232,140,41220,1,0,0:0:0:0:
148,264,41460,1,0,0:0:0:0:
112,160,41700,5,0,0:0:0:0:
128,144,41820,1,0,0:0:0:0:
148,120,41940,1,0,0:0:0:0:
224,64,42180,2,0,B|336:64|356:100|396:180,1,220
296,240,42900,1,0,0:0:0:0:
148,104,43140,1,0,0:0:0:0:
32,240,43380,1,0,0:0:0:0:
200,196,43620,1,0,0:0:0:0:
308,96,43860,1,0,0:0:0:0:
360,248,44100,5,0,0:0:0:0:
468,104,44340,1,0,0:0:0:0:
212,136,44580,1,0,0:0:0:0:
176,264,44820,1,0,0:0:0:0:
388,104,45060,1,0,0:0:0:0:
376,268,45300,1,0,0:0:0:0:
104,184,45540,5,0,0:0:0:0:
124,160,45660,1,0,0:0:0:0:
136,136,45780,1,0,0:0:0:0:
160,88,46020,2,0,B|224:48|268:60|288:84|368:48,1,206.25
432,172,46740,1,0,0:0:0:0:
236,228,46980,1,0,0:0:0:0:
412,304,47220,1,0,0:0:0:0:
344,176,47460,6,0,L|404:176,2,50,0|0|0,0:0|0:0|0:0,0:0:0:0:
432,328,47940,1,0,0:0:0:0:
244,296,48180,1,0,0:0:0:0:
80,148,48420,1,0,0:0:0:0:
320,176,48660,1,0,0:0:0:0:
136,208,48900,1,0,0:0:0:0:
320,176,49140,1,0,0:0:0:0:
80,112,49380,6,0,L|116:76,2,50,0|0|0,0:0|0:0|0:0,0:0:0:0:
196,80,49860,2,0,B|252:64|344:96|440:68,1,233.75,0|0,0:0|0:0,0:0:0:0:
288,32,50580,1,0,0:0:0:0:
188,176,50820,1,0,0:0:0:0:
288,32,51060,1,0,0:0:0:0:
240,244,51300,1,0,0:0:0:0:
92,232,51540,1,0,0:0:0:0:
192,80,51780,1,0,0:0:0:0:
364,112,52260,2,0,B|424:168|404:152,2,50,0|0|0,0:0|0:0|0:0,0:0:0:0:
256,324,52980,6,0,B|180:248|304:248|196:120|172:96|240:28,1,300
368,184,53940,1,0,0:0:0:0:
84,256,61620,6,0,L|56:188,3,50,0|0|0|0,0:0|0:0|0:0|0:0,0:0:0:0:
64,136,62100,6,0,L|80:64,3,50,0|0|0|0,0:0|0:0|0:0|0:0,0:0:0:0:
144,80,62580,5,0,0:0:0:0:
208,84,62700,1,0,0:0:0:0:
264,116,62820,1,0,0:0:0:0:
300,160,62940,1,0,0:0:0:0:
308,216,63060,1,0,0:0:0:0:
324,272,63180,1,0,0:0:0:0:
376,296,63300,1,0,0:0:0:0:
432,296,63420,1,0,0:0:0:0:
492,252,63540,6,0,B|476:204|476:204,3,50,0|0|0|0,0:0|0:0|0:0|0:0,0:0:0:0:
436,144,64020,2,0,L|416:96,3,50,0|0|0|0,0:0|0:0|0:0|0:0,0:0:0:0:
320,76,64500,2,0,B|256:120|268:112,1,50
212,64,64740,2,0,L|248:108,1,50
204,184,64980,2,0,B|260:136|240:152,1,50
324,192,65220,2,0,L|272:140,1,50
196,56,65460,2,0,L|144:88,3,50,0|0|0|0,0:0|0:0|0:0|0:0,0:0:0:0:
120,120,65940,2,0,P|88:164|64:196,3,50,0|0|0|0,0:0|0:0|0:0|0:0,0:0:0:0:
104,220,66420,2,0,L|156:244,3,50,0|0|0|0,0:0|0:0|0:0|0:0,0:0:0:0:
184,280,66900,2,0,L|256:272,3,50,0|0|0|0,0:0|0:0|0:0|0:0,0:0:0:0:
272,280,67380,5,0,0:0:0:0:
180,192,67620,1,0,0:0:0:0:
256,80,67860,1,0,0:0:0:0:
356,112,68100,1,0,0:0:0:0:
372,228,68340,1,0,0:0:0:0:
152,96,68820,2,0,B|212:88|300:128|336:160,1,200
448,76,69300,6,0,P|444:136|432:140,3,50,0|0|0|0,0:0|0:0|0:0|0:0,0:0:0:0:
460,172,69780,2,0,P|460:224|468:228,3,50,0|0|0|0,0:0|0:0|0:0|0:0,0:0:0:0:
388,296,70260,2,0,L|392:244,1,50,0|0,0:0|0:0,0:0:0:0:
348,296,70500,2,0,L|352:232,1,50
304,292,70740,2,0,L|308:240,1,50
260,288,70980,2,0,L|268:224,1,50
220,284,71220,6,0,L|228:228,3,50,0|0|0|0,0:0|0:0|0:0|0:0,0:0:0:0:
216,192,71700,2,0,L|196:144,3,50,0|0|0|0,0:0|0:0|0:0|0:0,0:0:0:0:
240,72,72180,2,0,L|284:108,1,50
396,68,72420,2,0,L|352:112,1,50
228,120,72660,2,0,L|288:168,1,50,0|0,0:0|0:0,0:0:0:0:
420,112,72900,2,0,L|368:152,1,50
336,40,73140,6,0,L|288:140,1,110,0|0,0:0|0:0,0:0:0:0:
228,180,73620,2,0,L|356:200,1,100
404,160,74100,2,0,L|276:120,1,100
76,180,74580,2,0,L|192:120,1,100
416,64,75060,2,0,B|272:80|228:224|108:180,1,300
112,208,76020,6,0,P|64:168|60:168,3,50,0|0|0|0,0:0|0:0|0:0|0:0,0:0:0:0:
72,132,76500,2,0,P|108:92|112:96,3,50,0|0|0|0,0:0|0:0|0:0|0:0,0:0:0:0:
256,192,76980,6,0,L|216:92,1,100
388,92,77460,5,0,0:0:0:0:
364,56,77620,1,0,0:0:0:0:
332,20,77780,1,0,0:0:0:0:
324,128,77940,5,0,0:0:0:0:
296,88,78100,1,0,0:0:0:0:
272,48,78260,1,0,0:0:0:0:
204,76,78420,5,0,0:0:0:0:
232,120,78580,1,0,0:0:0:0:
256,164,78740,1,0,0:0:0:0:
368,184,78900,2,0,P|304:240|292:244,1,96.25
104,172,79380,5,0,0:0:0:0:
140,208,79540,1,0,0:0:0:0:
176,236,79700,1,0,0:0:0:0:
384,188,79860,5,0,0:0:0:0:
340,220,80020,1,0,0:0:0:0:
296,240,80180,1,0,0:0:0:0:
308,120,80340,5,0,0:0:0:0:
264,160,80500,1,0,0:0:0:0:
224,120,80660,1,0,0:0:0:0:
200,192,80820,6,0,P|168:192|104:200,1,96.25
148,96,81300,2,0,L|228:104,1,66.6666666666667
252,108,81620,1,0,0:0:0:0:
392,76,81780,2,0,L|328:108,1,66.6666666666667
288,108,82100,1,0,0:0:0:0:
244,176,82260,2,0,L|320:204,1,66.6666666666667
360,212,82580,1,0,0:0:0:0:
308,224,82740,6,0,P|220:232|124:180,1,200
384,112,83700,2,0,P|296:120|200:68,1,200
412,132,84660,2,0,B|308:116|320:120,1,96.25
248,88,85140,5,0,0:0:0:0:
196,104,85300,1,0,0:0:0:0:
148,128,85460,1,0,0:0:0:0:
124,164,85620,1,0,0:0:0:0:
116,212,85780,1,0,0:0:0:0:
140,260,85940,1,0,0:0:0:0:
216,272,86100,2,0,L|248:256,9,33.3333333333333,0|0|0|0|0|0|0|0|0|0,0:0|0:0|0:0|0:0|0:0|0:0|0:0|0:0|0:0|0:0,0:0:0:0:
296,248,86580,6,0,P|356:240|376:208,1,100
412,168,87060,2,0,L|360:116,1,66.6666666666667
364,120,87380,1,0,0:0:0:0:
384,196,87540,2,0,L|328:144,1,66.6666666666667
335,150,87860,1,0,0:0:0:0:
296,124,88020,2,0,L|260:108,9,33.3333333333333,0|0|0|0|0|0|0|0|0|0,0:0|0:0|0:0|0:0|0:0|0:0|0:0|0:0|0:0|0:0,0:0:0:0:
408,216,88500,6,0,P|336:228|308:220,1,100
196,180,88980,1,0,0:0:0:0:
188,128,89140,1,0,0:0:0:0:
180,80,89300,1,0,0:0:0:0:
124,84,89460,1,0,0:0:0:0:
128,136,89620,1,0,0:0:0:0:
136,188,89780,1,0,0:0:0:0:
152,240,89940,2,0,L|200:232,10,33.3333333333333,0|0|0|0|0|0|0|0|0|0|0,0:0|0:0|0:0|0:0|0:0|0:0|0:0|0:0|0:0|0:0|0:0,0:0:0:0:
92,248,90420,6,0,P|56:208|48:152,1,100,0|0,0:0|0:0,0:0:0:0:
124,124,90900,1,0,0:0:0:0:
152,80,91060,1,0,0:0:0:0:
196,52,91220,1,0,0:0:0:0:
244,48,91380,1,0,0:0:0:0:
292,64,91540,1,0,0:0:0:0:
332,100,91700,1,0,0:0:0:0:
356,184,91950,1,0,0:0:0:0:
364,208,92040,1,0,0:0:0:0:
372,232,92130,1,0,0:0:0:0:
380,256,92220,1,0,0:0:0:0:
108,132,96019,5,0,0:0:0:0:
200,56,96241,1,0,0:0:0:0:
224,152,96463,2,0,L|320:144,1,75
364,96,96893,2,0,L|444:104,1,55
508,148,97226,1,0,0:0:0:0:
508,148,97393,1,0,0:0:0:0:
508,148,97560,2,0,L|432:232,1,100
464,120,98060,2,0,L|396:196,1,100
292,144,98560,1,0,0:0:0:0:
268,212,98726,1,0,0:0:0:0:
224,136,98893,6,0,L|188:200,1,50
136,124,99226,1,0,0:0:0:0:
124,48,99393,1,0,0:0:0:0:
188,72,99560,1,0,0:0:0:0:
256,68,99726,2,0,L|328:80,1,50
364,136,100060,1,0,0:0:0:0:
248,108,100226,1,0,0:0:0:0:
364,88,100393,1,0,0:0:0:0:
248,152,100560,1,0,0:0:0:0:
324,60,100726,1,0,0:0:0:0:
316,176,100893,1,0,0:0:0:0:
144,120,101060,2,0,L|184:88,1,50,0|0,0:0|0:0,0:0:0:0:
252,128,101393,6,0,P|280:140|292:168,1,50
280,176,101726,1,0,0:0:0:0:
280,176,101893,1,0,0:0:0:0:
276,176,102060,2,0,L|324:160,1,50
388,128,102393,2,0,L|344:156,1,50
168,248,102726,2,0,L|212:224,1,50
168,96,103060,2,0,L|216:128,1,50
376,240,103393,2,0,L|320:208,1,50
256,168,103726,5,0,0:0:0:0:
248,160,103810,1,0,0:0:0:0:
240,152,103893,1,0,0:0:0:0:
188,108,104060,2,0,L|132:132,1,50
116,192,104393,2,0,B|144:256|136:240,1,50
196,264,104726,2,0,L|256:240,1,50
276,192,105060,2,0,L|244:136,1,50
176,72,105393,2,0,L|108:96,1,50
76,200,105726,2,0,L|104:268,1,50
204,304,106060,2,0,L|260:276,1,50
300,188,106393,5,0,0:0:0:0:
288,168,106476,1,0,0:0:0:0:
280,148,106560,1,0,0:0:0:0:
272,128,106643,1,0,0:0:0:0:
264,108,106726,1,0,0:0:0:0:
144,80,107060,1,0,0:0:0:0:
244,220,107226,1,0,0:0:0:0:
328,92,107393,1,0,0:0:0:0:
404,124,107560,2,0,L|424:192,1,50,0|0,0:0|0:0,0:0:0:0:
376,268,107893,5,0,0:0:0:0:
312,200,108060,1,0,0:0:0:0:
436,328,108226,1,0,0:0:0:0:
288,320,108393,1,0,0:0:0:0:
320,192,108560,1,0,0:0:0:0:
288,132,108726,2,0,L|232:104,1,50
180,96,109060,5,0,0:0:0:0:
120,124,109226,1,0,0:0:0:0:
76,168,109393,1,0,0:0:0:0:
64,228,109560,1,0,0:0:0:0:
96,288,109726,1,0,0:0:0:0:
256,192,110060,5,0,0:0:0:0:
256,192,110726,1,0,0:0:0:0:
268,140,111393,6,0,L|320:120,1,50
380,128,111726,2,0,L|436:144,2,50,0|0|0,0:0|0:0|0:0,0:0:0:0:
308,92,112226,1,0,0:0:0:0:
280,80,112310,1,0,0:0:0:0:
256,72,112393,1,0,0:0:0:0:
48,88,112560,6,0,L|4:144,1,55
216,56,112893,2,0,L|268:80,1,50
384,76,113226,2,0,L|436:112,1,50
432,200,113560,2,0,P|400:208|388:236,1,50
112,200,113893,2,0,P|140:200|160:224,1,50
56,84,114226,2,0,P|76:96|104:108,1,50
416,220,114560,5,0,0:0:0:0:
396,188,114726,1,0,0:0:0:0:
164,216,114893,1,0,0:0:0:0:
164,216,115060,1,0,0:0:0:0:
264,240,115226,1,0,0:0:0:0:
264,240,115393,1,0,0:0:0:0:
348,144,115560,1,0,0:0:0:0:
344,144,115726,1,0,0:0:0:0:
216,96,115893,1,0,0:0:0:0:
216,96,116060,1,0,0:0:0:0:
428,132,116226,1,0,0:0:0:0:
428,132,116393,1,0,0:0:0:0:
312,112,116726,5,0,0:0:0:0:
312,148,116810,1,0,0:0:0:0:
312,176,116893,1,0,0:0:0:0:
308,200,116976,1,0,0:0:0:0:
304,232,117060,1,0,0:0:0:0:
292,256,117143,1,0,0:0:0:0:
280,280,117226,1,0,0:0:0:0:
260,300,117310,1,0,0:0:0:0:
232,316,117393,1,0,0:0:0:0:
104,272,117560,6,0,L|116:216,1,55
136,200,117893,2,0,L|152:148,1,50
180,128,118226,2,0,L|220:88,2,50,0|0|0,0:0|0:0|0:0,0:0:0:0:
276,68,118726,2,0,L|328:92,1,50,0|0,0:0|0:0,0:0:0:0:
388,212,119060,2,0,L|344:248,1,50
256,192,119393,1,0,0:0:0:0:
196,152,119560,1,0,0:0:0:0:
164,136,119643,1,0,0:0:0:0:
136,124,119726,1,0,0:0:0:0:
32,156,120060,6,0,L|56:208,1,50,0|0,0:0|0:0,0:0:0:0:
148,240,120393,2,0,L|204:240,1,50
236,248,120726,2,0,L|288:260,1,50
328,272,121060,2,0,L|384:268,1,50
428,196,121393,1,0,0:0:0:0:
388,144,121560,1,0,0:0:0:0:
336,104,121726,1,0,0:0:0:0:
280,80,121893,1,0,0:0:0:0:
224,64,122060,1,0,0:0:0:0:
168,60,122226,1,0,0:0:0:0:
120,72,122393,1,0,0:0:0:0:
68,88,122560,1,0,0:0:0:0:
32,128,122726,1,0,0:0:0:0:
112,200,122893,6,0,L|176:200,1,50
112,188,123226,2,0,L|112:136,1,50
104,200,123560,2,0,L|48:200,1,50
112,216,123893,2,0,L|112:268,1,50
180,180,124226,5,0,0:0:0:0:
244,144,124393,2,0,L|300:108,1,50
352,92,124726,1,0,0:0:0:0:
436,116,124893,1,0,0:0:0:0:
420,224,125060,1,0,0:0:0:0:
400,256,125143,1,0,0:0:0:0:
368,256,125226,1,0,0:0:0:0:
376,168,125393,6,0,L|312:168,1,50,0|0,0:0|0:0,0:0:0:0:
256,52,125726,2,0,L|256:120,1,50
104,184,126060,2,0,L|168:184,1,50
256,304,126393,2,0,L|256:248,1,50
168,96,126726,2,0,L|212:136,1,50
352,84,127060,2,0,L|312:124,1,50
376,168,127393,5,0,0:0:0:0:
360,200,127476,1,0,0:0:0:0:
336,224,127560,1,0,0:0:0:0:
320,248,127643,1,0,0:0:0:0:
296,272,127726,1,0,0:0:0:0:
280,288,127810,1,0,0:0:0:0:
248,296,127893,1,0,0:0:0:0:
220,300,127976,1,0,0:0:0:0:
176,296,128060,6,14,P|128:276|136:152,1,187.5,0|0,0:0|0:0,0:0:0:0:
168,132,130684,2,0,L|264:144,1,87.5
260,184,132018,2,0,L|168:176,1,87.5
148,176,133351,2,0,P|76:156|104:232,1,187.5
248,280,136018,2,0,P|288:280|296:236,1,87.5
288,128,137517,2,0,P|272:112|216:128,1,82.5
168,160,138768,2,0,P|124:192|168:296,1,187.5
208,292,141434,2,0,L|296:272,1,87.5
324,244,142767,2,0,L|376:172,1,87.5
352,136,144101,2,0,B|344:68|280:56|272:136|208:88|172:60,1,220
256,192,147351,12,0,148351,0:0:0:0:
320,116,148684,6,0,L|296:100,1,25
176,56,149226,1,0,0:0:0:0:
160,72,149393,1,0,0:0:0:0:
144,96,149559,1,0,0:0:0:0:
136,152,149726,2,0,L|104:196,2,50,0|0|0,0:0|0:0|0:0,0:0:0:0:
224,192,150226,2,0,L|276:184,1,50
328,156,150559,1,0,0:0:0:0:
296,96,150726,1,0,0:0:0:0:
360,76,150892,2,0,L|408:88,1,50
440,168,151226,6,0,L|424:216,1,50
368,268,151559,2,0,L|308:288,1,50
224,272,151892,2,0,L|176:248,1,50
132,200,152226,1,0,0:0:0:0:
132,200,152392,1,0,0:0:0:0:
144,124,152559,1,0,0:0:0:0:
144,124,152726,1,0,0:0:0:0:
196,68,152892,2,0,L|248:68,1,50
332,88,153226,2,0,L|376:116,1,50
416,188,153559,5,0,0:0:0:0:
388,236,153726,1,0,0:0:0:0:
348,268,153892,1,0,0:0:0:0:
304,288,154059,1,0,0:0:0:0:
232,280,154226,2,0,P|200:256|192:240,2,50,0|0|0,0:0|0:0|0:0,0:0:0:0:
228,176,160059,5,0,0:0:0:0:
244,116,160226,1,0,0:0:0:0:
288,80,160392,1,0,0:0:0:0:
340,68,160559,1,0,0:0:0:0:
392,88,160726,1,0,0:0:0:0:
480,148,160892,2,0,L|444:184,1,50
336,152,161226,2,0,L|380:184,1,50
504,200,161559,2,0,L|460:232,1,50
312,208,161892,2,0,L|364:236,1,50
416,284,162226,2,0,L|464:304,2,50,0|0|0,0:0|0:0|0:0,0:0:0:0:
332,280,162726,6,0,L|280:280,1,50
176,232,163059,2,0,L|136:200,1,50
108,76,163392,2,0,L|160:60,1,50
296,80,163726,2,0,L|344:96,1,50
416,196,164059,2,0,L|360:208,1,50
228,196,164392,2,0,L|176:188,1,50
52,200,164726,2,0,L|68:248,1,50
244,284,165059,2,0,L|296:288,1,50
328,188,165392,5,0,0:0:0:0:
328,188,165559,1,0,0:0:0:0:
284,116,165726,2,0,L|232:100,1,50
160,84,166059,1,0,0:0:0:0:
172,160,166226,1,0,0:0:0:0:
100,164,166392,2,0,L|76:208,1,50
128,292,166726,5,0,0:0:0:0:
172,232,166892,1,0,0:0:0:0:
224,280,167059,2,0,L|280:276,1,55
392,208,167392,1,0,0:0:0:0:
376,136,167559,1,0,0:0:0:0:
320,88,167726,1,0,0:0:0:0:
252,80,167892,2,0,P|228:68|204:72,1,50
132,88,168226,5,0,0:0:0:0:
184,132,168392,1,0,0:0:0:0:
116,164,168559,2,0,L|128:216,1,50
200,232,168892,1,0,0:0:0:0:
200,232,169059,1,0,0:0:0:0:
264,224,169226,2,0,L|316:228,2,50,0|0|0,0:0|0:0|0:0,0:0:0:0:
208,180,169726,1,0,0:0:0:0:
208,180,169892,1,0,0:0:0:0:
208,180,170059,1,0,0:0:0:0:
408,268,170726,1,0,0:0:0:0:
256,192,177101,12,0,178684,0:0:0:0:
256,108,178767,6,0,B|196:96|148:180|116:24|48:80,1,225
72,128,180517,2,0,P|60:156|80:164,1,56.25
120,184,181350,2,0,L|168:176,1,43.75
200,176,182017,2,0,L|356:184,1,156.25,0|0,0:0|0:0,0:0:0:0:
316,132,184767,5,0,0:0:0:0:
336,172,184878,1,0,0:0:0:0:
336,212,184989,1,0,0:0:0:0:
308,252,185100,1,0,0:0:0:0:
264,272,185211,1,0,0:0:0:0:
228,272,185322,1,0,0:0:0:0:
192,264,185433,1,0,0:0:0:0:
140,240,185600,2,0,P|84:204|140:120,1,187.5
168,120,188183,2,0,L|216:112,1,43.75
256,112,188850,2,0,L|396:124,1,137.5
280,96,191600,5,0,0:0:0:0:
248,132,191766,1,0,0:0:0:0:
180,248,191933,1,0,0:0:0:0:
328,320,192183,1,0,0:0:0:0:
328,320,192266,1,0,0:0:0:0:
328,320,192350,1,0,0:0:0:0:
328,320,192433,1,0,0:0:0:0:
328,320,192526,6,0,P|272:320|252:260,1,123.75
252,232,192848,2,0,L|256:120,1,110
168,64,193169,1,0,0:0:0:0:
168,64,193250,1,0,0:0:0:0:
168,64,193330,2,0,L|168:124,1,55
200,124,193491,2,0,L|284:120,1,82.5
328,120,193758,2,0,L|408:152,1,82.5,0|0,0:0|0:0,0:0:0:0:
380,92,194000,2,0,L|432:56,1,55,0|0,0:0|0:0,0:0:0:0:
488,92,194241,6,0,L|444:124,1,55,0|0,0:0|0:0,0:0:0:0:
320,92,194455,2,0,L|372:128,1,55,0|0,0:0|0:0,0:0:0:0:
488,92,194669,2,0,L|432:140,1,68.75,0|0,0:0|0:0,0:0:0:0:
420,176,194883,1,0,0:0:0:0:
420,176,194964,2,0,L|416:248,1,68.75
392,252,195178,2,0,L|320:256,1,68.75
200,224,195473,1,0,0:0:0:0:
268,80,195714,1,0,0:0:0:0:
104,100,195928,5,0,0:0:0:0:
104,120,196008,1,0,0:0:0:0:
108,152,196089,2,0,P|112:228|160:260,1,137.5
204,176,196544,1,0,0:0:0:0:
336,184,196758,1,0,0:0:0:0:
328,280,196973,1,0,0:0:0:0:
216,172,197214,2,0,L|200:128,4,41.25,0|0|0|0|0,0:0|0:0|0:0|0:0|0:0,0:0:0:0:
276,68,197642,1,0,0:0:0:0:
400,124,197830,1,0,0:0:0:0:
352,228,198071,5,0,0:0:0:0:
344,220,198178,1,0,0:0:0:0:
336,216,198285,1,0,0:0:0:0:
260,144,198500,2,0,L|164:132,1,96.25
144,160,198821,1,0,0:0:0:0:
144,160,198928,2,0,L|88:188,1,55
80,196,199089,2,0,P|96:236|176:292,1,137.5
196,296,199437,5,0,0:0:0:0:
224,300,199544,1,0,0:0:0:0:
256,304,199651,1,0,0:0:0:0:
284,304,199758,1,0,0:0:0:0:
320,300,199866,1,0,0:0:0:0:
356,280,199973,1,0,0:0:0:0:
384,248,200080,1,0,0:0:0:0:
400,212,200187,2,0,L|404:180,7,27.5,0|0|0|0|0|0|0|0,0:0|0:0|0:0|0:0|0:0|0:0|0:0|0:0,0:0:0:0:
364,136,200642,2,0,L|316:100,4,55,0|0|0|0|0,0:0|0:0|0:0|0:0|0:0,0:0:0:0:
272,88,201178,5,0,0:0:0:0:
236,88,201259,1,0,0:0:0:0:
204,96,201339,1,0,0:0:0:0:
168,116,201419,1,0,0:0:0:0:
144,148,201500,1,0,0:0:0:0:
224,216,201687,2,0,L|264:268,1,55
100,196,201928,1,0,0:0:0:0:
280,116,202142,2,0,B|312:72|340:96|308:144|344:128|368:128,1,110
424,232,202517,1,0,0:0:0:0:
332,264,202785,2,0,B|276:296|280:216|188:216|184:328|80:316|72:256,1,288.75
88,156,203616,1,0,0:0:0:0:
148,64,203831,1,0,0:0:0:0:
264,88,204044,5,0,0:0:0:0:
284,88,204152,1,0,0:0:0:0:
304,88,204259,1,0,0:0:0:0:
320,88,204366,1,0,0:0:0:0:
456,184,204500,1,0,0:0:0:0:
356,276,204714,1,0,0:0:0:0:
236,268,204901,2,0,L|188:260,4,41.25,0|0|0|0|0,0:0|0:0|0:0|0:0|0:0,0:0:0:0:
136,184,205330,1,0,0:0:0:0:
152,72,205517,1,0,0:0:0:0:
264,44,205785,6,0,B|276:76|276:80|280:92|296:104|316:112|336:112|336:104|344:96|352:68|352:64|352:56|364:48|368:48|376:60|384:68|392:76,1,165
440,136,206214,2,0,L|360:196,1,82.5
332,196,206535,2,0,L|232:204,1,82.5
216,200,206857,2,0,L|128:168,1,82.5
64,112,207071,2,0,L|8:128,3,55,0|0|0|0,0:0|0:0|0:0|0:0,0:0:0:0:
240,76,207500,2,0,L|200:88,6,27.5,0|0|0|0|0|0|0,0:0|0:0|0:0|0:0|0:0|0:0|0:0,0:0:0:0:
356,128,207928,5,0,0:0:0:0:
248,184,208089,1,0,0:0:0:0:
104,132,208357,1,0,0:0:0:0:
96,152,208464,1,0,0:0:0:0:
88,172,208571,1,0,0:0:0:0:
120,288,208785,2,0,P|168:336|200:328,1,82.5
272,292,209053,1,0,0:0:0:0:
292,272,209214,2,0,B|336:240|280:216|288:172|360:160|284:104,1,165
248,80,209642,5,0,0:0:0:0:
112,124,209857,1,0,0:0:0:0:
164,264,210071,1,0,0:0:0:0:
296,256,210285,1,0,0:0:0:0:
356,156,210500,2,0,P|360:96|312:76,1,110
244,68,210821,1,0,0:0:0:0:
160,76,210928,2,0,P|120:116|152:164,1,110
244,256,211357,5,0,0:0:0:0:
244,256,211571,2,0,B|280:272|288:272|300:280|320:288|340:276|344:260|344:248|352:240|352:236|360:232|364:228|368:228|364:224|376:228|384:232|392:236|400:248|400:256|408:268|416:276|416:284|420:292|428:296|436:292|444:292|456:288|464:280|480:268|480:268|480:260|480:252|488:248|488:236|496:232|496:228|492:224,1,330
404,104,212428,1,0,0:0:0:0:
252,64,212589,2,0,L|232:84,7,27.5,0|0|0|0|0|0|0|0,0:0|0:0|0:0|0:0|0:0|0:0|0:0|0:0,0:0:0:0:
136,84,213071,6,0,P|104:88|96:160,1,110,0|0,0:0|0:0,0:0:0:0:
80,172,213339,2,0,P|72:216|124:260,1,110
144,276,213607,2,0,P|160:308|212:300,1,82.5
388,292,213928,2,0,B|340:240|352:176|256:196,1,165
236,176,214357,2,0,L|208:200,5,36.6666666666667,0|0|0|0|0|0,0:0|0:0|0:0|0:0|0:0|0:0,0:0:0:0:
180,224,214785,1,0,0:0:0:0:
256,328,215000,1,0,0:0:0:0:
364,264,215214,1,0,0:0:0:0:
368,256,215321,1,0,0:0:0:0:
372,248,215428,1,0,0:0:0:0:
320,116,215642,1,0,0:0:0:0:
404,124,215803,6,0,L|432:184,1,55
448,240,216071,2,0,L|436:268,6,27.5,0|0|0|0|0|0|0,0:0|0:0|0:0|0:0|0:0|0:0|0:0,0:0:0:0:
376,280,216500,2,0,P|320:296|284:280,1,82.5
176,260,216875,1,0,0:0:0:0:
132,132,217142,5,0,0:0:0:0:
256,56,217357,1,0,0:0:0:0:
348,100,217517,2,0,L|396:144,2,55,0|0|0,0:0|0:0|0:0,0:0:0:0:
144,236,217946,5,0,0:0:0:0:
356,232,218214,1,0,0:0:0:0:
144,236,218428,1,0,0:0:0:0:
356,232,218642,1,0,0:0:0:0:
144,236,218857,1,0,0:0:0:0:
356,232,219071,1,0,0:0:0:0:
252,140,219285,5,0,0:0:0:0:
196,76,219500,2,0,P|180:60|168:72,4,27.5,0|0|0|0|0,0:0|0:0|0:0|0:0|0:0,0:0:0:0:
108,76,219928,2,0,L|104:188,1,110
124,200,220196,2,0,P|180:184|156:116,1,137.5
272,64,220785,1,0,0:0:0:0:
188,76,220946,2,0,L|208:132,1,55
136,160,221160,2,0,L|188:176,1,55
132,252,221375,2,0,L|192:248,1,55
340,228,221642,1,0,0:0:0:0:
184,300,221857,1,0,0:0:0:0:
200,128,222071,2,0,L|188:72,3,55,0|0|0|0,0:0|0:0|0:0|0:0,0:0:0:0:
276,112,222500,2,0,L|268:80,7,27.5,0|0|0|0|0|0|0|0,0:0|0:0|0:0|0:0|0:0|0:0|0:0|0:0,0:0:0:0:
312,120,222928,1,0,0:0:0:0:
356,168,223035,1,0,0:0:0:0:
368,232,223142,1,0,0:0:0:0:
360,284,223250,1,0,0:0:0:0:
320,312,223357,6,0,B|268:340|264:344|248:276,1,110
236,248,223625,2,0,P|196:256|192:280,1,55
160,148,224000,2,0,L|192:152,1,27.5
272,68,224267,2,0,L|160:32,1,110
376,100,224642,5,0,0:0:0:0:
456,56,224803,1,0,0:0:0:0:
464,164,225071,2,0,L|424:192,3,27.5,0|0|0|0,0:0|0:0|0:0|0:0,0:0:0:0:
424,216,225285,2,0,L|396:252,3,27.5,0|0|0|0,0:0|0:0|0:0|0:0,0:0:0:0:
372,256,225500,1,0,0:0:0:0:
340,264,225607,1,0,0:0:0:0:
304,256,225714,1,0,0:0:0:0:
276,240,225821,1,0,0:0:0:0:
244,224,225928,2,0,L|208:196,3,27.5,0|0|0|0,0:0|0:0|0:0|0:0,0:0:0:0:
192,176,226142,2,0,L|120:168,5,55,0|0|0|0|0|0,0:0|0:0|0:0|0:0|0:0|0:0,0:0:0:0:
16,292,226785,6,0,P|72:320|156:296,1,137.5
152,280,227107,2,0,L|76:216,1,82.5
72,192,227321,2,0,B|4:116|4:116|8:116|8:116|32:112,1,110
88,80,227642,2,0,L|124:64,1,27.5
188,76,227803,2,0,L|220:88,1,27.5
272,124,228017,2,0,L|320:168,3,55,0|0|0|0,0:0|0:0|0:0|0:0,0:0:0:0:
176,160,228500,6,0,L|232:204,1,55
360,148,228660,2,0,L|304:192,1,55
292,212,228821,1,0,0:0:0:0:
272,224,228928,1,0,0:0:0:0:
252,236,229035,1,0,0:0:0:0:
180,140,229250,1,0,0:0:0:0:
336,48,229464,2,0,L|284:96,1,55
248,160,229785,1,0,0:0:0:0:
208,264,229946,1,0,0:0:0:0:
120,224,230160,6,0,L|144:248,1,27.5
368,156,230375,2,0,L|340:184,1,27.5
160,96,230589,2,0,L|188:120,1,27.5
308,32,230803,2,0,L|284:56,1,27.5
232,164,231071,1,0,0:0:0:0:
304,244,231285,1,0,0:0:0:0:
388,168,231500,1,0,0:0:0:0:
392,172,231607,2,0,L|420:228,2,55,0|0|0,0:0|0:0|0:0,0:0:0:0:
360,260,231928,5,0,0:0:0:0:
336,280,232035,1,0,0:0:0:0:
308,284,232142,1,0,0:0:0:0:
280,280,232250,1,0,0:0:0:0:
252,268,232357,1,0,0:0:0:0:
192,200,232517,2,0,L|176:128,1,55
176,120,232732,1,0,0:0:0:0:
284,120,232946,1,0,0:0:0:0:
108,108,233160,5,0,0:0:0:0:
284,120,233375,1,0,0:0:0:0:
416,92,233642,6,0,B|372:88|372:92|372:92|420:160|432:96,1,137.5
252,68,233964,2,0,B|184:64|184:64|268:96,1,137.5
384,192,234339,2,0,L|344:200,1,27.5
184,112,234607,2,0,L|232:144,1,55
80,120,234928,2,0,B|96:228|96:228|56:196,1,137.5
328,108,235357,2,0,B|308:140|308:140|300:108|296:108,1,68.75
232,184,235571,2,0,B|176:168|176:168|204:160,1,82.5
180,252,235839,6,0,L|200:264,1,13.75,0|0,0:0|0:0,0:0:0:0:
288,272,235946,2,0,L|312:272,1,13.75
396,240,236053,2,0,L|412:224,1,13.75
264,140,236214,5,0,0:0:0:0:
164,108,236428,1,0,0:0:0:0:
72,160,236589,2,0,L|72:216,2,55,0|0|0,0:0|0:0|0:0,0:0:0:0:
360,136,237071,6,0,B|328:104|328:104|404:128,1,110
428,120,237339,2,0,B|476:160|476:160|468:120,1,82.5
256,72,237714,2,0,L|224:72,1,27.5
88,104,238035,2,0,L|64:128,1,27.5
188,200,238357,6,0,L|244:232,1,55
256,224,238517,2,0,L|284:160,1,55
196,112,238785,1,0,0:0:0:0:
304,152,239000,1,0,0:0:0:0:
128,88,239214,1,0,0:0:0:0:
360,176,239428,1,0,0:0:0:0:
252,136,239642,5,0,0:0:0:0:
252,136,239803,1,0,0:0:0:0:
252,136,239910,1,0,0:0:0:0:
252,136,240017,1,0,0:0:0:0:
252,136,240125,1,0,0:0:0:0:
252,136,240232,1,0,0:0:0:0:
252,136,240339,1,0,0:0:0:0:
324,136,240500,6,0,B|352:200|328:204|260:76,1,165
188,92,240875,2,0,B|144:128|144:128|116:96|116:96|144:100,1,110
340,216,241196,2,0,L|300:228,1,27.5
152,196,241464,2,0,L|120:184,1,27.5
312,92,241785,2,0,L|316:128,1,27.5
320,152,241892,2,0,P|316:192|276:252,1,110
104,112,242214,2,0,B|104:80|104:80|116:68|116:68|136:64|136:64|152:76|152:76|160:96|160:96|156:108|156:108|144:112|144:112|136:116|136:116|104:116|104:116,1,165
236,212,242642,2,0,B|272:212|272:212|280:196|280:196|288:220|288:220|296:196|296:196|304:224|312:196|312:196|320:220|320:220|328:196|328:196|336:220,1,192.5
344,180,243071,5,0,0:0:0:0:
200,96,243285,1,0,0:0:0:0:
156,228,243500,2,0,L|176:204,1,27.5
112,164,243607,2,0,L|148:160,1,27.5
100,96,243714,2,0,L|136:100,1,27.5
256,280,243928,6,0,P|240:160|268:152,1,165
288,208,244303,2,0,L|376:144,1,82.5,0|0,0:0|0:0,0:0:0:0:
420,120,244625,2,0,P|416:88|416:84,1,27.5,0|0,0:0|0:0,0:0:0:0:
228,144,244839,2,0,L|220:112,1,27.5
72,168,245214,2,0,L|140:188,1,55
144,188,245375,2,0,L|240:168,1,82.5
236,80,245642,5,0,0:0:0:0:
236,80,245750,1,0,0:0:0:0:
236,80,245857,1,0,0:0:0:0:
356,172,246071,1,0,0:0:0:0:
252,260,246232,1,0,0:0:0:0:
96,176,246500,5,0,0:0:0:0:
136,52,246660,1,0,0:0:0:0:
136,52,246767,1,0,0:0:0:0:
136,52,246875,1,0,0:0:0:0:
136,52,246982,1,0,0:0:0:0:
136,52,247089,1,0,0:0:0:0:
136,52,247196,1,0,0:0:0:0:
232,96,247357,6,0,L|288:116,1,55
300,128,247517,2,0,P|364:184|380:208,1,110
280,256,247785,2,0,B|260:224|232:228|220:256|248:276|276:272|328:292|356:296,1,165
432,156,248214,5,0,0:0:0:0:
432,156,248321,1,0,0:0:0:0:
236,60,248535,1,0,0:0:0:0:
84,208,248776,1,0,0:0:0:0:
84,208,248883,1,0,0:0:0:0:
256,192,249125,1,0,0:0:0:0:
408,192,262946,6,0,P|384:120|360:100,1,110
200,44,263443,1,0,0:0:0:0:
240,144,263670,1,0,0:0:0:0:
320,204,263897,2,0,P|380:212|384:176,1,110
336,72,264352,1,0,0:0:0:0:
152,264,264579,1,0,0:0:0:0:
92,172,264806,1,0,0:0:0:0:
184,76,265034,1,0,0:0:0:0:
352,240,265261,6,0,L|304:208,1,55
144,96,265488,2,0,L|200:128,1,55
160,256,265715,2,0,L|208:208,1,55
336,80,265943,2,0,L|292:128,1,55
160,176,266170,1,0,0:0:0:0:
256,256,266397,1,0,0:0:0:0:
336,160,266625,1,0,0:0:0:0:
256,80,266852,1,0,0:0:0:0:
80,224,267079,1,0,0:0:0:0:
176,64,267306,6,0,P|256:64|288:96,1,110
368,160,267761,2,0,P|352:224|272:272,1,110
64,320,268215,2,0,P|80:240|144:208,1,110
160,96,268670,2,0,P|224:80|272:128,1,110
368,80,269125,5,0,0:0:0:0:
256,208,269352,1,0,0:0:0:0:
272,96,269579,1,0,0:0:0:0:
416,208,269806,1,0,0:0:0:0:
368,80,270034,1,0,0:0:0:0:
176,288,270261,6,0,P|96:240|96:192,2,110,0|0|0,0:0|0:0|0:0,0:0:0:0:
304,272,270943,2,0,P|368:240|384:208,1,110
352,112,271397,1,0,0:0:0:0:
448,64,271625,1,0,0:0:0:0:
464,176,271852,2,0,P|480:240|480:288,1,110
368,320,272306,1,0,0:0:0:0:
272,240,272534,6,0,P|256:176|256:160,1,55
208,192,272761,2,0,L|224:128,1,55
176,128,272988,2,0,L|224:64,1,55
176,64,273215,2,0,L|224:32,1,55
320,80,273443,6,0,L|368:128,1,55
336,256,273670,2,0,L|272:272,1,55
192,144,273897,2,0,L|112:112,1,55
144,288,274125,2,0,L|80:272,1,55
272,288,274352,2,0,L|320:256,1,55
368,112,274579,6,0,L|320:80,3,55,0|0|0|0,0:0|0:0|0:0|0:0,0:0:0:0:
256,64,275034,2,0,L|208:48,7,27.5,0|0|0|0|0|0|0|0,0:0|0:0|0:0|0:0|0:0|0:0|0:0|0:0,0:0:0:0:
160,96,275517,2,0,L|176:80,12,13.75,0|0|0|0|0|0|0|0|0|0|0|0|0,0:0|0:0|0:0|0:0|0:0|0:0|0:0|0:0|0:0|0:0|0:0|0:0|0:0,0:0:0:0:
160,192,275943,2,0,L|176:208,12,13.75,0|0|0|0|0|0|0|0|0|0|0|0|0,0:0|0:0|0:0|0:0|0:0|0:0|0:0|0:0|0:0|0:0|0:0|0:0|0:0,0:0:0:0:
240,256,276369,2,0,P|320:256|400:192,2,178.75,0|0|0,0:0|0:0|0:0,0:0:0:0:
224,160,277306,1,0,0:0:0:0:
96,48,277534,1,0,0:0:0:0:
304,32,277761,1,0,0:0:0:0:
400,128,277988,2,0,L|432:192,1,55
400,240,278215,5,0,0:0:0:0:
208,240,278443,2,0,P|144:240|144:224,2,55,0|0|0,0:0|0:0|0:0,0:0:0:0:
112,112,278897,2,0,L|48:96,1,55
160,80,279125,2,0,L|224:64,1,55
288,80,279352,1,0,0:0:0:0:
448,272,279579,1,0,0:0:0:0:
224,224,279806,6,0,P|256:176|272:160,1,55
192,272,280034,2,0,L|144:304,1,55
176,224,280261,2,0,L|208:176,1,55
128,208,280488,2,0,L|64:256,1,55
176,64,280715,1,0,0:0:0:0:
448,80,280943,1,0,0:0:0:0:
368,288,281170,1,0,0:0:0:0:
256,288,281397,2,0,L|176:256,1,55
192,240,281625,1,0,0:0:0:0:
128,96,281852,6,0,L|80:144,1,55
176,80,282079,1,0,0:0:0:0:
368,160,282306,2,0,L|416:192,1,55
368,112,282534,2,0,L|320:80,1,55
224,192,282761,1,0,0:0:0:0:
224,192,282875,1,0,0:0:0:0:
224,192,282988,1,0,0:0:0:0:
80,80,283215,5,0,0:0:0:0:
80,80,283329,1,0,0:0:0:0:
80,80,283443,1,0,0:0:0:0:
288,80,283670,6,0,L|352:64,1,55
384,80,283897,1,0,0:0:0:0:
416,112,284011,1,0,0:0:0:0:
416,144,284125,1,0,0:0:0:0:
256,224,284352,6,0,L|208:256,1,55
224,192,284579,1,0,0:0:0:0:
80,80,284806,6,0,L|64:144,1,55
112,64,285034,1,0,0:0:0:0:
288,192,285261,1,0,0:0:0:0:
464,64,285488,1,0,0:0:0:0:
272,320,285715,1,0,0:0:0:0:
48,208,285943,1,0,0:0:0:0:
192,80,286170,6,0,L|112:96,1,55
240,112,286397,2,0,L|304:128,1,55
192,128,286625,2,0,L|128:128,1,55
240,256,286852,1,0,0:0:0:0:
352,96,287079,1,0,0:0:0:0:
400,224,287306,2,0,L|448:256,1,55
352,224,287534,2,0,L|288:224,1,55
368,272,287761,2,0,L|432:304,1,55
304,288,287988,1,0,0:0:0:0:
240,208,288215,6,0,L|288:144,1,55
304,128,288443,2,0,P|352:80|352:32,2,110,0|0|0,0:0|0:0|0:0,0:0:0:0:
128,240,289125,5,0,0:0:0:0:
160,80,289352,1,0,0:0:0:0:
128,160,289579,1,0,0:0:0:0:
240,48,289806,1,0,0:0:0:0:
304,144,290034,5,0,0:0:0:0:
304,160,290147,1,0,0:0:0:0:
304,176,290261,1,0,0:0:0:0:
304,192,290375,1,0,0:0:0:0:
304,208,290488,1,0,0:0:0:0:
160,256,290715,1,0,0:0:0:0:
128,144,290943,5,0,0:0:0:0:
336,144,291170,1,0,0:0:0:0:
48,144,291397,1,0,0:0:0:0:
432,144,291625,1,0,0:0:0:0:
240,256,291852,2,0,L|176:240,1,55
256,288,292079,1,0,0:0:0:0:
128,96,292306,1,0,0:0:0:0:
400,80,292534,1,0,0:0:0:0:
352,240,292761,6,0,L|416:256,3,55,0|0|0|0,0:0|0:0|0:0|0:0,0:0:0:0:
288,272,293215,2,0,L|320:320,3,55,0|0|0|0,0:0|0:0|0:0|0:0,0:0:0:0:
176,304,293670,1,0,0:0:0:0:
80,160,293897,1,0,0:0:0:0:
192,32,294125,1,0,0:0:0:0:
400,64,294352,1,0,0:0:0:0:
336,240,294579,6,0,L|384:288,1,55
352,192,294806,1,0,0:0:0:0:
144,320,295034,1,0,0:0:0:0:
48,112,295261,1,0,0:0:0:0:
256,176,295488,2,0,L|240:112,1,55
272,224,295715,1,0,0:0:0:0:
416,336,295943,1,0,0:0:0:0:
464,176,296170,1,0,0:0:0:0:
320,112,296397,6,0,L|384:96,1,55
288,80,296625,2,0,L|256:144,1,55
176,80,296852,1,0,0:0:0:0:
128,224,297079,1,0,0:0:0:0:
304,224,297306,2,0,L|336:288,1,55
368,224,297534,2,0,L|320:176,1,55
384,272,297761,6,0,L|368:336,1,55
416,240,297988,2,0,L|416:176,1,55
400,112,298215,2,0,P|400:64|432:48,3,55,0|0|0|0,0:0|0:0|0:0|0:0,0:0:0:0:
352,144,298670,2,0,P|320:112|320:80,3,55,0|0|0|0,0:0|0:0|0:0|0:0,0:0:0:0:
320,208,299125,1,0,0:0:0:0:
176,64,299352,1,0,0:0:0:0:
160,272,299579,1,0,0:0:0:0:
320,208,299806,1,0,0:0:0:0:
192,96,300034,5,0,0:0:0:0:
64,208,300261,1,0,0:0:0:0:
224,240,300488,38,0,P|272:224|272:160,1,110
160,80,301170,6,0,L|128:128,1,55
128,64,301397,6,0,L|64:64,1,55
96,176,301625,1,0,0:0:0:0:
160,256,301852,54,0,P|192:304|256:304,1,110
304,320,302534,5,0,0:0:0:0:
416,224,302761,1,0,0:0:0:0:
304,128,302988,1,0,0:0:0:0:
304,320,303215,1,0,0:0:0:0:
192,272,303443,6,0,L|128:272,1,55
128,240,303670,1,0,0:0:0:0:
320,224,303897,2,0,L|384:224,1,55
400,192,304125,1,0,0:0:0:0:
176,112,304352,2,0,L|96:112,2,55,0|0|0,0:0|0:0|0:0,0:0:0:0:
272,32,304806,1,0,0:0:0:0:
384,96,305034,1,0,0:0:0:0:
336,192,305261,2,0,P|288:224|224:224,1,110
192,96,305715,5,0,0:0:0:0:
96,224,305943,1,0,0:0:0:0:
240,320,306170,1,0,0:0:0:0:
336,192,306397,1,0,0:0:0:0:
96,224,306625,1,0,0:0:0:0:
176,80,306852,5,0,0:0:0:0:
208,64,306965,1,0,0:0:0:0:
240,64,307079,1,0,0:0:0:0:
272,80,307193,1,0,0:0:0:0:
288,96,307306,1,0,0:0:0:0:
368,160,307534,2,0,P|416:192|416:240,1,110
336,304,307988,1,0,0:0:0:0:
160,304,308215,1,0,0:0:0:0:
336,304,308443,1,0,0:0:0:0:
400,224,308670,5,0,0:0:0:0:
416,192,308784,1,0,0:0:0:0:
416,160,308897,1,0,0:0:0:0:
400,128,309011,1,0,0:0:0:0:
384,112,309125,1,0,0:0:0:0:
256,112,309352,1,0,0:0:0:0:
64,112,309579,1,0,0:0:0:0:
160,208,309806,1,0,0:0:0:0:
160,32,310034,1,0,0:0:0:0:
256,208,310261,5,0,0:0:0:0:
352,64,310488,1,0,0:0:0:0:
368,96,310602,1,0,0:0:0:0:
384,128,310715,1,0,0:0:0:0:
400,160,310829,1,0,0:0:0:0:
416,192,310943,1,0,0:0:0:0:
368,288,311170,1,0,0:0:0:0:
256,224,311397,5,0,0:0:0:0:
224,192,311511,1,0,0:0:0:0:
208,160,311625,1,0,0:0:0:0:
208,128,311738,1,0,0:0:0:0:
208,96,311852,1,0,0:0:0:0:
384,80,312079,1,0,0:0:0:0:
448,192,312306,5,0,0:0:0:0:
416,224,312420,1,0,0:0:0:0:
384,224,312534,1,0,0:0:0:0:
352,208,312647,1,0,0:0:0:0:
256,176,312761,5,0,0:0:0:0:
240,144,312875,1,0,0:0:0:0:
224,112,312988,1,0,0:0:0:0:
192,96,313102,1,0,0:0:0:0:
160,96,313215,1,0,0:0:0:0:
128,96,313329,1,0,0:0:0:0:
96,112,313443,1,0,0:0:0:0:
64,128,313556,5,0,0:0:0:0:
64,160,313670,1,0,0:0:0:0:
64,192,313784,1,0,0:0:0:0:
64,224,313897,1,0,0:0:0:0:
80,256,314011,1,0,0:0:0:0:
112,272,314125,1,0,0:0:0:0:
144,272,314238,1,0,0:0:0:0:
176,272,314352,1,0,0:0:0:0:
208,272,314465,1,0,0:0:0:0:
240,272,314579,6,0,P|304:256|320:224,1,96.25
320,192,315488,2,0,P|320:128|288:112,1,96.25
208,96,316397,1,0,0:0:0:0:
208,96,316738,1,0,0:0:0:0:
208,96,317079,1,0,0:0:0:0:
128,48,317306,2,0,L|128:96,1,27.5
144,112,317533,2,0,L|192:128,2,27.5,0|0|0,0:0|0:0|0:0,0:0:0:0:
240,192,317988,1,0,0:0:0:0:
352,224,318215,6,0,L|384:208,1,27.5
416,192,318556,1,0,0:0:0:0:
336,96,318897,1,0,0:0:0:0:
192,80,319124,2,0,P|144:96|112:128,1,96.25
112,160,320033,2,0,P|112:192|144:240,1,82.5
160,256,320773,1,0,0:0:0:0:
176,256,320829,1,0,0:0:0:0:
192,256,320886,1,0,0:0:0:0:
304,304,321169,5,0,0:0:0:0:
416,192,321397,1,0,0:0:0:0:
288,96,321624,1,0,0:0:0:0:
160,96,321851,2,0,P|112:128|80:160,1,96.25
80,176,322760,2,0,P|80:224|112:272,1,96.25
128,288,323669,5,0,0:0:0:0:
128,288,324010,1,0,0:0:0:0:
240,288,324351,2,0,L|256:288,2,13.75,0|0|0,0:0|0:0|0:0,0:0:0:0:
336,256,324806,1,0,0:0:0:0:
384,176,325033,1,0,0:0:0:0:
320,112,325260,1,0,0:0:0:0:
224,96,325488,2,0,P|144:96|128:112,1,96.25
112,128,326397,2,0,P|80:176|80:224,1,96.25
96,240,327306,2,0,P|160:256|176:256,1,82.5
224,272,328044,5,0,0:0:0:0:
240,256,328101,1,0,0:0:0:0:
256,240,328158,1,0,0:0:0:0:
384,176,328442,1,0,0:0:0:0:
96,160,328669,1,0,0:0:0:0:
256,48,328897,1,0,0:0:0:0:
256,192,329124,12,0,332760,0:0:0:0:
