osu file format v5

[General]
AudioFilename: We Can.mp3
AudioLeadIn: 0
PreviewTime: -1
Countdown: 1
SampleSet: Normal
StackLeniency: 0.7
Mode: 0
LetterboxInBreaks: 1

[Metadata]
Title:We Can
Artist:Ted Poley & Tony Harnell
Creator:buraimaster1234
Version:Easy
Source:
Tags:

[Difficulty]
HPDrainRate:3
CircleSize:3
OverallDifficulty:3
SliderMultiplier:1
SliderTickRate:0.5

[Events]
//Background and Video events
0,0,"wall28.jpg"
//Break Periods
2,50806,52756
2,72216,80448
2,139011,153268
//Storyboard Layer 0 (Background)
//Storyboard Layer 1 (Failing)
//Storyboard Layer 2 (Passing)
//Storyboard Layer 3 (Foreground)
//Storyboard Sound Samples
//Background Colour Transformations
3,100,163,162,255

[TimingPoints]
350,256.410256410256,4,1,0,100

[Colours]
Combo1 : 230,19,19
Combo2 : 43,29,169
Combo3 : 228,157,24

[HitObjects]
96,96,18042,1,0
192,160,18555,1,0
288,96,19067,2,0,B|448:96|416:224,1,200
400,320,20093,1,0
304,256,20606,1,0
208,320,21119,2,0,B|48:320|80:192,1,200
160,96,22144,5,4
256,96,22657,1,4
352,96,23170,1,4
352,192,23683,2,2,B|128:192,4,200
416,288,26247,5,0
352,288,26503,1,0
224,288,27016,2,0,B|64:288,1,150
96,192,28298,1,0
160,192,28555,1,0
288,192,29067,2,0,B|448:192,1,150
416,96,30350,5,4
256,96,30862,1,2
96,96,31375,1,4
96,256,31888,1,0
256,256,32401,2,0,B|480:256,2,200
128,288,34196,6,0,B|64:192|160:160,1,150
240,208,35221,2,0,B|368:240|336:144,1,150
224,96,36247,2,0,B|64:96,2,150
288,128,37273,2,4,B|384:128|416:128|448:160,1,150
384,288,38298,6,0,B|448:192|352:160,1,150
256,208,39324,2,0,B|128:240|160:144,1,150
288,96,40093,1,0
288,96,40349,2,4,B|288:320,3,200
224,320,42401,6,2,B|448:320,1,200
288,256,43426,2,0,B|64:256,1,200
64,160,44452,1,4
128,96,44837,1,0
208,160,45478,1,4
272,96,45862,1,2
368,128,46503,6,4,B|368:288,1,150
240,192,47529,1,0
144,192,47914,1,6
256,192,48555,12,0,50606
96,192,54196,5,0
96,192,54708,2,0,B|117:15|448:96,1,400
448,192,56247,1,0
448,192,56760,2,0,B|427:15|96:96,1,400
96,192,58298,1,0
192,192,58811,6,4,B|416:192,1,200
416,256,59580,2,4,B|192:256,1,200
192,320,60349,2,6,B|416:320,1,200
416,208,61375,1,0
304,192,61760,1,6
416,192,62401,5,0
416,192,62914,2,0,B|395:15|64:96,1,400
64,192,64452,1,0
64,192,64965,2,0,B|85:15|416:96,1,400
416,192,66503,1,0
320,192,67016,6,4,B|96:192,1,200
96,256,67785,2,4,B|320:256,1,200
320,320,68555,2,6,B|96:320,1,200
96,208,69580,1,0
208,192,69965,1,6
288,192,70606,5,0
400,192,71119,1,6
480,192,71503,1,4
480,80,72016,1,4
448,96,81888,5,2
400,192,82401,1,0
312,256,82914,1,0
200,256,83426,1,4
112,192,83939,1,0
64,96,84452,1,0
176,96,84965,2,6,B|400:96,1,200
368,192,85991,5,0
256,224,86503,1,2
144,192,87016,1,0
176,288,87529,2,4,B|259:395|348:284,3,200
256,208,89580,1,2
320,128,90093,5,0
224,96,90606,2,4,B|64:96,1,150
256,208,91632,1,2
192,128,92144,5,0
288,96,92657,2,4,B|448:96,1,150
256,208,93683,1,0
160,192,94196,5,0
64,192,94708,2,0,B|64:320|224:288,1,200
256,288,95478,1,2
352,192,95991,1,6
448,288,96503,1,6
352,192,97016,1,6
256,288,97529,1,6
192,288,97785,6,0,B|79:272|160:160,1,150
81,149,98811,2,0,B|141:75|214:149,1,150
145,182,99837,2,6,B|145:288|273:246,1,150
256,144,100606,1,0
288,96,100862,2,2,B|352:256,1,150
320,288,101888,6,0,B|433:272|352:160,1,150
431,149,102914,2,2,B|371:75|298:149,1,150
367,182,103683,1,0
320,224,103939,2,4,B|96:224,3,200
32,128,105991,6,0,B|256:128,1,200
256,224,107016,2,0,B|480:224,1,200
464,336,108042,1,6
384,288,108426,1,0
304,336,108811,1,0
176,304,109452,5,0
96,272,109837,1,4
64,224,110093,2,2,B|224:224,1,150
336,224,110862,2,6,B|464:224,1,100
432,112,111503,1,0
320,112,111888,1,6
256,192,112144,12,0,116632
256,192,117273,1,6
416,192,117785,5,0
416,192,118298,2,0,B|395:15|64:96,1,400
64,192,119837,1,0
64,192,120349,2,0,B|85:15|416:96,1,400
416,192,121888,1,0
320,192,122401,6,4,B|96:192,1,200
96,256,123170,2,4,B|320:256,1,200
320,320,123939,2,6,B|96:320,1,200
96,208,124965,1,0
208,224,125349,1,6
96,192,125991,5,0
96,192,126503,2,0,B|117:15|448:96,1,400
448,192,128042,1,0
448,192,128555,2,0,B|427:15|96:96,1,400
96,192,130093,1,0
192,192,130606,6,4,B|416:192,1,200
416,256,131375,2,4,B|192:256,1,200
192,320,132144,2,6,B|416:320,1,200
416,208,133170,1,0
304,224,133555,1,6
224,192,134196,5,0
112,192,134708,1,6
32,192,135093,1,4
32,80,135606,1,4
256,192,135734,12,4,138811
288,128,154708,1,0
384,96,155221,2,0,B|384:288,1,150
320,320,156247,2,0,B|160:320,1,150
96,224,157273,2,4,B|256:224,2,150
96,160,158298,2,6,B|256:160,1,150
352,112,159067,5,0
416,96,159324,2,0,B|416:288,1,150
320,320,160093,1,6
256,320,160349,2,0,B|96:320,1,150
64,224,161119,1,6
256,192,161375,12,0,162785
352,192,163170,2,2,B|253:82|149:220,5,200
144,256,165991,2,4,B|368:256,1,200
416,192,167016,5,0
416,192,167529,2,0,B|395:15|64:96,1,400
64,192,169067,1,0
64,192,169580,2,0,B|85:15|416:96,1,400
416,192,171119,1,0
320,192,171632,6,4,B|96:192,1,200
96,256,172401,2,4,B|320:256,1,200
320,320,173170,2,6,B|96:320,1,200
96,208,174196,1,0
192,256,174580,1,6
96,192,175221,5,0
96,192,175734,2,0,B|117:15|448:96,1,400
448,192,177273,1,0
448,192,177785,2,0,B|427:15|96:96,1,400
96,192,179324,1,0
192,192,179837,6,4,B|416:192,1,200
416,256,180606,2,4,B|192:256,1,200
192,320,181375,2,6,B|416:320,1,200
416,208,182401,1,0
320,256,182785,1,6
224,192,183426,5,0
112,192,183939,1,6
32,192,184324,1,4
144,256,184837,1,4
256,264,185221,1,0
256,240,185478,5,6
256,216,185734,1,4
256,192,185991,1,6
