osu file format v5

[General]
AudioFilename: Sonic Adventure 2 Battle - City Escape - Escape from the City.mp3
AudioLeadIn: 0
PreviewTime: -1
Countdown: 1
SampleSet: Normal
StackLeniency: 0.7
Mode: 0

[Metadata]
Title:Escape From The City
Artist:Ted Poley & Tony Harnel
Creator:gamerrox
Version:Hard
Source:Sonic Adventure 2
Tags:

[Difficulty]
HPDrainRate:7
CircleSize:5
OverallDifficulty:7
SliderMultiplier:1.7
SliderTickRate:2

[Events]
//Background and Video events
0,0,"wallpaper_sonic_adventure_2_battle_01.jpg"
//Break Periods
2,64695,69941
2,125318,126526
2,129471,130911
//Storyboard Layer 0 (Background)
//Storyboard Layer 1 (Failing)
//Storyboard Layer 2 (Passing)
//Storyboard Layer 3 (Foreground)
//Storyboard Sound Samples
//Background Colour Transformations
3,100,163,162,255

[TimingPoints]
9725,461.573967228248,4,1,0,100

[HitObjects]
344,56,9955,1,0
280,56,10186,1,0
280,120,10417,1,0
200,120,10648,2,2,B|120:240,1,127.5
32,288,11340,1,0
104,288,11571,1,0
240,288,11917,1,0
352,288,12263,1,4
384,80,13186,5,0
384,152,13417,2,2,B|208:152,1,170
136,152,14109,1,2
136,72,14340,1,2
24,72,14686,1,2
24,184,15033,1,0
80,232,15263,1,0
152,232,15494,2,0,B|240:232,4,85
208,176,16648,1,4
352,80,17340,5,0
312,144,17571,1,0
272,208,17802,1,0
232,272,18033,2,2,B|56:272|72:16,1,340
184,24,19302,1,0
288,24,19648,1,2
360,24,19879,1,0
216,200,20571,5,0
288,200,20802,1,0
288,88,21148,1,0
176,48,21495,1,0
128,112,21725,1,0
128,224,22072,1,0
240,248,22418,1,0
280,184,22649,1,2
280,72,22995,1,2
168,72,23341,1,2
168,144,23572,2,2,B|168:352,1,170
456,240,24956,6,2,B|456:32|105:43|120:248,1,510
192,240,26572,1,2
192,240,26803,1,2
192,240,27034,1,4
400,72,28418,5,0
320,72,28649,1,0
320,144,28880,1,0
320,216,29111,1,0
320,288,29341,1,0
248,288,29572,1,0
176,288,29803,1,0
104,288,30034,1,0
32,288,30265,1,0
32,216,30495,1,0
32,144,30726,2,2,B|32:0|312:16,1,340
416,208,32342,6,0,B|264:64,1,170
292,91,33265,2,0,B|168:224,1,170
96,216,33957,1,2
96,216,34188,1,2
96,216,34419,1,2
432,88,35573,6,0,B|232:88,1,170
112,88,36496,2,0,B|112:272,1,170
264,264,37419,2,2,B|360:264,1,85
352,192,37881,2,2,B|232:192,1,85
264,112,38342,2,2,B|368:112,1,85
352,40,38804,2,4,B|304:40,4,42.5
240,40,39611,5,0
240,152,39958,2,2,B|432:152,1,170
408,32,41112,1,0
296,32,41458,1,0
296,144,41804,2,2,B|296:320,1,170
64,312,42958,1,0
64,200,43304,1,0
64,88,43650,1,0
136,88,43881,1,0
264,88,44227,1,0
264,200,44573,1,0
264,272,44804,2,2,B|32:160|304:56|488:216|264:352,1,510
184,112,47112,5,0
336,112,47574,1,0
336,264,48035,1,0
184,264,48497,2,2,B|184:64,1,170
32,96,49420,1,0
32,248,49881,1,0
184,248,50343,1,0
296,248,50689,1,0
296,136,51035,2,2,B|96:136,1,170
264,312,52189,1,0
376,312,52535,1,0
328,208,52882,2,2,B|152:88,1,170
400,32,54036,5,0
400,144,54382,1,0
400,256,54728,1,0
328,256,54959,1,0
216,256,55305,1,0
104,264,55651,1,0
104,192,55882,1,0
104,80,56228,1,0
216,80,56574,1,2
288,80,56805,2,2,B|288:280,1,170
504,48,58190,5,0
352,48,58651,1,0
200,48,59113,1,0
200,200,59574,1,2
256,192,60036,12,0,62344
344,128,62806,5,0
272,128,63036,1,0
200,128,63267,2,2,B|16:128|24:336|368:328,1,467.5
336,112,70883,5,0
264,112,71114,1,0
264,184,71345,1,0
264,256,71575,1,0
336,256,71806,1,0
408,256,72037,1,0
408,176,72268,1,0
408,96,72499,2,2,B|152:40,1,255
136,256,74345,5,0
136,144,74691,1,0
136,32,75037,2,2,B|320:32,1,170
304,104,75730,1,0
304,176,75960,1,0
304,248,76191,2,2,B|136:248,1,127.5
176,136,76884,2,2,B|544:136,1,340
368,88,78268,5,0
288,88,78499,1,0
288,160,78730,1,0
208,160,78961,1,0
208,232,79191,1,0
128,232,79422,1,0
128,304,79653,1,0
48,304,79884,2,2,B|48:128,1,170
48,136,80576,1,4
344,104,81499,5,0
264,104,81730,1,0
152,104,82076,1,0
152,216,82422,1,0
152,288,82653,1,0
152,360,82884,1,0
224,360,83115,1,0
296,360,83346,1,0
368,360,83576,1,2
368,248,83923,1,2
368,136,84269,1,2
368,56,84499,1,4
120,88,85884,6,2,B|288:184,2,170
272,96,87269,1,0
344,96,87500,1,0
416,96,87731,1,0
488,96,87961,1,4
72,296,89346,5,0
120,240,89577,1,0
168,184,89808,1,0
216,128,90038,1,0
264,72,90269,1,0
312,128,90500,2,2,B|384:224,1,85
408,256,90962,1,2
328,256,91192,1,2
248,256,91423,2,2,B|64:256,2,170
384,24,93039,5,0
384,96,93269,1,0
304,96,93500,1,0
224,96,93731,1,0
144,96,93962,1,0
144,168,94193,1,0
216,168,94423,1,0
288,168,94654,1,0
360,168,94885,1,0
360,240,95116,2,0,B|240:240,1,85
112,304,96500,6,2,B|112:208|216:224|200:320,5,170
352,272,99270,1,2
424,272,99501,1,2
496,272,99731,1,4
424,136,100193,5,2
312,136,100539,1,0
192,136,100885,2,2,B|48:272,1,170
296,256,102039,1,0
296,144,102385,1,0
176,144,102732,2,2,B|328:24,1,170
152,200,103886,1,0
264,200,104232,1,0
376,200,104578,1,0
376,120,104809,1,0
264,120,105155,1,0
152,120,105501,1,2
152,192,105732,1,2
152,304,106078,1,2
296,288,106424,5,0
368,288,106655,1,0
360,136,107117,1,0
56,144,108040,2,2,B|56:352,1,170
208,312,108963,2,4,B|208:120,1,170
400,152,110348,1,0
248,152,110809,2,2,B|248:336,1,170
128,320,111617,1,0
128,208,111963,2,2,B|280:80,1,170
488,96,113117,1,0
488,208,113463,1,0
376,208,113809,2,2,B|192:208,1,170
304,32,114963,5,0
304,144,115310,1,0
192,144,115656,1,0
192,216,115887,1,0
192,328,116233,1,0
296,296,116579,1,0
296,216,116810,1,0
296,104,117156,2,2,B|128:104,1,127.5
160,176,117733,1,2
8,176,118194,1,4
256,192,119118,12,2,123272
360,176,123733,5,0
280,176,123964,1,0
200,176,124195,2,2,B|0:176,2,170
368,96,127426,5,0
400,168,127657,1,0
376,240,127887,2,2,B|32:240|88:80|416:96,1,510
256,192,131811,12,2,137350
