osu file format v5

[General]
AudioFilename: 05 - nobodyknows+ - Kokoro Odoru.mp3
AudioLeadIn: 0
PreviewTime: -1
Countdown: 1
SampleSet: Normal
StackLeniency: 0.7
Mode: 0
LetterboxInBreaks: 1

[Metadata]
Title:Kokoro Odoru
Artist:Techu999
Creator:Techu999
Version:Normal
Source:
Tags:

[Difficulty]
HPDrainRate:4
CircleSize:5
OverallDifficulty:4
SliderMultiplier:1.4
SliderTickRate:1

[Events]
//Background and Video events
//Break Periods
//Storyboard Layer 0 (Background)
//Storyboard Layer 1 (Failing)
//Storyboard Layer 2 (Passing)
//Storyboard Layer 3 (Foreground)
//Storyboard Sound Samples
//Background Colour Transformations
3,100,163,162,255

[TimingPoints]
0,1000,4,1,0,100,1
76166,1000,4,1,0,100,1

[HitObjects]
292,173,6666,1,4
292,173,7000,1,4
292,173,7333,1,4
292,173,7833,1,4
292,173,8166,1,4
224,224,8500,1,0
224,256,8666,1,0
337,262,9000,1,8
308,260,9333,1,8
400,200,10500,1,8
344,201,10833,1,8
252,196,12500,2,2,B|316:196|315:196,1,46.6666666666667
298,196,13166,2,4,B|364:191|376:249,1,93.3333333333333
216,225,15000,1,4
285,226,15333,1,4
308,160,15833,1,4
242,163,16333,1,4
192,163,16666,1,4
343,228,17833,1,0
343,228,18166,1,0
266,223,19333,1,0
266,223,19666,1,0
330,179,21166,1,0
330,179,21333,1,0
251,199,22333,1,0
251,199,22500,1,0
274,135,23500,1,0
294,168,24500,1,0
294,168,25000,1,0
152,159,25500,2,10,B|487:162,1,326.666666666667
330,204,28000,1,0
248,200,28500,2,0,B|275:200,1,23.3333333333333
141,244,30000,1,8
175,228,30166,1,4
262,194,30833,1,4
373,220,32000,1,4
219,190,32333,1,0
253,187,32499,1,4
322,112,33000,1,4
313,195,33166,2,12,B|308:248,1,46.6666666666667
248,188,34000,1,8
240,271,34166,1,12
320,192,34500,1,8
352,192,34666,1,8
245,97,35166,1,8
316,100,35500,1,12
183,192,36833,1,8
217,195,37000,1,12
160,192,37833,2,10,B|192:192,1,23.3333333333333
217,195,38000,5,8
253,197,38166,1,12
256,130,38500,1,12
286,128,38666,1,8
322,191,39500,1,4
252,199,40500,1,4
193,192,41500,1,4
256,190,42500,2,8,B|447:189|439:192,4,163.333333333333
252,186,48000,2,12,B|327:188,1,70
321,187,48833,1,8
345,216,49833,1,4
297,212,50166,1,8
166,188,51000,6,8,B|248:189|250:189,14,70
248,198,59166,2,10,B|277:198|267:198,1,23.3333333333333
319,198,59333,1,12
296,199,61333,1,8
339,200,61500,1,12
224,252,62166,1,8
266,255,62333,1,8
376,260,62666,1,8
378,165,63000,1,4
187,151,63333,2,2,B|220:151,1,23.3333333333333
256,155,63833,1,4
213,206,66000,1,4
246,206,66333,1,4
295,204,66833,1,4
343,135,67166,1,4
293,135,67666,1,4
159,189,68166,1,4
246,192,69166,1,4
246,192,70333,1,4
359,204,71333,1,4
224,200,72166,1,4
281,200,72333,1,4
347,240,73166,1,4
400,244,73500,1,4
212,200,74666,1,4
328,214,76000,1,4
