osu file format v9

[General]
AudioFilename: Techno Trance - Intel.mp3
AudioLeadIn: 2018
PreviewTime: -1
Countdown: 0
SampleSet: Soft
StackLeniency: 0.2
Mode: 0
LetterboxInBreaks: 1
EpilepsyWarning: 1

[Editor]
Bookmarks: 160069
DistanceSpacing: 1
BeatDivisor: 4
GridSize: 8

[Metadata]
Title:Intel
Artist:Techno Trance
Creator:Anto
Version:Extra
Source:
Tags:Techno Trance

[Difficulty]
HPDrainRate:6
CircleSize:4
OverallDifficulty:8
ApproachRate:8
SliderMultiplier:2.6
SliderTickRate:2

[Events]
//Background and Video events
0,0,"lal.jpg"
//Break Periods
//Storyboard Layer 0 (Background)
//Storyboard Layer 1 (Fail)
//Storyboard Layer 2 (Pass)
//Storyboard Layer 3 (Foreground)
//Storyboard Sound Samples
//Background Colour Transformations
3,100,163,162,255

[TimingPoints]
2158,327.278677794142,4,2,0,100,1,0
138551,-66.6666666666667,4,2,0,100,0,0

[Colours]
Combo1 : 255,106,34
Combo2 : 0,0,255
Combo3 : 240,0,240
Combo4 : 255,255,0

[HitObjects]
256,32,2158,1,0
360,128,2321,1,0
256,224,2485,1,0
152,128,2648,1,0
256,32,2812,6,0,B|400:32,1,130
256,32,3139,2,0,B|120:32,1,130
40,144,3467,1,0
40,184,3548,1,0
40,216,3630,1,0
112,336,3794,1,0
112,296,3876,1,0
112,256,3958,1,0
200,144,4121,5,0
200,184,4203,1,0
200,216,4285,1,0
280,336,4448,1,0
280,296,4530,1,0
280,256,4612,1,0
424,256,4776,6,0,B|424:344|520:344,1,130
424,128,5103,2,0,B|424:40|520:40,1,130
368,192,5430,2,0,B|232:192,1,130
16,192,5758,2,0,B|160:192,1,130
152,48,6085,5,0
152,48,6167,1,0
152,48,6248,1,0
360,48,6412,1,0
360,48,6494,1,0
360,48,6576,1,0
256,144,6739,1,0
256,144,6821,1,0
256,144,6903,1,0
320,272,7067,5,0
288,304,7148,1,0
256,336,7230,1,0
224,304,7312,1,0
192,272,7394,1,0
72,192,7558,5,0
192,112,7721,1,0
72,32,7885,1,0
192,112,8049,1,0
72,192,8212,1,0
192,272,8376,1,0
72,352,8539,1,0
192,272,8703,5,0
192,272,8785,1,0
192,272,8867,1,0
312,192,9030,1,0
312,192,9112,1,0
312,192,9194,1,0
192,112,9358,1,0
192,112,9439,1,0
192,112,9521,1,0
72,192,9685,1,0
72,192,9767,1,0
72,192,9849,1,0
40,328,10012,5,0
80,312,10094,1,0
120,296,10176,1,0
152,272,10258,1,0
176,240,10339,1,0
192,192,10421,1,0
176,144,10503,1,0
152,120,10585,1,0
120,88,10667,1,0
80,64,10749,1,0
40,48,10830,2,0,B|-24:24,6,65
320,104,11649,6,0,B|416:104|416:280|304:280,1,260
32,192,12303,1,0
32,192,12467,1,0
144,104,12630,2,0,B|232:104|232:104|232:152,1,130
144,280,12958,2,0,B|232:280|232:280|232:224,1,130
368,192,13285,2,0,B|304:80,1,130
368,192,13612,2,0,B|296:320,1,130
440,344,13940,2,0,B|440:280|440:280|504:280,1,130
432,32,14267,2,0,B|432:96|432:96|504:96,1,130
368,192,14594,6,0,B|216:192,1,130
96,192,14921,1,0
96,192,15003,1,0
96,192,15085,1,0
96,192,15167,1,0
96,192,15249,1,0
216,112,15412,5,0
96,32,15576,1,0
216,272,15740,1,0
96,352,15903,1,0
96,192,16067,2,0,B|32:144|32:80,1,130
96,192,16394,2,0,B|32:240|32:304,1,130
168,352,16721,2,0,B|256:352|256:352|256:280,1,130
168,32,17049,2,0,B|256:32|256:32|256:96,1,130
336,192,17376,5,0
448,264,17540,1,0
448,224,17621,1,0
448,192,17703,1,0
448,152,17785,1,0
448,104,17867,1,0
304,104,18031,6,0,B|424:16,1,130
208,104,18358,2,0,B|96:24,1,130
208,280,18685,2,0,B|88:368,1,130
304,280,19012,2,0,B|416:360,1,130
409,355,19503,1,0
256,112,19831,1,0
104,352,20158,1,0
96,64,20485,5,0
96,104,20567,1,0
96,144,20649,1,0
96,184,20731,1,0
128,192,20812,1,0
168,192,20894,1,0
208,192,20976,1,0
248,192,21058,1,0
288,192,21140,1,0
328,192,21221,1,0
368,192,21303,5,0
400,184,21385,1,0
400,144,21467,1,0
400,104,21549,1,0
400,64,21631,1,0
360,64,21712,1,0
320,64,21794,1,0
256,192,21876,12,0,23103
256,272,23349,5,0
256,272,23431,1,0
256,128,23594,2,0,B|168:128|136:192,1,130
256,128,23922,2,0,B|344:128|392:208,1,130
256,272,24249,1,0
136,344,24412,6,0,B|64:288|64:288|128:288|128:288|96:216,1,195
111,251,24740,1,0
32,128,24903,1,0
32,128,24985,1,0
152,48,25149,1,0
152,48,25231,1,0
272,128,25394,1,0
272,128,25476,1,0
392,48,25640,5,0
392,48,25722,2,0,B|480:128|392:224,1,195
396,218,26049,1,0
320,336,26212,2,0,B|256:208,1,130
184,336,26540,2,0,B|112:320|112:240,1,130
112,241,26785,1,0
8,160,26949,1,0
8,160,27031,6,0,B|16:48|136:24,1,195
127,25,27358,1,0
216,136,27522,2,0,B|256:0,1,130
216,248,27849,2,0,B|264:376,1,130
304,192,28176,1,0
416,280,28340,6,0,B|504:192|408:104,1,195
414,110,28667,1,0
304,192,28831,1,0
304,192,28913,1,0
304,192,28994,2,0,B|160:192,1,130
176,336,29322,2,0,B|136:272|64:272,1,130
32,136,29649,6,0,B|80:32|208:32,1,195
185,32,29976,1,0
320,80,30140,1,0
320,80,30222,1,0
320,80,30303,1,0
208,168,30467,1,0
208,168,30549,1,0
328,248,30713,1,0
328,248,30794,1,0
224,344,30958,6,0,B|128:368|128:368|32:304,1,195
48,240,31285,1,0
128,120,31449,1,0
160,120,31531,1,0
192,120,31613,1,0
424,48,31776,1,0
384,48,31858,1,0
352,48,31940,1,0
352,48,32103,1,0
256,192,32267,12,0,33576
256,192,33904,5,0
120,160,34067,2,0,B|16:80,1,130
160,80,34394,2,0,B|320:80,1,130
432,80,34722,2,0,B|376:200,1,130
377,197,35213,1,0
320,328,35376,5,0
256,200,35540,1,0
192,328,35704,1,0
344,240,35867,1,0
160,240,36031,1,0
256,344,36194,6,0,B|256:56,1,260
112,80,36685,2,0,B|80:80|80:80|80:112|80:112|16:112,1,130
400,80,37013,2,0,B|432:80|432:80|432:112|432:112|496:112,1,130
256,192,37340,2,0,B|256:328,1,130
400,320,37667,1,0
112,320,37831,1,0
168,192,37995,2,0,B|112:144|48:144,1,130
344,192,38322,2,0,B|400:144|496:144,1,130
256,32,38649,5,0
256,176,38813,2,0,B|136:184|80:288,1,195
92,267,39140,1,0
208,344,39304,1,0
208,344,39385,1,0
208,344,39467,1,0
208,344,39631,1,0
208,344,39713,1,0
328,264,39876,1,0
328,264,39958,1,0
216,176,40122,6,0,B|184:48|352:32,1,195
312,37,40449,1,0
440,104,40613,1,0
440,136,40695,1,0
440,168,40776,1,0
296,192,40940,1,0
296,224,41022,1,0
152,240,41185,1,0
152,272,41267,1,0
256,192,41431,12,0,44049
256,192,44213,5,0
368,104,44376,1,0
256,16,44540,1,0
144,104,44704,1,0
256,192,44867,2,0,B|256:336,1,130
256,322,45195,1,0
112,320,45358,5,0
112,320,45440,1,0
112,320,45522,1,0
48,192,45686,1,0
48,192,45767,1,0
48,192,45849,1,0
112,64,46013,1,0
112,64,46095,1,0
112,64,46176,1,0
168,192,46340,1,0
168,192,46422,1,0
168,192,46504,1,0
320,192,46667,6,0,B|400:80,1,130
320,192,46995,2,0,B|416:320,1,130
296,352,47322,2,0,B|256:296|256:296|256:208,1,130
216,32,47649,2,0,B|256:88|256:88|256:176,1,130
120,192,47977,5,0
80,192,48058,1,0
48,192,48140,1,0
288,192,48304,1,0
256,192,48386,1,0
216,192,48467,1,0
464,192,48631,1,0
424,192,48713,1,0
392,192,48795,1,0
256,352,49122,5,0
256,336,49204,1,0
256,320,49286,1,0
168,208,49449,1,0
344,208,49613,1,0
256,80,49777,1,0
168,208,49940,1,0
344,208,50104,1,0
256,80,50267,1,0
168,208,50431,1,0
96,80,50595,5,0
72,104,50677,1,0
48,128,50758,1,0
96,304,50922,1,0
72,280,51004,1,0
48,248,51086,1,0
176,192,51249,1,0
208,192,51331,1,0
240,192,51413,1,0
272,192,51495,1,0
304,192,51577,1,0
328,352,51904,5,0
368,352,51986,1,0
368,312,52067,1,0
416,312,52149,1,0
416,272,52231,1,0
416,232,52313,1,0
416,192,52395,1,0
416,152,52477,5,0
416,120,52558,1,0
416,72,52640,1,0
368,72,52722,1,0
368,32,52804,1,0
328,32,52886,2,0,B|256:32,4,65
88,192,53540,6,0,B|360:192,1,260
348,192,54195,1,0
312,192,54277,1,0
280,192,54358,1,0
248,192,54440,1,0
216,192,54522,1,0
208,48,54686,6,0,B|80:80,1,130
208,336,55013,2,0,B|72:296,1,130
176,192,55340,2,0,B|320:192,1,130
448,192,55668,1,0
384,64,55831,5,0
384,64,55913,1,0
384,64,55995,1,0
448,192,56158,1,0
448,192,56240,1,0
448,192,56322,1,0
384,320,56486,1,0
384,320,56568,1,0
384,320,56649,1,0
320,192,56813,1,0
320,192,56895,1,0
320,192,56977,1,0
192,256,57140,6,0,B|48:328,1,130
0,192,57468,2,0,B|160:192,1,130
80,56,57795,2,0,B|224:136,1,130
432,192,58122,2,0,B|272:192,1,130
256,56,58449,5,0
256,88,58531,1,0
256,120,58613,1,0
192,248,58777,1,0
176,280,58859,1,0
160,312,58940,1,0
320,248,59104,1,0
336,280,59186,1,0
352,312,59268,1,0
256,192,59431,5,0
256,192,59513,1,0
256,192,59595,1,0
256,192,59677,1,0
256,192,59759,1,0
128,120,59922,6,0,B|200:72|200:72|160:8,1,130
384,120,60249,2,0,B|312:72|312:72|344:16,1,130
256,160,60577,2,0,B|256:296,1,130
120,336,60904,1,0
88,336,60986,1,0
56,336,61068,1,0
32,312,61149,1,0
32,280,61231,1,0
56,256,61313,1,0
88,248,61395,1,0
120,248,61477,1,0
136,216,61559,1,0
128,184,61640,5,0
104,160,61722,1,0
72,160,61804,1,0
40,160,61886,1,0
24,128,61968,1,0
40,96,62049,1,0
80,80,62131,1,0
120,80,62213,1,0
360,47,62377,1,0
392,47,62459,1,0
424,47,62541,1,0
448,71,62622,1,0
448,103,62704,1,0
424,128,62786,1,0
392,135,62868,1,0
360,136,62950,1,0
344,168,63032,1,0
352,199,63113,5,0
376,223,63195,1,0
408,223,63277,1,0
440,224,63359,1,0
456,256,63441,1,0
440,287,63522,1,0
400,303,63604,1,0
368,304,63686,1,0
80,304,64013,5,0
112,304,64095,1,0
144,304,64177,1,0
56,192,64340,1,0
88,192,64422,1,0
120,192,64504,1,0
80,56,64668,1,0
112,56,64750,1,0
144,56,64831,1,0
288,56,64995,6,0,B|432:56,1,130
224,328,65322,2,0,B|88:328,1,130
40,192,65650,1,0
184,192,65813,1,0
328,192,65977,1,0
432,288,66140,5,0
408,320,66222,1,0
384,344,66304,1,0
352,320,66386,1,0
328,288,66468,1,0
296,320,66550,1,0
272,344,66631,1,0
240,320,66713,1,0
208,288,66795,1,0
176,320,66877,5,0
144,344,66959,1,0
120,320,67040,1,0
96,288,67122,1,0
72,256,67204,1,0
56,224,67286,1,0
48,192,67368,1,0
48,160,67450,1,0
56,128,67531,1,0
72,96,67613,1,0
216,88,67777,6,0,B|352:88,1,130
504,192,68104,2,0,B|360:192,1,130
216,296,68431,2,0,B|368:296,1,130
248,192,68759,1,0
128,264,68922,5,0
96,264,69004,1,0
64,264,69086,1,0
32,240,69168,1,0
24,200,69250,1,0
24,160,69331,1,0
56,128,69413,1,0
96,120,69495,1,0
136,120,69577,1,0
360,104,69741,6,0,B|448:104|448:104|448:64,1,130
360,280,70068,2,0,B|448:280|448:280|448:320,1,130
392,192,70395,1,0
248,192,70559,1,0
392,192,70722,1,0
248,192,70886,1,0
392,192,71050,1,0
248,192,71213,1,0
176,320,71377,6,0,B|112:344,1,65
115,342,71541,2,0,B|48:320,1,65
48,288,71704,1,0
40,256,71786,1,0
32,224,71868,1,0
32,184,71950,1,0
40,152,72031,1,0
56,120,72113,1,0
88,96,72195,1,0
120,88,72277,5,0
160,88,72359,1,0
192,112,72441,1,0
216,144,72522,1,0
216,184,72604,1,0
216,224,72686,1,0
280,352,72850,1,0
312,352,72932,1,0
352,344,73013,1,0
384,320,73095,1,0
400,288,73177,1,0
392,248,73259,1,0
360,224,73341,1,0
328,208,73422,5,0
304,176,73504,1,0
312,144,73586,1,0
352,128,73668,1,0
384,120,73750,1,0
416,104,73832,1,0
432,72,73913,1,0
424,40,73995,1,0
400,16,74077,1,0
360,8,74159,1,0
80,80,74486,5,0
80,80,74568,1,0
80,80,74650,1,0
176,192,74813,1,0
176,192,74895,1,0
176,192,74977,1,0
80,296,75141,1,0
80,296,75222,1,0
80,296,75304,1,0
80,296,75386,1,0
80,296,75468,1,0
224,296,75632,6,0,B|312:296|312:296|336:336,1,130
224,80,75959,2,0,B|312:80|312:80|344:48,1,130
488,192,76286,2,0,B|448:176|448:176|448:208|448:208|376:184,1,130
256,192,76613,1,0
112,192,76777,5,0
112,192,76859,1,0
112,192,76941,1,0
24,80,77104,1,0
24,80,77186,1,0
24,80,77268,1,0
24,296,77432,1,0
24,296,77513,1,0
24,296,77595,1,0
112,192,77759,5,0
112,192,77841,1,0
112,192,77923,1,0
112,192,78004,1,0
112,192,78086,1,0
256,192,78250,6,0,B|320:176|384:192,1,130
328,64,78577,2,0,B|264:32|192:64,1,130
72,120,78904,2,0,B|80:200|160:208,1,130
256,312,79232,1,0
368,224,79395,5,0
392,200,79477,1,0
416,176,79559,1,0
256,160,79723,1,0
256,128,79804,1,0
256,96,79886,1,0
144,224,80050,1,0
120,200,80132,1,0
96,176,80213,1,0
72,152,80295,2,0,B|24:104,5,65
168,88,80868,5,0
256,200,81032,1,0
256,344,81195,1,0
256,200,81359,1,0
400,200,81523,1,0
256,200,81686,1,0
16,352,81850,1,0
16,352,81932,1,0
16,352,82013,5,0
48,344,82095,1,0
72,320,82177,1,0
88,288,82259,1,0
88,248,82341,1,0
64,224,82423,1,0
40,192,82504,1,0
64,160,82586,1,0
88,136,82668,1,0
88,96,82750,1,0
72,64,82832,1,0
48,40,82914,2,0,B|16:32|-16:48,3,65
495,32,83323,5,0
464,40,83405,1,0
440,64,83487,1,0
424,96,83569,1,0
424,136,83651,1,0
448,160,83733,1,0
472,191,83814,1,0
448,224,83896,1,0
423,248,83978,1,0
424,288,84060,1,0
439,319,84142,1,0
464,344,84224,2,0,B|496:352|528:336,5,65
256,192,84795,12,0,85941
256,344,86268,5,0
256,200,86432,1,0
176,88,86595,1,0
216,72,86677,1,0
256,64,86759,1,0
296,72,86841,1,0
336,88,86923,1,0
464,344,87250,6,0,B|424:288|424:288|352:288,1,130
48,344,87577,2,0,B|104:288|104:288|176:288,1,130
256,184,87905,1,0
256,144,87986,1,0
256,104,88068,1,0
256,64,88150,1,0
256,24,88232,1,0
32,200,88559,6,0,B|160:200|80:376|280:352,1,260
256,216,89050,1,0
288,352,89214,1,0
328,352,89295,1,0
368,352,89377,1,0
408,352,89459,1,0
448,352,89541,1,0
344,88,89868,6,0,B|344:192|160:192|160:72,1,260
256,0,90359,2,0,B|256:144,1,130
256,160,90605,1,0
256,200,90686,1,0
256,240,90768,1,0
256,280,90850,1,0
48,352,91177,6,0,B|112:344|112:344|176:352,1,130
464,352,91505,2,0,B|400:344|400:344|288:360,1,130
256,240,91832,1,0
216,208,91914,1,0
160,216,91995,1,0
104,208,92077,1,0
56,176,92159,1,0
312,56,92486,6,0,B|416:128|240:208|360:288,1,260
224,352,92977,1,0
80,336,93141,1,0
48,296,93223,1,0
80,256,93305,1,0
48,216,93386,1,0
88,176,93468,1,0
376,192,93796,6,0,B|440:304,1,130
344,192,94123,2,0,B|424:64,1,130
312,192,94450,1,0
264,192,94532,1,0
224,192,94614,1,0
184,192,94696,1,0
144,192,94777,1,0
432,192,95105,6,0,B|504:80,1,130
72,192,95432,2,0,B|8:72,1,130
184,320,95759,1,0
216,344,95841,1,0
264,352,95923,1,0
312,344,96005,1,0
344,320,96086,1,0
256,32,96414,6,0,B|328:152|256:296,1,260
120,280,96905,1,0
112,136,97068,2,0,B|32:144|24:216,2,130
256,360,97723,2,0,B|216:304|216:304|296:304|296:304|256:240|256:240|256:160,1,260
112,208,98214,5,0
128,64,98377,1,0
256,8,98541,1,0
384,64,98705,1,0
408,208,98868,1,0
256,168,99032,6,0,B|304:224|304:224|256:288|256:288|208:312|152:288,1,260
16,240,99523,2,0,B|56:184|24:112,1,130
160,160,99850,2,0,B|184:72|272:48,1,130
237,60,100177,1,0
384,56,100341,2,0,B|480:168|440:304,1,260
296,296,100832,1,0
152,288,100996,2,0,B|88:312|48:376,2,130
256,24,101650,5,0
376,104,101814,1,0
248,176,101977,1,0
128,248,102141,1,0
248,328,102305,1,0
248,328,102468,5,0
128,248,102632,1,0
248,176,102796,1,0
376,104,102959,1,0
256,24,103123,1,0
120,64,103287,6,0,B|56:64|56:64|56:144,1,130
392,64,103614,2,0,B|456:64|456:64|456:128,1,130
256,56,103941,2,0,B|256:192,1,130
256,328,104268,5,0
256,328,104350,1,0
256,328,104432,1,0
112,328,104596,1,0
112,328,104678,1,0
112,328,104759,1,0
184,200,104923,1,0
184,200,105005,1,0
184,200,105087,1,0
328,200,105250,5,0
328,200,105332,1,0
328,200,105414,1,0
256,72,105578,1,0
256,72,105659,1,0
256,72,105741,1,0
112,72,105905,1,0
112,72,105987,1,0
112,72,106068,1,0
40,200,106232,5,0
40,200,106314,1,0
40,200,106396,1,0
184,200,106559,1,0
184,200,106641,1,0
184,200,106723,1,0
368,64,106887,5,0
376,72,106968,1,0
384,80,107050,1,0
392,88,107132,1,0
400,96,107214,1,0
408,104,107296,1,0
416,112,107378,1,0
424,120,107459,1,0
432,128,107541,1,0
440,136,107623,1,0
448,144,107705,1,0
456,152,107787,1,0
464,160,107869,2,0,B|368:264,1,130
208,272,108196,5,0
204,266,108277,1,0
200,256,108359,1,0
195,245,108441,1,0
190,235,108523,1,0
185,225,108605,1,0
180,214,108687,1,0
176,204,108768,1,0
171,194,108850,1,0
166,184,108932,1,0
161,173,109014,1,0
156,163,109096,1,0
152,153,109178,2,0,B|277:88,1,130
384,96,109505,5,0
424,112,109587,1,0
448,152,109669,1,0
448,192,109750,1,0
416,192,109832,1,0
376,192,109996,1,0
344,200,110078,1,0
320,224,110159,1,0
304,256,110241,1,0
288,288,110323,1,0
272,312,110405,1,0
256,344,110487,2,0,B|120:344,1,130
24,240,110814,5,0
56,240,110896,1,0
88,240,110978,1,0
120,240,111059,1,0
144,208,111141,1,0
144,168,111223,1,0
112,152,111305,1,0
72,152,111387,1,0
32,152,111469,1,0
8,120,111550,1,0
8,88,111632,1,0
32,56,111714,1,0
64,48,111796,2,0,B|128:48|128:48|128:-16,1,130
256,32,112123,1,0
256,32,112287,6,0,B|256:160,1,130
392,192,112614,2,0,B|272:280,1,130
120,192,112941,2,0,B|232:272,1,130
256,128,113269,1,0
120,80,113432,5,0
104,112,113514,1,0
96,144,113596,1,0
96,184,113678,1,0
104,216,113760,1,0
120,248,113841,1,0
152,272,113923,1,0
184,280,114005,1,0
224,288,114087,1,0
256,288,114169,5,0
288,288,114250,1,0
320,280,114332,1,0
360,272,114414,1,0
392,248,114496,1,0
408,216,114578,1,0
408,184,114660,1,0
256,192,114741,12,0,117360
248,312,117523,6,0,B|176:352|136:296|136:256,1,130
263,72,117851,2,0,B|335:32|376:88|376:128,1,130
256,192,118178,1,0
128,120,118341,1,0
128,264,118505,1,0
16,352,118669,5,0
16,312,118751,1,0
16,280,118832,1,0
128,192,118996,1,0
88,192,119078,1,0
48,192,119160,1,0
128,72,119323,1,0
160,72,119405,1,0
192,72,119487,1,0
328,120,119651,1,0
336,152,119732,1,0
320,184,119814,1,0
256,312,119978,5,0
392,352,120141,1,0
496,256,120305,1,0
496,112,120469,1,0
392,16,120632,1,0
256,72,120796,1,0
336,192,120960,1,0
192,192,121123,1,0
64,120,121287,6,0,B|32:64,2,65
184,192,121614,1,0
184,192,121696,1,0
184,192,121778,1,0
64,264,121941,2,0,B|24:336,2,65
184,192,122269,1,0
184,192,122351,1,0
184,192,122432,1,0
184,192,122514,1,0
184,192,122596,1,0
256,72,122760,6,0,B|320:64|320:64|400:80,1,130
472,192,123087,2,0,B|336:192,1,130
256,304,123414,2,0,B|320:312|320:312|432:296,1,130
296,192,123742,1,0
152,192,123905,1,0
152,192,123987,1,0
152,192,124069,1,0
40,96,124232,5,0
40,96,124314,1,0
40,96,124396,1,0
176,40,124560,1,0
176,40,124642,1,0
176,40,124723,1,0
304,104,124887,1,0
304,104,124969,1,0
304,104,125051,1,0
400,216,125214,5,0
392,256,125296,1,0
376,288,125378,1,0
352,320,125460,1,0
320,336,125542,1,0
288,336,125623,1,0
256,312,125705,1,0
232,280,125787,1,0
232,248,125869,1,0
256,216,125951,5,0
304,224,126032,1,0
320,272,126114,1,0
304,312,126196,1,0
296,320,126278,1,0
272,336,126360,1,0
240,344,126442,1,0
200,352,126523,1,0
80,312,126851,5,0
80,312,126932,1,0
80,312,127014,1,0
0,192,127178,1,0
0,192,127260,1,0
0,192,127342,1,0
80,72,127505,1,0
80,72,127587,1,0
80,72,127669,1,0
216,120,127833,6,0,B|304:24,1,130
216,264,128160,2,0,B|328:376,1,130
408,256,128487,2,0,B|456:192|408:128,2,130
280,192,128978,1,0
136,192,129142,5,0
136,232,129223,1,0
136,280,129305,1,0
24,192,129469,1,0
24,192,129551,1,0
24,192,129633,1,0
136,104,129796,1,0
136,152,129878,1,0
136,192,129960,1,0
280,192,130123,1,0
280,192,130205,1,0
280,192,130287,1,0
256,48,130451,6,0,B|344:48|344:48|304:16,1,130
256,336,130778,2,0,B|344:336|344:336|296:376,1,130
256,232,131105,2,0,B|320:264|400:232,1,130
256,152,131433,2,0,B|320:120|392:152,1,130
480,248,131760,1,0
480,288,131842,1,0
480,328,131923,1,0
480,136,132087,1,0
480,96,132169,1,0
480,56,132251,1,0
480,248,132414,5,0
480,288,132496,1,0
480,328,132578,1,0
480,136,132742,1,0
480,96,132824,1,0
480,56,132905,1,0
480,56,132987,1,0
480,56,133069,1,0
368,128,133233,6,0,B|320:192|368:256,1,130
232,192,133560,2,0,B|96:192,1,130
40,64,133887,1,0
40,320,134051,1,0
256,192,134214,1,0
400,192,134378,5,0
432,192,134460,1,0
464,192,134542,1,0
256,128,134705,1,0
256,96,134787,1,0
256,64,134869,1,0
112,192,135033,1,0
80,192,135114,1,0
48,192,135196,1,0
256,352,135360,5,0
288,336,135442,1,0
320,304,135524,1,0
328,264,135605,1,0
320,224,135687,1,0
288,208,135769,1,0
256,208,135851,1,0
224,232,135933,1,0
184,248,136014,1,0
144,256,136096,1,0
104,248,136178,5,0
80,224,136260,1,0
80,192,136342,1,0
88,152,136424,1,0
112,112,136505,1,0
136,88,136587,1,0
168,72,136669,1,0
208,64,136751,1,0
240,56,136833,1,0
360,56,136996,5,0
360,56,137078,1,0
360,56,137160,1,0
488,192,137324,1,0
488,192,137405,1,0
488,192,137487,1,0
360,328,137651,1,0
360,328,137733,1,0
360,328,137815,1,0
488,192,137978,1,0
488,192,138060,1,0
488,192,138142,1,0
488,192,138224,1,0
488,192,138305,1,0
136,192,138633,6,0,B|64:80|64:80|184:80,1,194.999994188547
136,192,138960,2,0,B|64:288|64:288|160:288,1,194.999994188547
248,152,139287,2,0,B|288:88|392:88|416:136|416:240|392:288|288:288|240:216,1,389.999988377095
88,192,139778,5,0
168,352,139942,1,0
344,352,140105,1,0
424,192,140269,1,0
320,48,140433,1,0
256,208,140596,1,0
192,48,140760,1,0
88,192,140924,6,0,B|88:320|216:320,1,194.999994188547
256,152,141251,2,0,B|256:24|424:24,1,194.999994188547
448,192,141578,2,0,B|448:320|296:320,1,194.999994188547
200,192,141905,2,0,B|184:80|96:152|80:48,1,194.999994188547
312,192,142233,2,0,B|328:80|416:152|440:32,1,194.999994188547
256,344,142560,5,0
256,344,142642,1,0
256,344,142724,1,0
168,192,142887,1,0
168,192,142969,1,0
168,192,143051,1,0
256,40,143215,1,0
256,40,143296,1,0
256,40,143378,1,0
352,192,143542,6,0,B|456:8,1,194.999994188547
432,200,143869,2,0,B|328:376,1,194.999994188547
288,192,144196,1,0
160,72,144360,1,0
32,192,144524,1,0
160,312,144687,1,0
336,312,144851,5,0
464,192,145015,1,0
336,72,145178,1,0
208,192,145342,1,0
256,24,145506,1,0
80,24,145669,1,0
256,24,145833,1,0
80,24,145996,1,0
216,136,146160,5,0
392,136,146324,1,0
216,136,146487,1,0
392,136,146651,1,0
256,248,146815,1,0
80,248,146978,1,0
256,248,147142,5,0
80,248,147306,1,0
224,344,147469,1,0
400,344,147633,1,0
224,344,147797,1,0
400,344,147960,1,0
488,192,148124,6,0,B|352:32,1,194.999994188547
256,192,148451,2,0,B|280:200|280:200|232:200|232:200|256:216|256:216|256:320,1,194.999994188547
24,192,148778,2,0,B|152:40,1,194.999994188547
328,40,149106,6,0,B|296:104|296:104|216:104|216:104|216:176,1,194.999994188547
328,344,149433,2,0,B|304:280|304:280|216:280|216:280|216:208,1,194.999994188547
48,192,149760,1,0
48,192,149924,1,0
224,192,150087,1,0
224,192,150251,1,0
400,192,150415,1,0
400,192,150578,1,0
256,296,150742,6,0,B|64:336,1,194.999994188547
256,216,151069,2,0,B|448:288,1,194.999994188547
256,136,151397,2,0,B|48:208,1,194.999994188547
256,56,151724,2,0,B|448:144,1,194.999994188547
400,312,152051,5,0
256,216,152215,1,0
112,312,152378,1,0
112,136,152542,1,0
112,312,152706,1,0
0,176,152869,5,0
96,32,153033,1,0
256,112,153197,1,0
408,32,153360,1,0
512,176,153524,1,0
336,192,153688,1,0
256,344,153851,1,0
176,192,154015,1,0
256,40,154178,1,0
96,112,154342,6,0,B|40:192|88:304,1,194.999994188547
256,248,154669,2,0,B|256:32,1,194.999994188547
424,112,154997,2,0,B|480:192|424:320,1,194.999994188547
256,320,155324,2,0,B|152:320|152:320|88:224,1,194.999994188547
256,320,155651,2,0,B|360:320|360:320|424:224,1,194.999994188547
256,160,155978,1,0
160,8,156142,2,0,B|360:8,1,194.999994188547
448,160,156469,5,0
352,328,156633,2,0,B|240:368|160:328,1,194.999994188547
256,168,156960,1,0
72,168,157124,1,0
256,168,157288,1,0
256,0,157451,1,0
256,168,157615,1,0
448,160,157779,1,0
256,192,157942,12,0,159251
