osu file format v14

[General]
AudioFilename: nine.mp3
AudioLeadIn: 0
PreviewTime: 85394
Countdown: 0
SampleSet: Soft
StackLeniency: 0.7
Mode: 0
LetterboxInBreaks: 0
WidescreenStoryboard: 1

[Editor]
DistanceSpacing: 2
BeatDivisor: 8
GridSize: 4
TimelineZoom: 1

[Metadata]
Title:Strangeulation Cypher
TitleUnicode:Strangeulation Cypher
Artist:Tech N9ne
ArtistUnicode:Tech N9ne
Creator:Loughje
Version:Insane
Source:
Tags:
BeatmapID:903975
BeatmapSetID:417250

[Difficulty]
HPDrainRate:6
CircleSize:4
OverallDifficulty:7
ApproachRate:9
SliderMultiplier:3.3
SliderTickRate:1

[Events]
//Background and Video events
0,0,"meh.ro11593.jpg",0,0
//Break Periods
//Storyboard Layer 0 (Background)
//Storyboard Layer 1 (Fail)
//Storyboard Layer 2 (Pass)
//Storyboard Layer 3 (Foreground)
//Storyboard Sound Samples

[TimingPoints]
561,666.666666666667,4,2,0,80,1,0
85894,-100,4,2,0,80,0,1
96561,-100,4,2,0,40,0,0
107195,-100,4,2,0,80,0,0

[Colours]
Combo1 : 26,116,242
Combo2 : 176,66,242
Combo3 : 37,185,239
Combo4 : 23,209,116
Combo5 : 226,45,124

[HitObjects]
136,168,11227,6,0,P|192:108|336:164,1,247.5
248,264,11894,1,8,0:0:0:0:
56,228,12394,1,8,0:0:0:0:
76,84,12561,1,0,0:0:0:0:
148,248,12727,1,8,0:0:0:0:
296,112,13061,5,0,0:0:0:0:
424,232,13227,1,8,0:0:0:0:
448,104,13394,1,0,0:0:0:0:
344,288,13561,1,0,0:0:0:0:
364,160,13727,1,0,0:0:0:0:
208,152,13894,2,0,P|196:112|200:68,1,82.5
256,244,14227,2,0,P|268:284|264:328,1,82.5
76,272,14561,5,0,0:0:0:0:
112,96,14727,1,0,0:0:0:0:
176,260,14894,1,0,0:0:0:0:
288,160,15061,1,0,0:0:0:0:
200,64,15227,2,0,P|244:40|288:36,2,82.5
288,160,15727,1,0,0:0:0:0:
176,260,15894,2,0,P|244:308|344:296,2,165,0|2|0,0:0|0:0|0:0,0:0:0:0:
344,228,17061,5,0,0:0:0:0:
204,128,17227,1,8,0:0:0:0:
376,128,17394,1,0,0:0:0:0:
240,228,17561,1,0,0:0:0:0:
292,60,17727,1,8,0:0:0:0:
228,252,17894,1,0,0:0:0:0:
404,128,18061,1,8,0:0:0:0:
180,128,18227,1,0,0:0:0:0:
364,248,18394,1,0,0:0:0:0:
288,152,18561,5,8,0:0:0:0:
140,208,18727,1,0,0:0:0:0:
176,52,18894,1,0,0:0:0:0:
288,152,19061,1,0,0:0:0:0:
228,252,19227,2,0,P|244:312|268:336,1,82.5,2|0,0:0|0:0,0:0:0:0:
368,348,19561,1,0,0:0:0:0:
364,248,19727,1,0,0:0:0:0:
412,160,19894,2,0,P|444:136|492:136,2,82.5,8|0|0,0:0|0:0|0:0,0:0:0:0:
292,304,20394,6,0,P|244:336|152:296,1,165
92,168,20894,1,0,0:0:0:0:
224,172,21061,1,0,0:0:0:0:
140,72,21227,2,0,B|60:60|60:60|56:88,4,82.5,0|0|0|0|4,0:0|0:0|0:0|0:0|0:0,0:0:0:0:
424,80,22394,5,0,0:0:0:0:
368,220,22561,1,8,0:0:0:0:
280,120,22727,1,0,0:0:0:0:
444,172,22894,1,0,0:0:0:0:
272,248,23061,1,8,0:0:0:0:
148,176,23227,2,0,B|104:160|104:160|52:192,1,82.5,0|8,0:0|0:0,0:0:0:0:
176,272,23561,1,0,0:0:0:0:
188,100,23727,1,0,0:0:0:0:
272,248,23894,2,0,B|304:296|304:296|404:336,2,165,8|0|2,0:0|0:0|0:0,0:0:0:0:
272,248,25061,5,0,0:0:0:0:
136,200,25227,1,8,0:0:0:0:
260,104,25394,1,0,0:0:0:0:
136,200,25561,2,0,P|112:156|112:112,1,82.5
234,28,25894,2,0,P|258:72|258:116,1,82.5
192,260,26227,1,0,0:0:0:0:
320,172,26394,1,0,0:0:0:0:
360,288,26561,2,0,B|244:356|244:356|256:320,2,165,0|2|0,0:0|0:0|0:0,0:0:0:0:
360,288,27727,5,0,0:0:0:0:
240,204,27894,1,8,0:0:0:0:
412,184,28061,1,0,0:0:0:0:
284,268,28227,1,0,0:0:0:0:
272,136,28394,1,8,0:0:0:0:
432,260,28561,1,0,0:0:0:0:
348,140,28727,1,8,0:0:0:0:
176,144,28894,2,0,P|124:176|96:220,1,82.5
272,136,29227,2,0,B|280:76|280:76|360:48|384:16,2,165,8|0|2,0:0|0:0|0:0,0:0:0:0:
272,240,30061,5,0,0:0:0:0:
172,296,30227,2,0,P|120:300|88:200,1,165,0|8,0:0|0:0,0:0:0:0:
168,120,30727,1,0,0:0:0:0:
188,216,30894,1,0,0:0:0:0:
264,140,31061,1,0,0:0:0:0:
356,136,31227,2,0,L|440:124,1,82.5
396,228,31561,2,0,L|324:320,1,82.5
396,228,32561,6,0,P|336:284|220:280,1,165
160,244,33061,1,0,0:0:0:0:
236,112,33227,1,8,0:0:0:0:
276,208,33394,1,0,0:0:0:0:
120,152,33561,1,0,0:0:0:0:
216,320,33727,1,8,0:0:0:0:
80,292,33894,2,0,P|40:256|24:220,1,82.5,0|8,0:0|0:0,0:0:0:0:
120,152,34227,2,0,P|144:108|152:64,1,82.5
288,36,34561,6,0,L|224:24,2,55,8|0|0,0:0|0:0|0:0,0:0:0:0:
368,116,34894,2,0,L|424:132,2,55
256,148,35227,1,2,0:0:0:0:
136,72,35449,2,0,L|80:48,1,55
36,212,35783,1,0,0:0:0:0:
52,260,35894,1,8,0:0:0:0:
96,292,36005,2,0,P|160:324|240:320,1,110
256,320,36338,1,0,0:0:0:0:
156,184,36561,5,0,0:0:0:0:
156,184,36644,1,0,0:0:0:0:
156,184,36727,1,0,0:0:0:0:
156,184,36811,1,0,0:0:0:0:
156,184,36894,1,0,0:0:0:0:
272,80,37061,1,0,0:0:0:0:
300,208,37227,2,0,P|332:248|368:256,1,82.5
408,240,37477,2,0,L|432:200,1,41.25,0|2,0:0|0:0,0:0:0:0:
240,308,37894,5,0,0:0:0:0:
72,288,38227,1,0,0:0:0:0:
172,248,38394,1,0,0:0:0:0:
72,196,38561,2,0,L|120:168,1,41.25,8|0,0:0|0:0,0:0:0:0:
184,132,38727,2,0,L|144:96,1,41.25
64,80,38894,1,0,0:0:0:0:
252,60,39061,2,0,P|296:96|288:200,2,165,8|8|0,0:0|0:0|0:0,0:0:0:0:
148,52,39894,5,8,0:0:0:0:
184,132,40061,1,0,0:0:0:0:
112,172,40227,1,0,0:0:0:0:
290,196,40394,1,0,0:0:0:0:
168,280,40561,2,0,P|224:328|336:304,1,165,2|0,0:0|0:0,0:0:0:0:
408,240,41061,1,0,0:0:0:0:
348,112,41227,1,8,0:0:0:0:
204,208,41394,1,0,0:0:0:0:
310,322,41561,6,0,P|332:280|328:236,1,82.5,0|2,0:0|0:0,0:0:0:0:
225,131,41894,2,0,P|203:173|207:217,1,82.5,0|2,0:0|0:0,0:0:0:0:
331,245,42227,1,0,0:0:0:0:
280,68,42394,1,8,0:0:0:0:
204,208,42561,1,8,0:0:0:0:
352,160,42727,1,0,0:0:0:0:
224,132,42894,1,8,0:0:0:0:
252,284,43061,1,0,0:0:0:0:
