osu file format v12

[General]
AudioFilename: croiX - TeamGrimoire+Amaneko.mp3
AudioLeadIn: 500
PreviewTime: 86924
Countdown: 0
SampleSet: Normal
StackLeniency: 0.7
Mode: 0
LetterboxInBreaks: 0
WidescreenStoryboard: 0

[Editor]
DistanceSpacing: 0.9
BeatDivisor: 2
GridSize: 4

[Metadata]
Title:croiX
TitleUnicode:croiX
Artist:TeamGrimoire+Amaneko
ArtistUnicode:TeamGrimoire+あま猫
Creator:HelloSCV
Version:NOVICE
Source:SOUND VOLTEX BOOTH
Tags:SDVX Roxas hs714 Spectator Konami
BeatmapID:242200
BeatmapSetID:88692

[Difficulty]
HPDrainRate:3
CircleSize:3
OverallDifficulty:3
ApproachRate:4
SliderMultiplier:1.2
SliderTickRate:1

[Events]
//Background and Video events
0,0,"img1351370474.jpg",0,0
//Break Periods
//Storyboard Layer 0 (Background)
//Storyboard Layer 1 (Fail)
//Storyboard Layer 2 (Pass)
//Storyboard Layer 3 (Foreground)
//Storyboard Sound Samples
//Background Colour Transformations
3,100,163,162,255

[TimingPoints]
1550,307.692307692308,4,2,1,30,1,0
1550,-125,4,2,1,30,0,0
8934,333.333333333333,4,2,1,40,1,0
8934,-125,4,2,1,40,0,0
9600,352.941176470588,4,2,1,35,1,0
9600,-125,4,2,1,35,0,0
10305,375,4,2,1,30,1,0
10305,-125,4,2,1,30,0,0
11617,-125,4,2,1,20,0,0
12367,-125,4,2,1,25,0,0
13294,307.692307692308,4,2,1,30,1,0
14217,-100,4,2,1,35,0,0
14832,-100,4,2,1,40,0,0
15140,-100,4,2,1,5,0,0
15755,-100,4,2,1,50,0,0
16986,-100,4,1,1,70,0,1
23447,-100,4,1,2,60,0,1
23601,-100,4,1,1,70,0,1
26524,-100,4,1,1,70,0,0
26832,-100,4,1,1,70,0,1
34524,-100,4,1,2,60,0,1
35294,-100,4,1,1,70,0,1
36601,-100,4,1,1,70,0,0
36678,-100,4,1,1,70,0,1
36755,-100,4,1,1,70,0,0
56993,315.789473684211,4,1,1,70,1,0
57624,324.324324324324,4,1,1,70,1,0
58272,333.333333333333,4,1,1,70,1,0
58938,342.857142857143,4,1,1,70,1,0
59623,352.941176470588,4,1,1,70,1,0
60328,363.636363636364,4,1,1,70,1,0
61055,375,4,1,1,70,1,0
62555,363.636363636364,4,1,1,70,1,0
63282,352.941176470588,4,1,1,70,1,0
63987,342.857142857143,4,1,1,70,1,0
64672,333.333333333333,4,1,1,70,1,0
65338,324.324324324324,4,1,1,70,1,0
65986,315.789473684211,4,1,1,70,1,0
66617,307.692307692308,4,1,1,70,1,0
67232,307.692307692308,4,1,1,70,1,1
67308,-100,4,1,1,70,0,0
68770,-100,4,1,2,60,0,0
68924,-100,4,1,1,70,0,0
71232,-100,4,1,2,60,0,0
71385,-100,4,1,1,70,0,0
72462,-100,4,1,2,60,0,0
72616,-100,4,1,1,70,0,0
73693,-100,4,1,2,60,0,0
73847,-100,4,1,1,70,0,0
78616,-100,4,1,2,60,0,0
78770,-100,4,1,1,70,0,0
79847,-100,4,1,2,60,0,0
80001,-100,4,1,1,70,0,0
81078,-100,4,1,2,60,0,0
81232,-100,4,1,1,70,0,0
82308,-100,4,1,2,60,0,0
82462,-100,4,1,1,70,0,0
83539,-100,4,1,2,60,0,0
83693,-100,4,1,1,70,0,0
86001,-100,4,1,2,60,0,0
86155,-100,4,1,1,70,0,0
86924,-100,4,1,1,70,0,1
93385,-100,4,1,2,60,0,1
93539,-100,4,1,1,70,0,1
96462,-100,4,1,1,70,0,0
96770,-100,4,1,1,80,0,1
104462,-100,4,1,2,60,0,1
105232,-100,4,1,1,80,0,1
106616,-100,4,2,1,40,0,0
111539,-100,4,2,1,20,0,0
116001,-100,4,2,1,5,0,0

[Colours]
Combo1 : 255,255,132
Combo2 : 68,162,255
Combo3 : 255,60,60
Combo4 : 255,170,85

[HitObjects]
100,260,1550,2,0,P|136:288|188:292,1,96,0|2,0:0|0:0,0:0:0:0:
268,240,2165,2,0,P|300:160|404:140,1,192
368,228,3088,1,2,0:0:0:0:
460,204,3396,2,0,P|484:164|480:108,1,96,0|2,0:0|0:0,0:0:0:0:
432,32,4011,6,0,P|392:56|332:60,1,96,0|0,0:0|0:0,0:0:0:0:
248,52,4626,2,0,B|244:104|280:136|280:136|256:184|200:208,1,192,2|0,0:0|0:0,0:0:0:0:
112,204,5550,1,2,0:0:0:0:
32,256,5857,2,0,P|76:288|124:296,1,96,0|2,0:0|0:0,0:0:0:0:
208,272,6473,5,2,0:0:0:0:
304,264,6780,1,2,0:0:0:0:
372,332,7088,1,2,0:0:0:0:
400,240,7396,2,0,L|424:136,1,96,0|2,0:0|0:0,0:0:0:0:
448,56,8011,1,0,0:0:0:0:
356,84,8319,2,0,P|308:96|256:88,1,96,2|0,0:0|0:0,0:0:0:0:
172,92,8934,6,0,P|136:128|128:172,1,96,0|2,0:0|0:0,0:0:0:0:
84,248,9600,2,0,P|133:261|175:246,1,96,0|2,0:0|0:0,0:0:0:0:
264,248,10305,6,0,P|250:198|216:169,1,96,0|2,0:0|0:0,0:0:0:0:
132,176,11055,1,0,0:0:0:0:
84,248,11430,1,2,0:0:0:0:
256,192,11617,12,0,15140,0:0:0:0:
184,240,15755,6,0,B|200:192|180:148|180:148|160:104|180:60,2,180,2|0|2,0:0|0:0|0:0,0:0:0:0:
92,268,16986,6,0,P|128:316|184:332,1,120,4|8,0:2|0:0,0:0:0:0:
236,328,17447,1,0,0:0:0:0:
276,292,17601,2,0,P|328:256|396:256,1,120,0|8,0:0|0:0,0:0:0:0:
484,292,18217,2,0,L|488:172,1,120,0|8,0:0|0:0,0:0:0:0:
488,120,18678,1,0,0:0:0:0:
488,64,18832,2,0,P|436:100|372:104,1,120,0|8,0:0|0:0,0:0:0:0:
344,208,19447,6,0,P|290:176|264:120,1,120,0|8,0:0|0:0,0:0:0:0:
252,72,19909,1,0,0:0:0:0:
248,20,20063,2,0,P|208:56|128:72,1,120,0|8,0:0|0:0,0:0:0:0:
36,76,20678,1,0,0:0:0:0:
60,184,20987,2,0,L|40:244,2,60,8|0|0,0:0|0:0|0:0,0:0:0:0:
160,228,21601,1,8,0:0:0:0:
268,220,21909,6,0,B|268:184|248:160|248:160|284:112,1,120,0|8,0:0|0:0,0:0:0:0:
360,44,22524,1,0,0:0:0:0:
428,128,22832,1,8,0:0:0:0:
416,236,23140,2,0,B|353:230|353:230|348:279|308:312|262:317|220:292,1,240
116,324,24063,1,8,0:0:0:0:
36,252,24370,6,0,P|7:198|15:136,1,120,0|8,0:0|0:0,0:0:0:0:
48,36,24986,1,0,0:0:0:0:
152,12,25294,1,8,0:0:0:0:
224,92,25601,1,0,0:0:0:0:
216,200,25909,2,0,P|156:184|124:136,2,120,8|0|8,0:0|0:0|0:0,0:0:0:0:
196,308,26832,6,0,P|256:296|328:308,1,120,4|8,0:2|0:0,0:0:0:0:
368,316,27294,1,0,0:0:0:0:
416,288,27447,2,0,P|457:248|470:184,1,120,0|8,0:0|0:0,0:0:0:0:
476,80,28063,2,0,P|416:96|356:84,1,120,0|8,0:0|0:0,0:0:0:0:
308,80,28524,1,0,0:0:0:0:
264,52,28678,2,0,L|204:180,1,120,0|8,0:0|0:0,0:0:0:0:
108,184,29294,6,0,P|134:232|190:260,1,120,0|8,0:0|0:0,0:0:0:0:
244,248,29755,1,0,0:0:0:0:
292,220,29909,2,0,P|352:208|408:232,1,120,0|8,0:0|0:0,0:0:0:0:
344,320,30524,1,0,0:0:0:0:
236,340,30832,2,0,L|164:364,2,60,8|0|0,0:0|0:0|0:0,0:0:0:0:
180,248,31447,1,8,0:0:0:0:
108,168,31755,6,0,B|132:144|172:140|172:140|192:80,1,120,0|8,0:0|0:0,0:0:0:0:
292,72,32370,2,0,L|255:186,1,120,0|8,0:0|0:0,0:0:0:0:
220,288,32986,2,0,P|280:292|336:252,2,120,0|8|0,0:0|0:0|0:0,0:0:0:0:
152,204,33909,1,8,0:0:0:0:
52,172,34217,6,0,P|112:108|248:164,2,240
68,280,35755,1,8,0:0:0:0:
176,260,36063,2,0,P|232:256|292:288,1,120,0|8,0:0|0:0,0:0:0:0:
368,336,36678,6,0,L|420:220,1,120,4|8,0:2|0:0,0:0:0:0:
376,140,37294,1,0,0:0:0:0:
368,44,37601,1,8,0:0:0:0:
288,96,37909,2,0,P|240:124|176:120,2,120,0|8|0,0:0|0:0|0:0,0:0:0:0:
216,32,38832,1,8,0:0:0:0:
120,40,39140,6,0,P|80:88|76:152,1,120,0|8,0:0|0:0,0:0:0:0:
80,240,39755,1,0,0:0:0:0:
160,296,40063,1,8,0:0:0:0:
252,268,40370,2,0,P|308:248|376:264,1,120,0|8,0:0|0:0,0:0:0:0:
432,328,40986,2,0,P|376:348|308:332,1,120,0|8,0:0|0:0,0:0:0:0:
252,268,41601,6,0,P|280:216|274:157,1,120,2|4,2:2|0:0,0:0:0:0:
212,84,42217,1,0,0:0:0:0:
112,80,42524,1,8,0:0:0:0:
48,152,42832,2,0,P|41:210|72:264,2,120,0|8|0,0:0|0:0|0:0,0:0:0:0:
136,192,43755,1,8,0:0:0:0:
200,120,44063,6,0,P|228:171|222:230,1,120,0|8,0:0|0:0,0:0:0:0:
180,320,44678,1,0,0:0:0:0:
268,356,44986,1,8,0:0:0:0:
356,320,45294,2,0,P|404:284|408:216,1,120,0|8,0:0|0:0,0:0:0:0:
376,140,45909,2,0,P|328:176|324:244,1,120,0|8,0:0|0:0,0:0:0:0:
224,228,46524,6,0,L|112:180,1,120,6|8,0:2|0:0,0:0:0:0:
52,108,47140,1,2,0:2:0:0:
92,20,47447,1,8,0:0:0:0:
188,16,47755,2,0,L|324:28,2,120,2|8|2,0:2|0:0|0:2,0:0:0:0:
148,104,48678,1,8,0:0:0:0:
176,192,48986,6,0,P|204:248|192:320,1,120,2|8,0:2|0:0,0:0:0:0:
108,268,49601,1,2,0:2:0:0:
80,176,49909,1,8,0:0:0:0:
144,104,50217,2,0,L|264:72,1,120,2|8,0:2|0:0,0:0:0:0:
291,161,50832,2,0,L|176:192,1,120,2|8,0:2|0:0,0:0:0:0:
192,288,51447,6,4,B|252:272|252:272|312:300,1,120,2|8,0:2|0:0,0:2:0:0:
396,332,52063,1,2,0:2:0:0:
476,280,52370,1,8,0:0:0:0:
452,188,52678,2,0,P|433:131|445:64,2,120,2|8|2,0:2|0:0|0:2,0:0:0:0:
356,172,53601,1,8,0:0:0:0:
296,96,53909,6,0,P|248:64|180:60,1,120,2|8,0:2|0:0,0:0:0:0:
212,152,54524,2,0,P|160:177|122:234,1,120,2|8,0:2|0:0,0:0:0:0:
144,320,55140,2,0,P|200:296|264:308,1,120,2|8,0:2|0:0,0:0:0:0:
348,336,55755,1,2,0:2:0:0:
440,312,56063,1,8,0:0:0:0:
456,216,56370,6,0,P|452:152|416:100,1,120,6|8,0:2|0:0,0:0:0:0:
328,128,56993,2,0,P|272:144|208:120,1,120,2|8,0:2|0:0,0:0:0:0:
184,36,57624,6,0,P|132:72|116:128,1,120,2|8,0:2|0:0,0:0:0:0:
136,216,58272,2,0,P|188:232|232:288,1,120,2|8,0:2|0:0,0:0:0:0:
244,372,58938,6,0,B|284:364|304:336|304:336|360:332,1,120,2|8,0:2|0:0,0:0:0:0:
416,264,59623,2,0,P|360:240|336:188,1,120,2|8,0:2|0:0,0:0:0:0:
360,100,60328,6,0,P|300:100|252:140,1,120,2|8,0:2|0:0,0:0:0:0:
204,212,61055,2,0,L|120:108,1,120,2|8,0:2|0:0,0:0:0:0:
44,164,61805,6,0,L|119:257,1,120,2|8,0:2|0:0,0:0:0:0:
196,316,62555,2,0,P|252:300|312:320,1,120,2|8,0:2|0:0,0:0:0:0:
404,344,63282,6,0,P|420:292|408:228,1,120,2|8,0:2|0:0,0:0:0:0:
444,136,63987,2,0,P|380:132|320:176,1,120,2|8,0:2|0:0,0:0:0:0:
272,236,64672,6,0,L|176:136,1,120,2|8,0:2|0:0,0:0:0:0:
92,172,65338,2,0,L|175:258,1,120,2|8,0:2|0:0,0:0:0:0:
244,328,65986,6,0,P|304:329|352:288,1,120,2|8,0:2|0:0,0:0:0:0:
377,200,66617,2,0,P|317:199|272:236,1,120,2|8,0:2|0:0,0:0:0:0:
176,240,67232,6,0,L|93:154,1,120,4|8,0:2|0:0,0:0:0:0:
44,72,67847,1,0,0:0:0:0:
140,64,68155,1,8,0:0:0:0:
228,28,68462,2,0,B|248:88|208:140|208:140|260:188|332:176,1,240
412,152,69385,1,8,0:0:0:0:
408,248,69693,6,0,P|364:284|344:348,1,120,0|8,0:0|0:0,0:0:0:0:
248,332,70308,1,0,0:0:0:0:
196,252,70616,1,8,0:0:0:0:
208,156,70924,2,0,B|140:152|104:200|104:200|104:132|52:92,1,240
12,180,71847,1,8,0:0:0:0:
44,272,72155,6,0,B|88:312|144:288|144:288|176:292|204:340,2,180,0|0|8,0:0|0:0|0:0,0:0:0:0:
108,200,73385,2,0,P|136:124|88:28,2,180,0|0|8,0:0|0:0|0:0,0:0:0:0:
204,204,74616,6,0,P|268:216|320:184,1,120,0|8,0:0|0:0,0:0:0:0:
360,108,75232,2,0,P|296:96|244:128,1,120,0|8,0:0|0:0,0:0:0:0:
204,204,75847,1,0,0:0:0:0:
180,296,76155,1,8,0:0:0:0:
84,300,76462,1,0,0:0:0:0:
56,208,76770,1,8,0:0:0:0:
128,148,77078,6,0,P|80:120|12:128,1,120,4|8,0:2|0:0,0:0:0:0:
56,36,77693,2,0,B|88:36|116:44|116:44|136:36|180:36,1,120,0|8,0:0|0:0,0:0:0:0:
272,40,78308,2,0,B|264:104|208:124|208:124|224:192|304:212,1,240
392,224,79232,1,8,0:0:0:0:
376,128,79539,6,0,P|296:208|356:316,1,240
428,356,80462,1,8,0:0:0:0:
343,309,80769,2,0,P|232:272|116:312,1,240
40,256,81693,1,8,0:0:0:0:
40,160,82001,6,0,B|57:107|96:96|136:84|149:19,2,180,0|0|8,0:0|0:0|0:0,0:0:0:0:
136,172,83232,2,0,P|208:156|288:220,2,180,0|0|8,0:0|0:0|0:0,0:0:0:0:
196,248,84462,5,0,0:0:0:0:
276,304,84770,1,8,0:0:0:0:
368,280,85078,1,0,0:0:0:0:
376,184,85385,1,8,0:0:0:0:
432,103,85693,2,0,P|461:208|368:280,1,240
296,220,86616,1,8,0:0:0:0:
284,124,86924,6,0,P|244:76|172:56,1,120,4|8,0:2|0:0,0:0:0:0:
136,64,87385,1,0,0:0:0:0:
108,108,87539,2,0,P|92:168|36:208,1,120,0|8,0:0|0:0,0:0:0:0:
12,304,88155,2,0,L|144:288,1,120,0|8,0:0|0:0,0:0:0:0:
184,272,88616,1,0,0:0:0:0:
216,228,88770,2,0,L|328:308,1,120,0|8,0:0|0:0,0:0:0:0:
416,332,89385,6,0,P|416:272|384:224,1,120,0|8,0:0|0:0,0:0:0:0:
336,196,89847,1,0,0:0:0:0:
296,160,90001,2,0,P|276:108|296:36,1,120,0|8,0:0|0:0,0:0:0:0:
180,48,90616,1,0,0:0:0:0:
96,116,90924,2,0,L|36:160,2,60,8|0|0,0:0|0:0|0:0,0:0:0:0:
144,212,91539,1,8,0:0:0:0:
236,272,91847,6,0,P|292:264|360:292,1,120,0|8,0:0|0:0,0:0:0:0:
448,336,92462,1,0,0:0:0:0:
432,228,92770,1,8,0:0:0:0:
452,120,93078,2,0,B|388:112|344:160|344:160|292:144|280:64,1,240
172,52,94001,1,8,0:0:0:0:
184,160,94308,6,0,P|176:220|136:272,1,120,0|8,0:0|0:0,0:0:0:0:
44,312,94924,1,0,0:0:0:0:
140,360,95232,1,8,0:0:0:0:
244,332,95539,1,0,0:0:0:0:
296,236,95847,2,0,P|344:208|416:216,2,120,8|0|8,0:0|0:0|0:0,0:0:0:0:
188,232,96770,6,0,P|172:176|196:112,1,120,4|8,0:2|0:0,0:0:0:0:
228,80,97232,1,0,0:0:0:0:
280,72,97385,2,0,L|340:76,2,60,0|0|8,0:0|0:0|0:0,0:0:0:0:
268,180,98001,2,0,P|324:212|348:268,1,120,4|8,0:2|0:0,0:0:0:0:
340,312,98462,1,0,0:0:0:0:
328,364,98616,2,0,L|392:376,2,60,0|0|8,0:0|0:0|0:0,0:0:0:0:
220,364,99232,6,0,P|180:332|160:260,1,120,4|8,0:2|0:0,0:0:0:0:
156,216,99693,1,4,0:2:0:0:
120,176,99847,2,0,L|52:160,2,60,0|0|12,0:0|0:0|0:2,0:0:0:0:
100,68,100462,2,0,L|224:44,1,120,0|12,0:0|0:2,0:0:0:0:
324,36,101078,1,0,0:0:0:0:
404,112,101385,1,12,0:2:0:0:
464,200,101693,6,0,P|404:220|348:200,1,120,0|8,0:0|0:0,0:0:0:0:
256,156,102308,1,0,0:0:0:0:
160,204,102616,1,8,0:0:0:0:
160,312,102924,2,0,P|100:296|60:244,1,120,0|8,0:0|0:0,0:0:0:0:
64,144,103539,2,0,P|96:92|88:20,1,120,0|8,0:0|0:0,0:0:0:0:
196,68,104155,6,0,P|264:112|408:44,2,240
180,176,105693,1,8,0:0:0:0:
168,284,106001,2,0,P|140:340|80:368,1,120,0|8,0:0|0:0,0:0:0:0:
84,260,106616,6,0,B|108:176|219:177|248:248|248:248|328:248|352:160,1,360,4|2,0:0|0:0,0:0:0:0:
328,68,107847,2,0,B|320:172|424:212|424:212|396:308|304:332,1,360,0|2,0:0|0:0,0:0:0:0:
216,324,109078,6,0,P|252:212|72:88,1,360,0|2,0:0|0:0,0:0:0:0:
64,180,110308,2,0,B|160:192|180:96|180:96|284:56|360:144,1,360,2|0,0:0|0:0,0:0:0:0:
392,232,111539,1,4,0:0:0:0:
256,192,111693,12,0,116001,0:0:0:0:
