osu file format v12

[General]
AudioFilename: croiX - TeamGrimoire+Amaneko.mp3
AudioLeadIn: 500
PreviewTime: 86924
Countdown: 0
SampleSet: Normal
StackLeniency: 0.7
Mode: 0
LetterboxInBreaks: 0
WidescreenStoryboard: 0

[Editor]
DistanceSpacing: 1
BeatDivisor: 4
GridSize: 4

[Metadata]
Title:croiX
TitleUnicode:croiX
Artist:TeamGrimoire+Amaneko
ArtistUnicode:TeamGrimoire+あま猫
Creator:HelloSCV
Version:EXHAUST
Source:SOUND VOLTEX BOOTH
Tags:SDVX Roxas hs714 Spectator Konami
BeatmapID:241578
BeatmapSetID:88692

[Difficulty]
HPDrainRate:7
CircleSize:4
OverallDifficulty:7
ApproachRate:9
SliderMultiplier:1.8
SliderTickRate:2

[Events]
//Background and Video events
0,0,"img1351370474.jpg",0,0
//Break Periods
//Storyboard Layer 0 (Background)
//Storyboard Layer 1 (Fail)
//Storyboard Layer 2 (Pass)
//Storyboard Layer 3 (Foreground)
//Storyboard Sound Samples
//Background Colour Transformations
3,100,163,162,255

[TimingPoints]
1550,307.692307692308,4,2,1,30,1,0
1550,-125,4,2,1,30,0,0
3550,-125,4,2,1,10,0,0
3703,-125,4,2,1,30,0,0
3857,-125,4,2,1,10,0,0
4011,-125,4,2,1,30,0,0
6626,-125,4,2,1,10,0,0
6780,-125,4,2,1,30,0,0
6934,-125,4,2,1,10,0,0
7088,-125,4,2,1,30,0,0
7242,-125,4,2,1,10,0,0
7396,-125,4,2,1,30,0,0
8934,333.333333333333,4,2,1,40,1,0
8934,-125,4,2,1,40,0,0
9600,352.941176470588,4,2,1,35,1,0
9600,-125,4,2,1,35,0,0
10305,375,4,2,1,30,1,0
10305,-125,4,2,1,30,0,0
11523,-125,4,2,1,20,0,0
12367,-125,4,2,1,25,0,0
13294,307.692307692308,4,2,1,30,1,0
14217,-100,4,2,1,35,0,0
14832,-100,4,2,1,40,0,0
15447,-100,4,2,1,5,0,0
15755,-100,4,2,1,50,0,0
16986,-100,4,1,1,70,0,1
26524,-100,4,1,1,70,0,0
26832,-100,4,1,1,70,0,1
35447,-100,4,1,1,55,0,1
35986,-100,4,1,1,70,0,1
36601,-100,4,1,1,70,0,0
36678,-100,4,1,1,70,0,1
36755,-100,4,1,1,70,0,0
50217,-166.666666666667,4,1,1,70,0,0
50524,-125,4,1,1,70,0,0
50832,-100,4,1,1,70,0,0
51140,-83.3333333333333,4,1,1,70,0,0
51447,-100,4,1,1,70,0,0
55140,-166.666666666667,4,1,1,70,0,0
55447,-125,4,1,1,70,0,0
55755,-100,4,1,1,70,0,0
56063,-83.3333333333333,4,1,1,70,0,0
56370,-100,4,1,1,70,0,0
56993,315.789473684211,4,1,1,70,1,0
57624,324.324324324324,4,1,1,70,1,0
58272,333.333333333333,4,1,1,70,1,0
58938,342.857142857143,4,1,1,70,1,0
59623,352.941176470588,4,1,1,70,1,0
60328,363.636363636364,4,1,1,70,1,0
61055,375,4,1,1,70,1,0
62555,363.636363636364,4,1,1,70,1,0
63282,352.941176470588,4,1,1,70,1,0
63987,342.857142857143,4,1,1,70,1,0
64672,333.333333333333,4,1,1,70,1,0
65338,324.324324324324,4,1,1,70,1,0
65986,315.789473684211,4,1,1,70,1,0
66617,307.692307692308,4,1,1,70,1,0
67232,307.692307692308,4,1,1,70,1,1
67308,-100,4,1,1,70,0,0
86924,-100,4,1,1,70,0,1
96462,-100,4,1,1,70,0,0
96770,-100,4,1,1,80,0,1
105385,-100,4,1,1,65,0,1
105924,-100,4,1,1,80,0,1
106616,-100,4,2,1,40,0,0
111539,-100,4,2,1,20,0,0
116001,-100,4,2,1,5,0,0

[Colours]
Combo1 : 255,255,132
Combo2 : 68,162,255
Combo3 : 255,60,60
Combo4 : 255,170,85

[HitObjects]
80,200,1550,1,0,0:0:0:0:
132,268,1703,1,0,0:0:0:0:
208,232,1857,2,0,P|244:216|280:216,1,72,2|0,0:0|0:0,0:0:0:0:
360,200,2165,2,0,P|356:256|272:300,1,144,0|2,0:0|0:0,0:0:0:0:
276,215,2626,1,0,0:0:0:0:
256,132,2780,6,0,P|244:88|152:52,1,144,0|2,0:0|0:0,0:0:0:0:
100,112,3241,1,0,0:0:0:0:
60,188,3396,2,0,P|32:164|18:130,1,72
148,188,3703,2,0,P|176:216|192:256,1,72,2|0,0:0|0:0,0:0:0:0:
220,328,4011,1,0,0:0:0:0:
304,348,4165,1,0,0:0:0:0:
376,300,4319,1,2,0:0:0:0:
368,212,4473,1,0,0:0:0:0:
356,128,4626,6,0,P|392:64|460:52,1,144,0|2,0:0|0:0,0:0:0:0:
444,136,5087,1,0,0:0:0:0:
356,128,5242,2,0,L|276:120,1,72
184,32,5549,2,0,L|256:40,1,72,2|0,0:0|0:0,0:0:0:0:
344,44,5857,1,0,0:0:0:0:
188,120,6164,1,2,0:0:0:0:
256,280,6473,6,0,L|224:208,1,72,2|0,0:0|0:0,0:0:0:0:
280,292,6780,2,0,L|248:220,1,72,2|0,0:0|0:0,0:0:0:0:
304,304,7088,2,0,L|272:232,1,72,2|0,0:0|0:0,0:0:0:0:
236,160,7396,1,0,0:0:0:0:
152,148,7549,1,0,0:0:0:0:
84,200,7703,5,2,0:0:0:0:
72,116,7857,1,0,0:0:0:0:
140,60,8011,1,0,0:0:0:0:
224,76,8165,1,0,0:0:0:0:
304,104,8319,2,0,P|360:120|420:56,1,144,2|0,0:0|0:0,0:0:0:0:
418,66,8934,6,0,L|436:144,1,72,0|0,0:0|0:0,0:0:0:0:
392,270,9267,2,0,L|376:200,1,72,2|0,0:0|0:0,0:0:0:0:
412,84,9600,6,0,L|429:161,1,72,0|0,0:0|0:0,0:0:0:0:
385,287,9952,2,0,L|368:216,1,72,2|0,0:0|0:0,0:0:0:0:
404,100,10305,6,0,L|421:177,1,72,0|0,0:0|0:0,0:0:0:0:
377,303,10680,2,0,L|360:232,1,72,2|0,0:0|0:0,0:0:0:0:
328,148,11055,1,0,0:0:0:0:
272,80,11242,1,0,0:0:0:0:
240,164,11430,1,2,0:0:0:0:
256,192,11523,12,0,15447,0:0:0:0:
160,320,15755,5,2,0:0:0:0:
140,300,15831,1,0,0:0:0:0:
127,277,15908,1,0,0:0:0:0:
119,252,15985,1,0,0:0:0:0:
118,225,16062,1,0,0:0:0:0:
123,198,16139,1,0,0:0:0:0:
135,174,16216,1,0,0:0:0:0:
152,153,16293,1,0,0:0:0:0:
174,138,16370,5,2,0:0:0:0:
193,157,16446,1,0,0:0:0:0:
216,171,16523,1,0,0:0:0:0:
242,180,16600,1,0,0:0:0:0:
268,182,16677,1,0,0:0:0:0:
295,179,16754,1,0,0:0:0:0:
321,171,16831,1,0,0:0:0:0:
343,156,16908,1,0,0:0:0:0:
364,140,16986,6,0,L|384:92,2,45,4|0|0,0:2|0:0|0:0,0:0:0:0:
376,240,17294,1,8,0:0:0:0:
292,292,17447,1,8,0:0:0:0:
268,284,17524,1,0,0:0:0:0:
244,276,17601,1,8,0:0:0:0:
152,244,17755,1,8,0:0:0:0:
232,180,17908,1,8,0:0:0:0:
176,348,18062,1,8,0:0:0:0:
84,316,18217,6,0,L|28:304,2,45,4|0|0,0:2|0:0|0:0,0:0:0:0:
152,244,18524,1,8,0:0:0:0:
156,144,18678,1,8,0:0:0:0:
152,120,18755,1,0,0:0:0:0:
148,96,18832,1,8,0:0:0:0:
92,16,18985,1,8,0:0:0:0:
48,104,19139,1,8,0:0:0:0:
200,12,19293,1,8,0:0:0:0:
276,76,19448,6,0,L|320:88,2,45,4|0|0,0:2|0:0|0:0,0:0:0:0:
256,172,19756,1,8,0:0:0:0:
324,244,19909,1,8,0:0:0:0:
348,252,19986,1,0,0:0:0:0:
372,260,20063,1,8,0:0:0:0:
464,296,20217,1,8,0:0:0:0:
452,200,20370,1,8,0:0:0:0:
376,360,20523,1,8,0:0:0:0:
280,328,20678,5,8,0:0:0:0:
184,312,20832,2,0,L|136:332,2,45,8|0|8,0:0|0:0|0:0,0:0:0:0:
128,228,21140,2,0,L|131:138,1,90,8|0,0:0|0:0,0:0:0:0:
96,44,21447,2,0,L|48:56,2,45,8|0|8,0:0|0:0|0:0,0:0:0:0:
192,64,21755,2,0,L|235:53,1,45,8|0,0:0|0:0,0:0:0:0:
284,44,21909,6,0,P|316:136|392:148,1,180,0|8,0:0|0:0,0:0:0:0:
484,128,22370,1,0,0:0:0:0:
436,216,22524,2,0,P|416:256|412:308,1,90
229,332,22832,2,0,P|272:328|312:304,1,90,8|0,0:0|0:0,0:0:0:0:
240,232,23140,6,0,P|180:240|128:344,1,180,0|8,0:0|0:0,0:0:0:0:
52,276,23600,1,0,0:0:0:0:
48,252,23678,1,0,0:0:0:0:
44,228,23756,1,0,0:0:0:0:
95,73,23909,2,0,P|52:96|32:132,1,90,0|8,0:0|0:0,0:0:0:0:
128,173,24216,1,0,0:0:0:0:
128,173,24294,1,0,0:0:0:0:
128,172,24370,6,0,B|177:154|177:154|225:101|225:101|286:82,1,180,0|8,0:0|0:0,0:0:0:0:
376,64,24833,1,0,0:0:0:0:
360,160,24986,2,0,L|256:193,1,90,0|0,0:0|0:0,0:0:0:0:
96,72,25294,2,0,L|181:44,1,90,8|0,0:0|0:0,0:0:0:0:
278,84,25601,5,0,0:0:0:0:
340,164,25755,2,0,L|368:172,4,22.5,8|0|0|0|8,0:0|0:0|0:0|0:0|0:0,0:0:0:0:
364,260,26063,2,0,L|376:292,4,22.5,8|0|0|0|8,0:0|0:0|0:0|0:0|0:0,0:0:0:0:
288,324,26370,1,8,0:0:0:0:
288,324,26447,1,0,0:0:0:0:
288,324,26524,2,0,L|272:344,4,22.5,8|0|8|0|8,0:0|0:0|0:0|0:0|0:0,0:0:0:0:
236,240,26832,6,0,L|240:192,2,45,4|0|0,0:2|0:0|0:0,0:0:0:0:
164,308,27140,1,8,0:0:0:0:
136,212,27294,1,8,0:0:0:0:
116,200,27370,1,0,0:0:0:0:
96,188,27447,1,8,0:0:0:0:
76,92,27601,2,0,P|124:96|160:124,1,90,8|8,0:0|0:0,0:0:0:0:
68,284,27909,1,8,0:0:0:0:
164,308,28063,6,0,L|140:348,2,45,4|0|0,0:2|0:0|0:0,0:0:0:0:
236,240,28370,1,8,0:0:0:0:
232,140,28524,1,8,0:0:0:0:
240,116,28601,1,0,0:0:0:0:
248,92,28678,1,8,0:0:0:0:
336,48,28832,2,0,P|344:96|328:140,1,90,8|8,0:0|0:0,0:0:0:0:
152,188,29140,1,8,0:0:0:0:
236,240,29294,6,0,L|280:236,2,45,4|0|0,0:2|0:0|0:0,0:0:0:0:
296,320,29601,1,8,0:0:0:0:
372,260,29755,1,8,0:0:0:0:
392,244,29832,1,0,0:0:0:0:
412,228,29909,1,8,0:0:0:0:
512,236,30063,2,0,L|496:140,2,90,8|8|8,0:0|0:0|0:0,0:0:0:0:
456,316,30524,5,8,0:0:0:0:
372,260,30678,2,0,L|376:308,2,45,8|0|8,0:0|0:0|0:0,0:0:0:0:
296,196,30986,2,0,L|316:100,1,90,8|0,0:0|0:0,0:0:0:0:
200,172,31294,2,0,L|184:124,2,45,8|0|8,0:0|0:0|0:0,0:0:0:0:
112,220,31601,2,0,L|126:262,1,45,8|0,0:0|0:0,0:0:0:0:
144,308,31755,6,0,P|188:296|232:304,1,90
346,173,32063,2,0,P|343:213|320:256,1,90,8|0,0:0|0:0,0:0:0:0:
316,356,32370,5,0,0:0:0:0:
264,192,32524,1,0,0:0:0:0:
324,336,32678,1,8,0:0:0:0:
272,172,32832,1,0,0:0:0:0:
332,316,32986,6,0,L|364:232,1,90
344,132,33294,1,8,0:0:0:0:
436,164,33447,2,0,L|488:152,2,45
344,132,33755,2,0,L|260:84,1,90,0|8,0:0|0:0,0:0:0:0:
176,40,34063,2,0,L|167:84,1,45
160,124,34217,5,8,0:0:0:0:
148,162,34293,1,0,0:0:0:0:
121,191,34370,1,0,0:0:0:0:
83,204,34447,1,0,0:0:0:0:
44,192,34524,5,8,0:0:0:0:
62,228,34600,1,0,0:0:0:0:
65,268,34677,1,0,0:0:0:0:
55,306,34754,1,0,0:0:0:0:
32,340,34832,5,8,0:0:0:0:
71,330,34908,1,0,0:0:0:0:
111,333,34985,1,0,0:0:0:0:
148,347,35062,1,0,0:0:0:0:
176,376,35140,5,8,0:0:0:0:
196,340,35216,1,0,0:0:0:0:
216,305,35293,1,0,0:0:0:0:
237,270,35370,1,0,0:0:0:0:
260,236,35447,6,0,L|280:200,14,22.5,8|0|0|0|0|0|0|0|8|0|0|0|0|0|0,0:0|0:0|0:0|0:0|0:0|0:0|0:0|0:0|0:0|0:0|0:0|0:0|0:0|0:0|0:0,0:0:0:0:
288,188,36063,5,12,0:2:0:0:
325,173,36139,1,0,0:0:0:0:
365,176,36216,1,0,0:0:0:0:
399,196,36293,1,0,0:0:0:0:
420,232,36370,1,8,0:0:0:0:
433,193,36446,1,0,0:0:0:0:
446,155,36523,1,0,0:0:0:0:
459,117,36600,1,0,0:0:0:0:
468,76,36678,6,0,P|420:80|372:64,1,90,6|0,0:2|0:0,0:0:0:0:
292,48,36986,1,0,0:0:0:0:
148,132,37140,2,0,P|196:128|233:109,1,90,2|0,0:2|0:0,0:0:0:0:
168,44,37447,1,0,0:0:0:0:
148,132,37601,2,0,L|128:236,1,90,2|0,0:2|0:0,0:0:0:0:
120,312,37909,1,0,0:0:0:0:
278,299,38063,2,0,P|244:332|204:344,1,90,2|0,0:2|0:0,0:0:0:0:
200,256,38370,1,0,0:0:0:0:
280,212,38524,2,0,P|313:181|330:135,1,90,2|0,0:2|0:0,0:0:0:0:
305,16,38832,2,0,P|271:47|256:88,1,90,2|0,0:2|0:0,0:0:0:0:
102,168,39140,6,0,P|148:168|184:144,1,90,2|0,0:2|0:0,0:0:0:0:
120,84,39446,1,0,0:0:0:0:
88,260,39602,2,0,L|180:244,1,90,2|0,0:2|0:0,0:0:0:0:
264,228,39909,1,0,0:0:0:0:
72,284,40063,2,0,L|164:268,1,90,2|0,0:2|0:0,0:0:0:0:
240,308,40370,1,0,0:0:0:0:
328,292,40524,2,0,P|372:288|424:300,1,90,2|0,0:2|0:0,0:0:0:0:
492,348,40832,1,0,0:0:0:0:
492,256,40986,2,0,P|480:208|492:156,1,90,2|0,0:2|0:0,0:0:0:0:
450,41,41294,2,0,P|437:89|412:120,1,90,2|0,0:2|0:0,0:0:0:0:
332,160,41601,6,0,P|292:116|172:144,1,180,2|4,2:0|0:2,0:0:0:0:
112,76,42063,2,0,L|64:160,1,90,2|0,0:2|0:0,0:0:0:0:
20,232,42370,1,0,0:0:0:0:
188,248,42524,2,0,P|228:228|248:188,1,90,2|0,0:2|0:0,0:0:0:0:
160,168,42832,1,0,0:0:0:0:
104,240,42986,2,0,L|72:340,1,90,2|0,0:2|0:0,0:0:0:0:
168,336,43294,1,0,0:0:0:0:
252,308,43447,2,0,P|296:292|344:296,1,90,2|0,0:2|0:0,0:0:0:0:
436,170,43755,2,0,P|436:216|420:256,1,90,2|0,0:2|0:0,0:0:0:0:
356,132,44063,6,0,P|392:96|428:84,1,90,2|0,0:2|0:0,0:0:0:0:
512,120,44370,1,0,0:0:0:0:
356,132,44524,2,0,L|264:144,1,90,2|0,0:2|0:0,0:0:0:0:
176,152,44832,1,0,0:0:0:0:
136,306,44986,2,0,P|136:264|120:220,1,90,2|0,0:2|0:0,0:0:0:0:
52,280,45294,1,0,0:0:0:0:
228,324,45448,2,0,L|212:224,1,90,2|0,0:2|0:0,0:0:0:0:
176,152,45755,1,0,0:0:0:0:
200,64,45909,2,0,P|240:48|288:48,1,90,2|0,0:2|0:0,0:0:0:0:
416,112,46216,2,0,P|376:128|329:128,1,90,2|0,0:2|0:0,0:0:0:0:
356,44,46524,5,6,0:2:0:0:
416,112,46678,1,0,0:0:0:0:
392,200,46832,1,8,0:0:0:0:
304,224,46986,1,0,0:0:0:0:
228,176,47140,1,2,0:2:0:0:
140,188,47294,1,0,0:0:0:0:
80,252,47447,1,8,0:0:0:0:
80,344,47601,1,0,0:0:0:0:
160,304,47755,6,0,P|200:288|248:286,1,90,2|0,0:2|0:0,0:0:0:0:
80,252,48063,2,0,P|102:215|141:186,1,90,8|0,0:0|0:0,0:0:0:0:
228,176,48370,1,2,0:2:0:0:
315,154,48525,1,0,0:0:0:0:
320,64,48678,1,8,0:0:0:0:
237,27,48832,1,0,0:0:0:0:
184,100,48986,5,2,0:2:0:0:
228,176,49140,1,0,0:0:0:0:
208,264,49294,1,8,0:0:0:0:
124,296,49447,1,0,0:0:0:0:
200,344,49601,2,0,P|240:336|280:304,1,90,2|0,0:2|0:0,0:0:0:0:
358,269,49909,2,0,P|365:317|352:356,1,90,8|0,0:0|0:0,0:0:0:0:
436,224,50217,38,0,L|384:192,1,53.9999983520508,2|0,0:2|0:0,0:0:0:0:
416,116,50525,38,0,L|340:112,1,72,8|0,0:0|0:0,0:0:0:0:
328,24,50832,38,0,L|244:64,1,90,2|0,0:2|0:0,0:0:0:0:
176,20,51140,38,0,L|120:116,1,107.999996704102,8|0,0:0|0:0,0:0:0:0:
61,285,51447,22,0,L|108:208,1,90,6|0,0:2|0:0,0:0:0:0:
188,164,51755,1,8,0:0:0:0:
304,284,51909,1,0,0:0:0:0:
216,272,52063,2,0,L|268:188,1,90,2|0,0:2|0:0,0:0:0:0:
360,116,52370,2,0,P|369:159|361:203,1,90,8|0,0:0|0:0,0:0:0:0:
412,280,52678,6,0,L|472:208,1,90,6|0,0:2|0:0,0:0:0:0:
416,304,52986,2,0,L|476:232,1,90,8|0,0:0|0:0,0:0:0:0:
488,144,53294,1,2,0:2:0:0:
468,56,53447,1,0,0:0:0:0:
384,24,53601,1,8,0:0:0:0:
296,48,53755,1,0,0:0:0:0:
260,128,53909,6,0,P|256:176|232:216,1,90,6|0,0:2|0:0,0:0:0:0:
172,148,54217,1,8,0:0:0:0:
224,304,54370,1,0,0:0:0:0:
152,252,54524,2,0,P|136:296|144:344,1,90,6|0,0:2|0:0,0:0:0:0:
224,304,54832,1,8,0:0:0:0:
64,364,54986,1,0,0:0:0:0:
56,276,55140,38,0,L|52:212,1,53.9999983520508,6|0,0:2|0:0,0:0:0:0:
88,296,55447,38,0,L|80:220,1,72,8|0,0:0|0:0,0:0:0:0:
120,316,55755,38,0,L|112:220,1,90
156,336,56063,38,0,L|144:224,1,107.999996704102,8|0,0:0|0:0,0:0:0:0:
132,140,56370,22,0,P|160:100|248:92,1,135,6|0,0:2|0:0,0:0:0:0:
304,128,56678,2,0,P|268:160|224:160,1,90,8|0,0:0|0:0,0:0:0:0:
248,252,56993,6,0,P|280:312|344:332,1,135,2|0,0:2|0:0,0:0:0:0:
416,316,57308,2,0,P|396:276|352:256,1,90,8|0,0:0|0:0,0:0:0:0:
380,172,57624,6,0,P|384:100|344:52,1,135,2|0,0:2|0:0,0:0:0:0:
272,28,57948,2,0,P|272:76|296:112,1,90,8|0,0:0|0:0,0:0:0:0:
228,172,58272,6,0,L|84:148,1,135,2|0,0:2|0:0,0:0:0:0:
52,220,58605,2,0,L|141:234,1,90,8|0,0:0|0:0,0:0:0:0:
144,320,58938,6,0,P|224:296|272:320,1,135,2|0,0:2|0:0,0:0:0:0:
336,360,59280,2,0,L|388:284,1,90,8|0,0:0|0:0,0:0:0:0:
468,244,59623,6,0,P|432:208|348:204,1,135,2|0,0:2|0:0,0:0:0:0:
280,244,59975,2,0,P|268:200|280:156,1,90,8|0,0:0|0:0,0:0:0:0:
352,104,60328,6,0,P|276:116|216:88,1,135,2|0,0:2|0:0,0:0:0:0:
156,48,60691,2,0,L|104:128,1,90,8|0,0:0|0:0,0:0:0:0:
64,204,61055,6,0,B|112:224|152:200|152:200|168:252,1,135,2|0,0:2|0:0,0:0:0:0:
140,320,61430,2,0,P|184:320|224:300,1,90,8|0,0:0|0:0,0:0:0:0:
312,332,61805,6,0,L|296:180,1,135,2|0,0:2|0:0,0:0:0:0:
292,116,62180,2,0,P|336:124|372:160,1,90,8|0,0:0|0:0,0:0:0:0:
408,232,62555,6,0,B|452:212|460:168|460:168|488:164|508:136,1,135,2|0,0:2|0:0,0:0:0:0:
444,84,62918,2,0,L|348:52,1,90,12|0,0:2|0:0,0:0:0:0:
272,36,63282,6,0,P|224:72|216:144,1,135,2|0,0:2|0:0,0:0:0:0:
208,224,63634,2,0,P|164:208|136:168,1,90,8|0,0:0|0:0,0:0:0:0:
72,116,63987,6,0,B|44:148|52:192|52:192|12:232,1,135,2|0,0:2|0:0,0:0:0:0:
48,300,64329,2,0,B|82:266|82:266|128:268,1,90,12|0,0:2|0:0,0:0:0:0:
196,316,64672,6,0,L|296:288,1,90,2|0,0:2|0:0,0:0:0:0:
382,183,65005,2,0,L|296:208,1,90,8|0,0:0|0:0,0:0:0:0:
165,312,65338,6,0,L|265:284,1,90,2|0,0:2|0:0,0:0:0:0:
352,180,65662,2,0,L|265:204,1,90,12|0,0:2|0:0,0:0:0:0:
141,304,65986,6,0,L|241:276,1,90,2|0,0:2|0:0,0:0:0:0:
328,172,66302,2,0,L|241:196,1,90,8|0,0:0|0:0,0:0:0:0:
109,296,66617,6,0,L|209:268,1,90,2|0,0:2|0:0,0:0:0:0:
296,164,66925,2,0,L|209:188,1,90,12|2,0:2|0:2,0:0:0:0:
120,176,67232,5,6,0:2:0:0:
140,160,67308,1,0,2:0:0:0:
148,136,67385,1,2,2:0:0:0:
148,108,67462,1,2,2:0:0:0:
136,84,67539,2,0,L|228:56,1,90,8|2,0:0|0:2,0:0:0:0:
364,108,67847,2,0,P|324:128|280:128,1,90
404,36,68155,2,0,P|448:100|400:184,1,180,8|2,0:0|0:2,0:0:0:0:
380,192,68539,5,0,2:0:0:0:
360,212,68616,1,2,2:0:0:0:
348,236,68693,1,2,2:0:0:0:
344,264,68770,2,0,L|256:292,1,90,8|2,0:0|0:2,0:0:0:0:
168,312,69078,1,0,0:0:0:0:
40,264,69232,1,0,0:0:0:0:
144,224,69385,1,8,0:0:0:0:
44,176,69539,1,0,0:0:0:0:
124,136,69693,5,2,0:2:0:0:
152,128,69770,1,0,2:0:0:0:
176,120,69847,1,2,2:0:0:0:
200,112,69924,1,2,2:0:0:0:
224,104,70001,2,0,L|316:76,1,90,8|2,0:0|0:2,0:0:0:0:
440,48,70308,2,0,P|396:92|440:200,1,180,0|8,0:0|0:0,0:0:0:0:
484,264,70769,1,0,0:0:0:0:
424,332,70924,5,2,0:2:0:0:
400,316,71001,1,0,2:0:0:0:
372,312,71078,1,2,0:2:0:0:
348,324,71155,1,2,0:2:0:0:
332,348,71232,2,0,L|240:320,1,90,8|2,0:0|0:2,0:0:0:0:
196,248,71539,2,0,P|168:284|131:308,1,90
288,244,71847,2,0,P|316:208|360:180,1,90,8|0,0:0|0:0,0:0:0:0:
440,160,72155,6,0,B|420:116|388:100|388:100|340:120|292:88,1,180,4|8,0:2|0:0,0:0:0:0:
248,12,72616,2,0,P|211:61|254:165,1,180
288,244,73078,1,8,0:0:0:0:
248,324,73232,1,0,0:0:0:0:
248,324,73308,1,0,0:0:0:0:
248,324,73385,6,0,P|176:292|88:336,1,180,4|8,0:2|0:0,0:0:0:0:
32,264,73847,1,0,0:0:0:0:
108,216,74001,2,0,P|144:184|160:140,1,90
168,56,74308,1,8,0:0:0:0:
192,72,74385,1,0,0:0:0:0:
220,76,74462,1,0,0:0:0:0:
248,72,74539,1,0,0:0:0:0:
268,56,74616,6,0,L|344:120,1,90,4|0,0:2|0:0,0:0:0:0:
352,229,74924,2,0,L|284:172,1,90,8|0,0:0|0:0,0:0:0:0:
260,36,75231,6,0,L|336:100,1,90,4|0,0:2|0:0,0:0:0:0:
360,249,75539,2,0,L|292:192,1,90,8|0,0:0|0:0,0:0:0:0:
224,132,75847,5,12,0:2:0:0:
203,161,75923,1,0,0:0:0:0:
172,179,76000,1,0,0:0:0:0:
137,184,76077,1,0,0:0:0:0:
104,172,76155,1,8,0:0:0:0:
75,193,76231,1,0,0:0:0:0:
56,223,76308,1,0,0:0:0:0:
48,258,76385,1,0,0:0:0:0:
52,294,76462,5,8,0:0:0:0:
68,326,76539,1,0,0:0:0:0:
100,344,76616,1,0,0:0:0:0:
130,324,76692,1,0,0:0:0:0:
164,313,76769,1,8,0:0:0:0:
200,312,76846,1,0,0:0:0:0:
235,321,76923,1,0,0:0:0:0:
266,338,77000,1,0,0:0:0:0:
288,368,77078,6,0,L|344:292,1,90,4|0,0:2|0:0,0:0:0:0:
432,296,77385,1,8,0:0:0:0:
300,216,77538,1,0,0:0:0:0:
319,91,77693,2,0,P|338:133|372:160,1,90,0|0,0:0|0:0,0:0:0:0:
380,40,78001,2,0,P|340:16|284:16,1,90,8|0,0:0|0:0,0:0:0:0:
178,149,78308,6,0,P|216:120|236:80,1,90,4|0,0:2|0:0,0:0:0:0:
148,64,78616,1,8,0:0:0:0:
108,204,78770,1,0,0:0:0:0:
184,252,78924,2,0,L|268:308,1,90
390,281,79232,2,0,L|316:232,1,90,8|0,0:0|0:0,0:0:0:0:
260,164,79539,5,4,0:2:0:0:
272,130,79615,1,0,0:0:0:0:
296,103,79692,1,0,0:0:0:0:
328,87,79769,1,0,0:0:0:0:
363,82,79848,2,0,P|408:80|448:52,1,90,8|4,0:2|0:2,0:0:0:0:
464,144,80154,1,0,0:0:0:0:
468,236,80308,2,0,L|472:292,2,45,0|0|12,0:0|0:0|0:2,0:0:0:0:
388,196,80616,1,0,0:0:0:0:
340,272,80770,5,0,0:0:0:0:
316,299,80846,1,0,0:0:0:0:
285,316,80923,1,0,0:0:0:0:
250,322,81000,1,0,0:0:0:0:
215,315,81079,2,0,P|208:272|180:232,1,90,12|0,0:2|0:0,0:0:0:0:
104,188,81385,2,0,L|128:144,3,45,4|0|0|0,0:2|0:0|0:0|0:0,0:0:0:0:
148,116,81693,1,12,0:2:0:0:
181,129,81769,1,0,0:0:0:0:
216,129,81846,1,0,0:0:0:0:
249,115,81923,1,0,0:0:0:0:
276,84,82001,5,0,0:0:0:0:
311,78,82077,1,0,0:0:0:0:
346,83,82154,1,0,0:0:0:0:
378,100,82231,1,0,0:0:0:0:
403,125,82308,1,8,0:0:0:0:
419,157,82385,1,0,0:0:0:0:
424,193,82462,1,0,0:0:0:0:
420,232,82539,1,0,0:0:0:0:
404,264,82616,2,0,P|324:252|256:320,1,180,0|12,0:0|0:2,0:0:0:0:
116,340,83232,5,0,0:0:0:0:
143,316,83308,1,0,0:0:0:0:
162,286,83385,1,0,0:0:0:0:
172,251,83462,1,0,0:0:0:0:
171,216,83539,1,8,0:0:0:0:
159,182,83616,1,0,0:0:0:0:
138,152,83693,1,0,0:0:0:0:
108,132,83770,1,0,0:0:0:0:
72,120,83847,2,0,P|136:112|200:24,1,180,0|12,0:0|0:2,0:0:0:0:
276,72,84308,1,0,0:0:0:0:
364,48,84462,6,0,P|368:88|344:136,1,90
331,276,84770,2,0,P|348:239|388:212,1,90,8|0,0:0|0:0,0:0:0:0:
380,340,85078,2,0,P|336:356|292:348,1,90
236,280,85385,1,12,0:2:0:0:
148,256,85539,1,0,0:0:0:0:
92,188,85693,6,0,L|68:200,8,22.5
128,180,86078,1,0,0:0:0:0:
152,152,86154,1,0,0:0:0:0:
156,116,86231,1,0,0:0:0:0:
136,84,86308,2,0,P|208:40|296:68,1,180,4|4,0:2|0:0,0:0:0:0:
380,228,86924,5,4,0:2:0:0:
360,224,87001,1,0,0:0:0:0:
340,220,87078,1,0,0:0:0:0:
244,204,87232,1,8,0:0:0:0:
392,256,87385,1,8,0:0:0:0:
372,252,87462,1,0,0:0:0:0:
352,248,87539,1,8,0:0:0:0:
178,258,87693,2,0,P|216:284|260:288,1,90,8|8,0:0|0:0,0:0:0:0:
160,164,88000,1,8,0:0:0:0:
112,76,88155,5,4,0:2:0:0:
100,96,88232,1,0,0:0:0:0:
88,116,88308,1,0,0:0:0:0:
96,216,88462,1,8,0:0:0:0:
104,40,88616,1,8,0:0:0:0:
92,60,88693,1,0,0:0:0:0:
80,80,88769,1,8,0:0:0:0:
11,210,88924,2,0,P|22:259|48:288,1,90,8|8,0:0|0:0,0:0:0:0:
96,216,89232,1,8,0:0:0:0:
176,260,89385,5,4,0:2:0:0:
196,252,89462,1,0,0:0:0:0:
216,244,89539,1,0,0:0:0:0:
300,212,89693,1,8,0:0:0:0:
172,296,89847,1,8,0:0:0:0:
192,288,89924,1,0,0:0:0:0:
212,280,90001,1,8,0:0:0:0:
300,296,90155,1,8,0:0:0:0:
368,156,90308,2,0,P|384:201|382:243,1,90,8|8,0:0|0:0,0:0:0:0:
448,80,90616,6,0,L|484:264,1,180,0|8,0:0|0:0,0:0:0:0:
444,352,91078,1,8,0:0:0:0:
444,352,91155,1,0,0:0:0:0:
444,352,91232,2,0,P|396:348|352:368,1,90,0|0,0:0|0:0,0:0:0:0:
260,360,91539,1,8,0:0:0:0:
192,288,91693,1,0,0:0:0:0:
168,288,91770,1,0,0:0:0:0:
148,280,91847,6,0,P|112:256|88:216,1,90
80,68,92155,2,0,P|116:92|140:132,1,90,8|0,0:0|0:0,0:0:0:0:
228,176,92462,1,0,0:0:0:0:
320,208,92616,1,0,0:0:0:0:
400,152,92770,1,8,0:0:0:0:
392,52,92924,1,0,0:0:0:0:
392,52,93001,1,0,0:0:0:0:
392,52,93078,6,0,B|336:60|312:108|312:108|280:72|240:72,1,180,0|8,0:0|0:0,0:0:0:0:
148,84,93539,1,0,0:0:0:0:
128,92,93616,1,0,0:0:0:0:
104,96,93693,2,0,P|60:96|12:76,1,90,0|0,0:0|0:0,0:0:0:0:
0,248,94001,1,8,0:0:0:0:
68,184,94155,1,0,0:0:0:0:
68,184,94232,1,0,0:0:0:0:
68,184,94308,6,0,L|172:172,1,90
289,253,94616,2,0,L|200:264,1,90,8|0,0:0|0:0,0:0:0:0:
100,276,94924,1,0,0:0:0:0:
256,156,95077,1,0,0:0:0:0:
112,256,95232,1,8,0:0:0:0:
268,136,95385,1,0,0:0:0:0:
124,236,95539,5,0,0:0:0:0:
132,136,95693,2,0,L|116:108,4,22.5,8|0|0|0|8,0:0|0:0|0:0|0:0|0:0,0:0:0:0:
208,72,96001,2,0,L|204:96,4,22.5,8|0|0|0|8,0:0|0:0|0:0|0:0|0:0,0:0:0:0:
304,52,96308,1,8,0:0:0:0:
328,56,96385,1,0,0:0:0:0:
352,60,96462,2,0,L|388:68,4,22.5,8|0|8|0|8,0:0|0:0|0:0|0:0|0:0,0:0:0:0:
364,168,96770,5,4,0:2:0:0:
368,196,96847,1,0,0:0:0:0:
372,224,96924,1,0,0:0:0:0:
384,332,97078,1,8,0:0:0:0:
332,152,97231,1,8,0:0:0:0:
336,180,97308,1,0,0:0:0:0:
340,208,97385,1,8,0:0:0:0:
292,304,97539,1,8,0:0:0:0:
232,212,97693,2,0,P|212:172|168:144,1,90,8|8,0:0|0:0,0:0:0:0:
92,216,98001,5,4,0:2:0:0:
120,220,98078,1,0,0:0:0:0:
148,224,98155,1,0,0:0:0:0:
208,312,98308,1,8,0:0:0:0:
68,192,98462,1,8,0:0:0:0:
96,196,98539,1,0,0:0:0:0:
124,200,98616,1,8,0:0:0:0:
232,212,98770,1,8,0:0:0:0:
252,108,98924,2,0,L|272:12,1,90,8|8,0:0|0:0,0:0:0:0:
360,84,99232,5,4,0:2:0:0:
368,108,99308,1,0,0:0:0:0:
376,132,99385,1,0,0:0:0:0:
408,236,99539,2,0,L|444:240,4,22.5,8|0|0|0|12,0:0|0:0|0:0|0:0|0:2,0:0:0:0:
352,328,99847,2,0,L|260:316,1,90,0|0,0:0|0:0,0:0:0:0:
142,200,100156,2,0,L|232:212,1,90,12|0,0:2|0:0,0:0:0:0:
104,276,100462,6,0,P|72:240|112:120,1,180,0|12,0:0|0:2,0:0:0:0:
212,108,100924,1,0,0:0:0:0:
236,100,101001,1,0,0:0:0:0:
252,80,101078,1,0,0:0:0:0:
172,36,101232,1,0,0:0:0:0:
328,124,101386,2,0,L|408:172,1,90,12|0,0:2|0:0,0:0:0:0:
405,170,101616,1,0,0:0:0:0:
405,170,101693,6,0,P|416:212|412:268,1,90
244,336,102001,2,0,P|280:312|324:300,1,90,8|0,0:0|0:0,0:0:0:0:
304,204,102308,1,0,0:0:0:0:
212,168,102462,1,0,0:0:0:0:
124,212,102616,1,12,0:2:0:0:
104,308,102770,2,0,P|56:288|28:248,1,90
56,160,103078,5,0,0:0:0:0:
32,64,103232,1,8,0:0:0:0:
128,88,103385,2,0,L|180:80,2,45,0|0|0,0:0|0:0|0:0,0:0:0:0:
56,160,103694,1,0,0:0:0:0:
152,180,103847,2,0,L|248:164,1,90,12|0,0:2|0:0,0:0:0:0:
288,76,104155,5,8,0:0:0:0:
304,96,104232,1,0,0:0:0:0:
320,116,104308,1,0,0:0:0:0:
416,140,104462,1,8,0:0:0:0:
406,163,104539,1,0,0:0:0:0:
397,187,104615,1,0,0:0:0:0:
432,280,104770,5,8,0:0:0:0:
406,283,104847,1,0,0:0:0:0:
381,287,104923,1,0,0:0:0:0:
304,352,105078,1,12,0:2:0:0:
288,330,105155,1,0,0:0:0:0:
272,311,105231,1,0,0:0:0:0:
256,292,105308,1,0,0:0:0:0:
240,272,105385,6,0,L|216:244,14,22.5,8|0|0|0|0|0|0|0|8|0|0|0|0|0|0,0:0|0:0|0:0|0:0|0:0|0:0|0:0|0:0|0:0|0:0|0:0|0:0|0:0|0:0|0:0,0:0:0:0:
192,248,106001,6,0,L|176:204,7,45,12|0|0|0|8|0|0|0,0:2|0:0|0:0|0:0|0:0|0:0|0:0|0:0,0:0:0:0:
164,172,106616,5,4,0:0:0:0:
195,188,106692,1,0,0:0:0:0:
231,192,106769,1,0,0:0:0:0:
265,182,106846,1,2,0:0:0:0:
293,159,106923,1,2,0:0:0:0:
310,128,107000,1,0,0:0:0:0:
314,92,107077,1,0,0:0:0:0:
300,60,107155,1,0,0:0:0:0:
272,36,107232,6,0,L|320:8,3,45
344,20,107539,2,0,L|392:44,3,45,2|0|0|0,0:0|0:0|0:0|0:0,0:0:0:0:
412,64,107847,5,0,0:0:0:0:
391,93,107923,1,0,0:0:0:0:
380,127,108000,1,0,0:0:0:0:
379,163,108077,1,0,0:0:0:0:
388,198,108156,1,2,0:0:0:0:
407,228,108231,1,0,0:0:0:0:
434,252,108308,1,0,0:0:0:0:
466,267,108385,1,0,0:0:0:0:
504,264,108462,6,0,L|492:316,3,45
464,324,108770,2,0,L|412:332,3,45,2|0|0|0,0:0|0:0|0:0|0:0,0:0:0:0:
384,332,109078,5,0,0:0:0:0:
371,297,109154,1,0,0:0:0:0:
350,268,109231,1,0,0:0:0:0:
320,249,109308,1,0,0:0:0:0:
286,240,109385,1,2,0:0:0:0:
250,243,109462,1,0,0:0:0:0:
217,257,109539,1,0,0:0:0:0:
193,284,109616,1,0,0:0:0:0:
180,316,109693,5,0,0:0:0:0:
149,334,109769,1,0,0:0:0:0:
114,342,109846,1,0,0:0:0:0:
78,337,109923,1,0,0:0:0:0:
46,321,110000,1,2,0:0:0:0:
22,295,110077,1,0,0:0:0:0:
7,263,110154,1,0,0:0:0:0:
4,227,110231,1,0,0:0:0:0:
20,196,110308,6,0,L|48:152,3,45,2|0|0|0,0:0|0:0|0:0|0:0,0:0:0:0:
80,156,110616,2,0,L|84:108,3,45,2|0|0|0,0:0|0:0|0:0|0:0,0:0:0:0:
84,76,110924,5,2,0:0:0:0:
107,102,111000,1,0,0:0:0:0:
138,121,111077,1,0,0:0:0:0:
173,129,111154,1,0,0:0:0:0:
209,125,111231,1,2,0:0:0:0:
242,112,111308,1,2,0:0:0:0:
269,88,111385,1,2,0:0:0:0:
288,56,111462,1,0,0:0:0:0:
292,20,111539,1,4,0:0:0:0:
256,192,111615,12,0,116001,0:0:0:0:
