osu file format v12

[General]
AudioFilename: croiX - TeamGrimoire+Amaneko.mp3
AudioLeadIn: 500
PreviewTime: 86924
Countdown: 0
SampleSet: Normal
StackLeniency: 0.7
Mode: 0
LetterboxInBreaks: 0
WidescreenStoryboard: 0

[Editor]
DistanceSpacing: 1
BeatDivisor: 2
GridSize: 4

[Metadata]
Title:croiX
TitleUnicode:croiX
Artist:TeamGrimoire+Amaneko
ArtistUnicode:TeamGrimoire+あま猫
Creator:HelloSCV
Version:BASIC
Source:SOUND VOLTEX BOOTH
Tags:SDVX Roxas hs714 Spectator Konami
BeatmapID:242231
BeatmapSetID:88692

[Difficulty]
HPDrainRate:1
CircleSize:3
OverallDifficulty:2
ApproachRate:2
SliderMultiplier:0.8
SliderTickRate:1

[Events]
//Background and Video events
0,0,"img1351370474.jpg",0,0
//Break Periods
//Storyboard Layer 0 (Background)
//Storyboard Layer 1 (Fail)
//Storyboard Layer 2 (Pass)
//Storyboard Layer 3 (Foreground)
//Storyboard Sound Samples
//Background Colour Transformations
3,100,163,162,255

[TimingPoints]
1550,307.692307692308,4,2,1,30,1,0
1550,-125,4,2,1,30,0,0
8934,333.333333333333,4,2,1,40,1,0
8934,-125,4,2,1,40,0,0
9600,352.941176470588,4,2,1,35,1,0
9600,-125,4,2,1,35,0,0
10305,375,4,2,1,30,1,0
10305,-125,4,2,1,30,0,0
11617,-125,4,2,1,20,0,0
12367,-125,4,2,1,25,0,0
13294,307.692307692308,4,2,1,30,1,0
14217,-100,4,2,1,35,0,0
14832,-100,4,2,1,40,0,0
15140,-100,4,2,1,5,0,0
15755,-100,4,2,1,50,0,0
16986,-100,4,1,1,70,0,1
17294,-100,4,1,2,60,0,1
17447,-100,4,1,1,70,0,1
18524,-100,4,1,2,60,0,1
18678,-100,4,1,1,70,0,1
19755,-100,4,1,2,60,0,1
19909,-100,4,1,1,70,0,1
20986,-100,4,1,2,60,0,1
21755,-100,4,1,1,70,0,1
23447,-100,4,1,2,60,0,1
23601,-100,4,1,1,70,0,1
24678,-100,4,1,2,60,0,1
24832,-100,4,1,1,70,0,1
26524,-100,4,1,1,70,0,0
26832,-100,4,1,1,70,0,1
27140,-100,4,1,2,60,0,1
27294,-100,4,1,1,70,0,1
28370,-100,4,1,2,60,0,1
28524,-100,4,1,1,70,0,1
29601,-100,4,1,2,60,0,1
29755,-100,4,1,1,70,0,1
30832,-100,4,1,2,60,0,1
31601,-100,4,1,1,70,0,1
33294,-100,4,1,2,60,0,1
33447,-100,4,1,1,70,0,1
35755,-100,4,1,2,60,0,1
35909,-100,4,1,1,70,0,1
36601,-100,4,1,1,70,0,0
36678,-100,4,1,1,70,0,1
36755,-100,4,1,1,70,0,0
46832,-100,4,1,2,60,0,0
46986,-100,4,1,1,70,0,0
49294,-100,4,1,2,60,0,0
49447,-100,4,1,1,70,0,0
51755,-100,4,1,2,60,0,0
51909,-100,4,1,1,70,0,0
54217,-100,4,1,2,60,0,0
54370,-100,4,1,1,70,0,0
56993,315.789473684211,4,1,1,70,1,0
57624,324.324324324324,4,1,1,70,1,0
58272,333.333333333333,4,1,1,70,1,0
58938,342.857142857143,4,1,1,70,1,0
59623,352.941176470588,4,1,1,70,1,0
60328,363.636363636364,4,1,1,70,1,0
61055,375,4,1,1,70,1,0
62555,363.636363636364,4,1,1,70,1,0
63282,352.941176470588,4,1,1,70,1,0
63987,342.857142857143,4,1,1,70,1,0
64672,333.333333333333,4,1,1,70,1,0
65338,324.324324324324,4,1,1,70,1,0
65986,315.789473684211,4,1,1,70,1,0
66617,307.692307692308,4,1,1,70,1,0
67232,307.692307692308,4,1,1,70,1,1
67308,-100,4,1,1,70,0,0
67539,-100,4,1,2,60,0,0
67693,-100,4,1,1,70,0,0
68770,-100,4,1,2,60,0,0
68924,-100,4,1,1,70,0,0
70001,-100,4,1,2,60,0,0
70155,-100,4,1,1,70,0,0
71232,-100,4,1,2,60,0,0
71385,-100,4,1,1,70,0,0
72462,-100,4,1,2,60,0,0
72616,-100,4,1,1,70,0,0
73693,-100,4,1,2,60,0,0
73847,-100,4,1,1,70,0,0
74924,-100,4,1,2,60,0,0
75078,-100,4,1,1,70,0,0
76155,-100,4,1,2,60,0,0
76308,-100,4,1,1,70,0,0
77385,-100,4,1,2,60,0,0
77539,-100,4,1,1,70,0,0
78616,-100,4,1,2,60,0,0
78770,-100,4,1,1,70,0,0
79847,-100,4,1,2,60,0,0
80001,-100,4,1,1,70,0,0
81078,-100,4,1,2,60,0,0
81232,-100,4,1,1,70,0,0
82308,-100,4,1,2,60,0,0
82462,-100,4,1,1,70,0,0
83539,-100,4,1,2,60,0,0
83693,-100,4,1,1,70,0,0
84770,-100,4,1,2,60,0,0
84924,-100,4,1,1,70,0,0
86924,-100,4,1,1,70,0,1
87232,-100,4,1,2,60,0,1
87385,-100,4,1,1,70,0,1
88462,-100,4,1,2,60,0,1
88616,-100,4,1,1,70,0,1
89693,-100,4,1,2,60,0,1
89847,-100,4,1,1,70,0,1
90924,-100,4,1,2,60,0,1
91693,-100,4,1,1,70,0,1
93385,-100,4,1,2,60,0,1
93539,-100,4,1,1,70,0,1
94616,-100,4,1,2,60,0,1
94770,-100,4,1,1,70,0,1
96462,-100,4,1,1,70,0,0
96770,-100,4,1,1,80,0,1
97078,-100,4,1,2,60,0,1
97232,-100,4,1,1,80,0,1
98308,-100,4,1,2,60,0,1
98462,-100,4,1,1,80,0,1
99539,-100,4,1,2,60,0,1
99693,-100,4,1,1,80,0,1
100770,-100,4,1,2,60,0,1
100924,-100,4,1,1,80,0,1
102001,-100,4,1,2,60,0,1
102155,-100,4,1,1,80,0,1
103232,-100,4,1,2,60,0,1
103385,-100,4,1,1,80,0,1
105693,-100,4,1,2,60,0,1
106462,-100,4,1,1,80,0,1
106616,-100,4,2,1,40,0,0
111539,-100,4,2,1,20,0,0
116001,-100,4,2,1,5,0,0

[Colours]
Combo1 : 255,255,132
Combo2 : 68,162,255
Combo3 : 255,60,60
Combo4 : 255,170,85

[HitObjects]
76,216,1550,2,0,P|136:228|188:184,1,128,0|2,0:0|0:0,0:0:0:0:
268,92,2780,2,0,P|332:80|396:108,2,128,0|2|0,0:0|0:0|0:0,0:0:0:0:
324,208,4626,6,0,P|280:252|204:260,1,128,2|0,0:0|0:0,0:0:0:0:
120,176,5857,2,0,P|116:108|72:60,2,128,2|0|2,0:0|0:0|0:0,0:0:0:0:
64,292,7703,1,0,0:0:0:0:
184,248,8319,2,0,L|244:216,1,64,2|0,0:0|0:0,0:0:0:0:
252,132,8934,6,0,L|320:152,1,64,0|2,0:0|0:0,0:0:0:0:
392,108,9600,2,0,L|412:180,1,64,0|2,0:0|0:0,0:0:0:0:
492,192,10305,6,0,L|460:260,1,64,0|2,0:0|0:0,0:0:0:0:
420,332,11055,2,0,P|396:312|376:280,1,64,0|2,0:0|0:0,0:0:0:0:
256,192,11617,12,0,15140,0:0:0:0:
144,344,15755,6,0,P|228:296|192:168,1,240,2|2,0:0|0:0,0:0:0:0:
120,176,16986,6,0,P|160:104|236:100,1,160,4|0,0:2|0:0,0:0:0:0:
312,108,17909,1,8,0:0:0:0:
388,88,18217,2,0,L|428:248,1,160
384,312,19140,1,8,0:0:0:0:
308,336,19447,6,0,P|256:288|168:284,1,160
104,328,20370,1,8,0:0:0:0:
96,248,20678,2,0,P|112:168|168:116,2,160
172,276,22217,5,8,0:0:0:0:
252,260,22524,2,0,P|288:252|332:260,1,80,0|8,0:0|0:0,0:0:0:0:
332,340,23140,2,0,P|392:312|384:200,1,160
352,164,24063,1,8,0:0:0:0:
280,124,24370,6,0,P|212:168|132:144,1,160
76,100,25294,1,8,0:0:0:0:
36,168,25601,1,0,0:0:0:0:
56,244,25908,2,0,L|68:344,2,80,8|0|8,0:0|0:0|0:0,0:0:0:0:
128,212,26832,6,0,P|196:252|280:220,1,160,4|0,0:2|0:0,0:0:0:0:
332,184,27755,1,8,0:0:0:0:
356,108,28063,2,0,P|412:56|496:88,1,160
432,136,28986,1,8,0:0:0:0:
436,216,29294,6,0,P|416:296|348:340,1,160
276,320,30217,1,8,0:0:0:0:
248,244,30524,2,0,P|208:180|124:180,2,160
168,248,32063,5,8,0:0:0:0:
88,248,32370,2,0,P|60:220|48:180,1,80,0|8,0:0|0:0,0:0:0:0:
88,112,32986,2,0,P|176:88|248:108,1,160
308,148,33909,1,8,0:0:0:0:
356,212,34217,6,0,P|392:232|436:232,2,80,0|8|0,0:0|0:0|0:0,0:0:0:0:
412,156,35140,1,8,0:0:0:0:
336,128,35447,2,0,P|276:176|284:260,1,160
304,328,36370,1,0,0:0:0:0:
224,340,36678,6,0,P|112:320|92:196,1,240,4|2,0:2|0:2,0:0:0:0:
76,132,37909,2,0,L|12:80,2,80,0|2|0,0:0|0:2|0:0,0:0:0:0:
156,136,38832,1,2,0:2:0:0:
232,112,39140,6,0,P|276:184|416:144,1,240,0|2,0:0|0:2,0:0:0:0:
488,136,40370,2,0,L|496:220,1,80,0|2,0:0|0:2,0:0:0:0:
432,264,40986,2,0,L|408:340,1,80,0|2,0:0|0:2,0:0:0:0:
328,348,41601,5,2,2:0:0:0:
256,312,41909,2,0,P|184:276|112:304,1,160,2|2,0:2|0:2,0:0:0:0:
60,244,42832,2,0,P|40:276|32:320,2,80,0|2|0,0:0|0:2|0:0,0:0:0:0:
116,188,43755,1,2,0:2:0:0:
192,212,44063,6,0,P|264:192|308:36,1,240,0|2,0:0|0:2,0:0:0:0:
392,44,45294,2,0,L|484:68,1,80,0|2,0:0|0:2,0:0:0:0:
444,140,45909,2,0,L|496:208,1,80,0|2,0:0|0:2,0:0:0:0:
436,260,46524,6,0,B|348:248|318:329|318:329|220:336,1,240,4|8,0:2|0:0,0:0:0:0:
148,340,47755,2,0,L|67:345,2,80,0|8|0,0:0|0:0|0:0,0:0:0:0:
188,272,48678,1,8,0:0:0:0:
260,240,48986,6,0,P|264:160|136:88,1,240,0|8,0:0|0:0,0:0:0:0:
112,164,50217,2,0,L|92:244,1,80,0|8,0:0|0:0,0:0:0:0:
16,268,50832,2,0,L|44:352,1,80,0|8,0:0|0:0,0:0:0:0:
120,332,51447,6,0,P|208:288|320:360,1,240,0|8,0:0|0:0,0:0:0:0:
400,356,52678,2,0,P|436:344|468:312,2,80,0|8|0,0:0|0:0|0:0,0:0:0:0:
396,276,53601,1,8,0:0:0:0:
400,196,53909,6,0,P|388:100|256:60,1,240,0|8,0:0|0:0,0:0:0:0:
192,88,55140,2,0,L|184:188,1,80,0|8,0:0|0:0,0:0:0:0:
252,216,55755,2,0,L|192:280,1,80,0|8,0:0|0:0,0:0:0:0:
120,296,56370,6,0,P|72:216|-12:212,1,160,6|2,0:2|0:2,0:0:0:0:
20,48,57624,6,0,B|84:36|136:72|136:72|172:52,1,160,2|2,0:2|0:2,0:0:0:0:
300,136,58938,6,0,B|226:182|226:182|236:224|223:273,1,160,2|2,0:2|0:2,0:0:0:0:
336,352,60328,6,0,P|348:268|408:216,1,160,2|2,0:2|0:2,0:0:0:0:
504,96,61805,6,0,L|332:84,1,160,2|2,0:2|0:2,0:0:0:0:
184,52,63282,6,0,B|172:96|196:136|196:136|204:172|168:212,1,160,2|2,0:2|0:2,0:0:0:0:
12,224,64672,6,0,P|36:299|112:348,1,160,2|2,0:2|0:2,0:0:0:0:
260,316,65986,6,0,P|312:268|424:272,1,160,2|2,0:2|0:2,0:0:0:0:
512,152,67232,6,0,P|400:176|312:76,1,240,4|8,0:2|0:0,0:0:0:0:
304,16,68462,2,0,P|248:52|252:144,1,160,0|0,0:0|0:0,0:0:0:0:
272,216,69385,1,8,0:0:0:0:
308,288,69693,6,0,B|252:308|212:268|212:268|144:272|92:336,1,240,0|8,0:0|0:0,0:0:0:0:
40,272,70924,2,0,P|64:192|44:116,1,160
4,52,71847,1,8,0:0:0:0:
84,36,72155,6,0,P|140:24|196:56,2,120,0|0|8,0:0|0:0|0:0,0:0:0:0:
128,104,73385,2,0,P|160:140|136:232,2,120,0|0|8,0:0|0:0|0:0,0:0:0:0:
84,172,74616,6,0,P|80:240|224:256,1,240,0|8,0:0|0:0,0:0:0:0:
264,196,75847,2,0,P|360:132|452:212,1,240,0|8,0:0|0:0,0:0:0:0:
492,264,77078,6,0,B|456:288|412:268|412:268|384:268|352:316,1,160,4|0,0:2|0:0,0:0:0:0:
284,352,78001,1,8,0:0:0:0:
204,340,78308,2,0,P|136:304|116:212,1,160,0|0,0:0|0:0,0:0:0:0:
148,156,79232,1,8,0:0:0:0:
220,188,79539,6,0,P|276:200|332:168,2,120,0|0|8,0:0|0:0|0:0,0:0:0:0:
264,120,80770,2,0,P|300:84|312:16,2,120,0|0|8,0:0|0:0|0:0,0:0:0:0:
224,48,82001,6,0,B|184:72|172:104|176:152|212:184|212:184|164:252,1,240,0|8,0:0|0:0,0:0:0:0:
88,236,83232,2,0,P|104:300|192:324,1,160,0|0,0:0|0:0,0:0:0:0:
264,308,84155,1,8,0:0:0:0:
336,336,84462,6,0,P|320:260|352:188,1,160
424,152,85385,1,8,0:0:0:0:
368,92,85693,2,0,P|408:72|452:80,2,80,0|8|0,0:0|0:0|0:0,0:0:0:0:
296,128,86616,1,8,0:0:0:0:
252,192,86924,6,0,P|188:248|108:240,1,160,4|0,0:2|0:0,0:0:0:0:
56,192,87847,1,8,0:0:0:0:
36,268,88155,2,0,B|52:316|104:328|104:328|140:384,1,160
216,356,89078,1,8,0:0:0:0:
296,356,89385,6,0,P|364:320|396:244,1,160,0|0,0:0|0:0,0:0:0:0:
388,168,90308,1,8,0:0:0:0:
340,104,90616,2,0,P|420:96|468:160,2,160
288,168,92155,5,8,0:0:0:0:
208,180,92462,2,0,P|172:156|144:120,1,80,0|8,0:0|0:0,0:0:0:0:
180,52,93078,2,0,P|100:60|68:144,1,160
80,204,94001,1,8,0:0:0:0:
96,284,94308,6,0,B|136:272|156:232|156:232|196:232|228:280,1,160
232,348,95232,1,8,0:0:0:0:
312,360,95539,1,0,0:0:0:0:
388,340,95847,2,0,L|460:288,2,80,8|0|8,0:0|0:0|0:0,0:0:0:0:
352,268,96770,6,0,P|352:188|288:144,1,160,4|0,0:2|0:0,0:0:0:0:
212,140,97693,1,8,0:0:0:0:
152,192,98001,2,0,P|132:124|196:60,1,160
264,72,98924,1,8,0:0:0:0:
324,124,99232,6,0,P|368:188|456:192,1,160
480,268,100155,1,8,0:0:0:0:
400,284,100462,2,0,B|348:280|312:252|312:252|260:308,1,160
208,352,101385,1,8,0:0:0:0:
172,280,101693,6,0,P|164:196|96:156,1,160
24,164,102616,1,8,0:0:0:0:
52,88,102924,2,0,P|120:44|204:56,1,160
264,96,103847,1,8,0:0:0:0:
336,132,104155,6,0,P|376:136|420:120,2,80,0|8|0,0:0|0:0|0:0,0:0:0:0:
332,52,105078,1,8,0:0:0:0:
264,96,105385,2,0,P|224:160|144:196,2,160,0|0|4,0:0|0:0|0:0,0:0:0:0:
116,36,107232,5,0,0:0:0:0:
24,168,107847,2,0,P|20:224|80:304,1,160,2|0,0:0|0:0,0:0:0:0:
240,308,109078,2,0,P|312:280|396:312,1,160,2|0,0:0|0:0,0:0:0:0:
508,196,110308,6,0,P|424:176|388:108,2,160,2|0|4,0:0|0:0|0:0,0:0:0:0:
256,192,111692,12,0,116001,0:0:0:0:
