osu file format v12

[General]
AudioFilename: croiX - TeamGrimoire+Amaneko.mp3
AudioLeadIn: 500
PreviewTime: 86924
Countdown: 0
SampleSet: Normal
StackLeniency: 0.7
Mode: 0
LetterboxInBreaks: 0
WidescreenStoryboard: 0

[Editor]
DistanceSpacing: 1.2
BeatDivisor: 4
GridSize: 4

[Metadata]
Title:croiX
TitleUnicode:croiX
Artist:TeamGrimoire+Amaneko
ArtistUnicode:TeamGrimoire+あま猫
Creator:HelloSCV
Version:ADVANCED
Source:SOUND VOLTEX BOOTH
Tags:SDVX Roxas hs714 Spectator Konami
BeatmapID:241732
BeatmapSetID:88692

[Difficulty]
HPDrainRate:6
CircleSize:4
OverallDifficulty:6
ApproachRate:8
SliderMultiplier:1.5
SliderTickRate:2

[Events]
//Background and Video events
0,0,"img1351370474.jpg",0,0
//Break Periods
//Storyboard Layer 0 (Background)
//Storyboard Layer 1 (Fail)
//Storyboard Layer 2 (Pass)
//Storyboard Layer 3 (Foreground)
//Storyboard Sound Samples
//Background Colour Transformations
3,100,163,162,255

[TimingPoints]
1550,307.692307692308,4,2,1,30,1,0
1550,-125,4,2,1,30,0,0
3550,-125,4,2,1,10,0,0
3703,-125,4,2,1,30,0,0
3857,-125,4,2,1,10,0,0
4011,-125,4,2,1,30,0,0
6626,-125,4,2,1,10,0,0
6780,-125,4,2,1,30,0,0
6934,-125,4,2,1,10,0,0
7088,-125,4,2,1,30,0,0
7242,-125,4,2,1,10,0,0
7396,-125,4,2,1,30,0,0
8934,333.333333333333,4,2,1,40,1,0
8934,-125,4,2,1,40,0,0
9600,352.941176470588,4,2,1,35,1,0
9600,-125,4,2,1,35,0,0
10305,375,4,2,1,30,1,0
10305,-125,4,2,1,30,0,0
11523,-125,4,2,1,20,0,0
12367,-125,4,2,1,25,0,0
13294,307.692307692308,4,2,1,30,1,0
14217,-100,4,2,1,35,0,0
14832,-100,4,2,1,40,0,0
15447,-100,4,2,1,5,0,0
15755,-100,4,2,1,50,0,0
16986,-100,4,1,1,70,0,1
26524,-100,4,1,1,70,0,0
26832,-100,4,1,1,70,0,1
36601,-100,4,1,1,70,0,0
36678,-100,4,1,1,70,0,1
36755,-100,4,1,1,70,0,0
50217,-166.666666666667,4,1,1,70,0,0
50524,-125,4,1,1,70,0,0
50832,-100,4,1,1,70,0,0
51140,-83.3333333333333,4,1,1,70,0,0
51447,-100,4,1,1,70,0,0
55140,-166.666666666667,4,1,1,70,0,0
55447,-125,4,1,1,70,0,0
55755,-100,4,1,1,70,0,0
56063,-83.3333333333333,4,1,1,70,0,0
56370,-100,4,1,1,70,0,0
56993,315.789473684211,4,1,1,70,1,0
57624,324.324324324324,4,1,1,70,1,0
58272,333.333333333333,4,1,1,70,1,0
58938,342.857142857143,4,1,1,70,1,0
59623,352.941176470588,4,1,1,70,1,0
60328,363.636363636364,4,1,1,70,1,0
61055,375,4,1,1,70,1,0
62555,363.636363636364,4,1,1,70,1,0
63282,352.941176470588,4,1,1,70,1,0
63987,342.857142857143,4,1,1,70,1,0
64672,333.333333333333,4,1,1,70,1,0
65338,324.324324324324,4,1,1,70,1,0
65986,315.789473684211,4,1,1,70,1,0
66617,307.692307692308,4,1,1,70,1,0
67232,307.692307692308,4,1,1,70,1,1
67308,-100,4,1,1,70,0,0
86924,-100,4,1,1,70,0,1
96462,-100,4,1,1,70,0,0
96770,-100,4,1,1,80,0,1
105385,-100,4,1,1,40,0,1
106616,-100,4,2,1,40,0,0
111539,-100,4,2,1,20,0,0
116001,-100,4,2,1,5,0,0

[Colours]
Combo1 : 255,255,132
Combo2 : 68,162,255
Combo3 : 255,60,60
Combo4 : 255,170,85

[HitObjects]
120,180,1550,2,0,P|140:200|168:212,1,60
248,168,1857,2,0,P|228:148|200:136,1,60,2|0,0:0|0:0,0:0:0:0:
248,260,2165,2,0,P|276:304|352:316,1,120,0|2,0:0|0:0,0:0:0:0:
392,248,2626,1,0,0:0:0:0:
356,164,2780,2,0,P|340:128|376:52,1,120,0|2,0:0|0:0,0:0:0:0:
368,57,3242,1,0,0:0:0:0:
276,56,3396,2,0,L|204:64,1,60
188,148,3703,2,0,L|128:116,1,60,2|0,0:0|0:0,0:0:0:0:
52,80,4011,5,0,0:0:0:0:
76,168,4165,1,0,0:0:0:0:
68,256,4319,1,2,0:0:0:0:
24,332,4473,1,0,0:0:0:0:
112,340,4626,2,0,P|176:324|240:356,1,120,0|2,0:0|0:0,0:0:0:0:
316,352,5088,1,0,0:0:0:0:
396,308,5242,2,0,P|424:288|436:264,1,60
352,228,5550,2,0,P|348:193|333:171,1,60,2|0,0:0|0:0,0:0:0:0:
244,168,5857,2,0,P|268:108|320:88,1,120,0|2,0:0|0:0,0:0:0:0:
136,60,6473,6,0,L|77:71,1,60,2|0,0:0|0:0,0:0:0:0:
9,159,6780,2,0,L|68:148,1,60,2|0,0:0|0:0,0:0:0:0:
158,208,7088,2,0,L|100:220,1,60,2|0,0:0|0:0,0:0:0:0:
44,292,7396,2,0,P|72:304|104:304,1,60
188,284,7703,5,2,0:0:0:0:
272,252,7857,1,0,0:0:0:0:
360,276,8011,1,0,0:0:0:0:
400,356,8165,1,0,0:0:0:0:
436,272,8319,2,0,B|432:236|408:216|408:216|404:188|420:160,1,120,2|0,0:0|0:0,0:0:0:0:
418,162,8934,6,0,L|352:136,1,60
352,52,9267,2,0,L|288:68,1,60,2|0,0:0|0:0,0:0:0:0:
216,28,9600,6,0,L|200:92,1,60
112,100,9952,2,0,L|136:160,1,60,2|0,0:0|0:0,0:0:0:0:
71,221,10305,6,0,L|131:249,1,60,0|0,0:0|0:0,0:0:0:0:
192,316,10680,2,0,L|132:344,1,60,2|0,0:0|0:0,0:0:0:0:
224,232,11055,2,0,B|254:238|277:270,2,60,0|0|2,0:0|0:0|0:0,0:0:0:0:
256,192,11523,12,0,15447,0:0:0:0:
152,292,15755,6,0,L|180:256,3,37.5,2|0|0|0,0:0|0:0|0:0|0:0,0:0:0:0:
220,268,16063,2,0,L|212:212,3,37.5,0|0|0|0,0:0|0:0|0:0|0:0,0:0:0:0:
252,208,16370,6,0,L|228:180,3,37.5,2|0|0|0,0:0|0:0|0:0|0:0,0:0:0:0:
248,140,16678,2,0,L|204:124,3,37.5
224,84,16986,6,0,L|136:108,1,75,4|0,0:2|0:0,0:0:0:0:
64,128,17294,1,8,0:0:0:0:
69,237,17447,2,0,P|100:220|128:192,1,75
216,212,17755,1,0,0:0:0:0:
300,244,17909,2,0,P|332:260|360:292,1,75,8|0,0:0|0:0,0:0:0:0:
440,328,18217,6,0,L|444:248,1,75,4|0,0:2|0:0,0:0:0:0:
448,164,18524,1,8,0:0:0:0:
437,50,18678,2,0,P|416:80|384:100,1,75
296,120,18986,1,0,0:0:0:0:
260,36,19140,2,0,P|295:28|341:41,1,75,8|0,0:0|0:0,0:0:0:0:
296,120,19447,6,0,L|220:132,1,75,4|0,0:2|0:0,0:0:0:0:
132,144,19755,1,8,0:0:0:0:
10,197,19909,2,0,P|44:216|80:220,1,75
172,228,20217,1,0,0:0:0:0:
260,248,20370,1,8,0:0:0:0:
288,336,20525,1,0,0:0:0:0:
356,280,20678,6,0,P|360:204|416:164,1,150,0|8,0:0|0:0,0:0:0:0:
504,152,21140,2,0,L|512:104,2,37.5
440,88,21448,2,0,L|432:36,2,37.5,0|0|8,0:0|0:0|0:0,0:0:0:0:
352,80,21755,1,0,0:0:0:0:
352,80,21832,1,0,0:0:0:0:
352,80,21909,6,0,P|276:96|220:52,1,150,0|8,0:0|0:0,0:0:0:0:
136,32,22371,1,0,0:0:0:0:
92,112,22524,2,0,L|104:196,1,75,0|0,0:0|0:0,0:0:0:0:
34,309,22832,2,0,P|24:273|28:236,1,75,8|0,0:0|0:0,0:0:0:0:
112,268,23140,6,0,B|155:264|172:230|172:230|216:226|248:264,1,150,0|8,0:0|0:0,0:0:0:0:
300,324,23601,2,0,L|288:372,2,37.5
388,312,23909,2,0,L|360:220,1,75,0|8,0:0|0:0,0:0:0:0:
332,156,24217,1,0,0:0:0:0:
332,156,24294,1,0,0:0:0:0:
332,156,24370,6,0,B|376:144|412:160|412:160|440:136|444:92,1,150,0|8,0:0|0:0,0:0:0:0:
412,16,24832,1,0,0:0:0:0:
328,52,24986,2,0,P|292:64|252:60,1,75
131,144,25294,2,0,P|167:132|204:136,1,75,8|0,0:0|0:0,0:0:0:0:
176,220,25601,5,0,0:0:0:0:
260,192,25755,2,0,L|300:212,2,37.5,8|0|8,0:0|0:0|0:0,0:0:0:0:
252,284,26063,2,0,L|276:321,2,37.5,8|0|8,0:0|0:0|0:0,0:0:0:0:
172,328,26370,1,8,0:0:0:0:
172,328,26524,2,0,L|174:372,2,37.5,8|8|8,0:0|0:0|0:0,0:0:0:0:
84,340,26832,6,0,L|80:265,1,75,4|0,0:2|0:0,0:0:0:0:
72,176,27140,1,8,0:0:0:0:
56,53,27294,2,0,P|80:80|116:96,1,75
204,92,27600,1,0,0:0:0:0:
288,56,27755,1,8,0:0:0:0:
284,144,27909,1,0,0:0:0:0:
324,224,28063,6,0,P|356:200|372:164,1,75,4|0,0:2|0:0,0:0:0:0:
376,80,28370,1,8,0:0:0:0:
490,153,28524,2,0,P|485:114|464:88,1,75
376,80,28832,1,0,0:0:0:0:
288,56,28986,1,8,0:0:0:0:
204,92,29140,1,0,0:0:0:0:
192,180,29294,6,0,P|208:216|252:244,1,75,4|0,0:2|0:0,0:0:0:0:
324,224,29601,1,8,0:0:0:0:
455,273,29755,2,0,P|439:237|412:216,1,75,0|0,0:2|0:0,0:0:0:0:
324,224,30064,1,0,0:0:0:0:
276,300,30217,1,8,0:0:0:0:
188,284,30370,1,0,0:0:0:0:
168,196,30524,6,0,P|156:164|220:68,1,150,0|8,0:0|0:0,0:0:0:0:
296,60,30986,2,0,L|332:36,2,37.5
368,112,31294,2,0,L|406:131,2,37.5,0|0|8,0:0|0:0|0:0,0:0:0:0:
368,204,31601,1,0,0:0:0:0:
368,204,31678,1,0,0:0:0:0:
368,204,31755,6,0,P|380:264|456:304,1,150,0|8,0:0|0:0,0:0:0:0:
388,368,32217,1,0,0:0:0:0:
312,320,32370,2,0,P|284:300|240:288,1,75
228,200,32678,2,0,P|196:214|164:246,1,75,8|0,0:0|0:0,0:0:0:0:
128,324,32986,6,0,P|96:300|96:188,1,150,0|8,0:0|0:0,0:0:0:0:
52,116,33447,2,0,L|32:80,2,37.5
140,88,33755,2,0,P|176:104|228:108,1,75,0|8,0:0|0:0,0:0:0:0:
296,80,34063,1,0,0:0:0:0:
384,96,34217,6,0,L|428:84,2,37.5,8|0|0,0:0|0:0|0:0,0:0:0:0:
352,188,34524,2,0,L|396:176,2,37.5,8|0|0,0:0|0:0|0:0,0:0:0:0:
412,260,34832,2,0,L|456:248,2,37.5,8|0|0,0:0|0:0|0:0,0:0:0:0:
380,352,35140,2,0,L|424:340,2,37.5,8|0|0,0:0|0:0|0:0,0:0:0:0:
292,340,35447,6,0,L|244:320,7,37.5,8|0|0|0|8|0|0|0,0:0|0:0|0:0|0:0|0:0|0:0|0:0|0:0,0:0:0:0:
216,344,36063,6,0,L|192:297,3,37.5,4|0|0|0,0:2|0:0|0:0|0:0,0:0:0:0:
152,312,36370,2,0,L|163:261,3,37.5,8|0|0|0,0:0|0:0|0:0|0:0,0:0:0:0:
128,244,36678,6,0,L|148:164,1,75,4|0,0:2|0:0,0:0:0:0:
152,88,36986,1,0,0:0:0:0:
220,136,37140,2,0,P|232:100|228:56,1,75,2|0,0:2|0:0,0:0:0:0:
168,12,37447,1,0,0:0:0:0:
230,63,37601,2,0,L|308:56,1,75,2|0,0:2|0:0,0:0:0:0:
388,48,37909,1,0,0:0:0:0:
360,124,38063,2,0,P|360:159|376:212,2,75,2|0|0,0:2|0:0|0:0,0:0:0:0:
440,148,38524,2,0,P|473:133|511:132,1,75,2|0,0:2|0:0,0:0:0:0:
420,260,38832,2,0,P|387:275|343:275,1,75,2|0,0:2|0:0,0:0:0:0:
288,332,39140,6,0,L|240:268,1,75,2|0,0:2|0:0,0:0:0:0:
192,208,39447,1,0,0:0:0:0:
156,284,39601,2,0,P|124:256|108:220,1,75,2|0,0:2|0:0,0:0:0:0:
132,148,39909,1,0,0:0:0:0:
212,128,40063,2,0,P|248:116|280:88,1,75,2|0,0:2|0:0,0:0:0:0:
332,32,40371,1,0,0:0:0:0:
408,56,40524,2,0,L|480:96,2,75,2|0|0,0:2|0:0|0:0,0:0:0:0:
348,112,40986,2,0,P|364:144|364:188,1,75,2|0,0:2|0:0,0:0:0:0:
437,314,41294,2,0,P|421:282|420:244,1,75,2|0,0:2|0:0,0:0:0:0:
420,243,41601,6,0,P|392:284|284:280,1,150,2|4,2:0|0:2,0:0:0:0:
224,328,42063,2,0,P|216:292|224:256,1,75,2|0,0:2|0:0,0:0:0:0:
264,184,42370,1,0,0:0:0:0:
220,116,42524,2,0,P|200:84|164:64,1,75,2|0,0:2|0:0,0:0:0:0:
144,144,42832,1,0,0:0:0:0:
220,116,42986,2,0,L|300:92,2,75,2|0|0,0:2|0:0|0:0,0:0:0:0:
264,184,43447,2,0,P|304:192|329:213,1,75,2|0,0:2|0:0,0:0:0:0:
184,212,43755,2,0,P|144:204|116:180,1,75,2|0,0:2|0:0,0:0:0:0:
56,128,44063,22,0,L|32:208,1,75,2|0,0:2|0:0,0:0:0:0:
12,280,44370,1,0,0:0:0:0:
84,324,44524,2,0,P|58:350|22:362,1,75,2|0,0:2|0:0,0:0:0:0:
12,280,44832,1,0,0:0:0:0:
88,252,44986,2,0,P|129:250|163:263,1,75,2|0,0:2|0:0,0:0:0:0:
224,316,45294,1,0,0:0:0:0:
304,320,45447,2,0,P|343:318|379:297,2,75,2|0|0,0:2|0:0|0:0,0:0:0:0:
324,240,45909,2,0,P|332:204|356:168,1,75,2|0,0:2|0:0,0:0:0:0:
308,64,46217,2,0,P|300:100|280:132,1,75,2|0,0:2|0:0,0:0:0:0:
224,196,46524,5,6,0:2:0:0:
144,212,46678,1,0,0:0:0:0:
76,164,46832,1,8,0:0:0:0:
72,80,46986,1,0,0:0:0:0:
76,164,47140,2,0,P|72:200|52:240,1,75,2|0,0:2|0:0,0:0:0:0:
0,296,47446,1,8,0:0:0:0:
60,352,47601,1,0,0:0:0:0:
140,336,47755,6,0,L|220:316,1,75,2|0,0:2|0:0,0:0:0:0:
284,217,48063,2,0,L|212:236,1,75,8|0,0:0|0:0,0:0:0:0:
132,252,48370,1,2,0:2:0:0:
164,176,48524,1,0,0:0:0:0:
152,96,48678,1,8,0:0:0:0:
92,40,48832,1,0,0:0:0:0:
72,120,48986,5,2,0:2:0:0:
152,96,49140,1,0,0:0:0:0:
232,120,49294,2,0,L|272:188,1,75,8|0,0:0|0:0,0:0:0:0:
352,184,49601,2,0,P|388:168|423:167,1,75,2|0,0:2|0:0,0:0:0:0:
308,256,49910,2,0,P|272:272|232:272,1,75,8|0,0:0|0:0,0:0:0:0:
192,340,50217,38,0,L|160:296,1,44.999998626709,2|0,0:2|0:0,0:0:0:0:
88,328,50524,38,0,L|84:256,1,60,8|0,0:0|0:0,0:0:0:0:
12,224,50832,38,0,L|72:180,1,75,2|0,0:2|0:0,0:0:0:0:
52,96,51140,38,0,L|144:112,1,89.9999972534181,8|0,0:0|0:0,0:0:0:0:
220,140,51447,37,6,0:2:0:0:
300,156,51601,1,0,0:0:0:0:
372,116,51755,1,8,0:0:0:0:
392,36,51909,1,0,0:0:0:0:
372,116,52063,2,0,P|376:152|392:192,1,75,2|0,0:2|0:0,0:0:0:0:
424,264,52370,1,8,0:0:0:0:
488,316,52524,1,0,0:0:0:0:
412,344,52678,38,0,L|320:336,1,75,6|0,0:2|0:0,0:0:0:0:
308,248,52986,2,0,L|248:293,1,75,8|0,0:0|0:0,0:0:0:0:
176,336,53294,1,2,0:2:0:0:
96,328,53447,1,0,0:0:0:0:
56,256,53601,1,8,0:0:0:0:
92,180,53755,1,0,0:0:0:0:
176,176,53909,21,6,0:2:0:0:
248,132,54063,1,0,0:0:0:0:
312,80,54218,2,0,P|348:64|388:64,1,75,8|0,0:0|0:0,0:0:0:0:
404,216,54524,2,0,P|393:180|394:142,1,75,6|0,0:2|0:0,0:0:0:0:
446,14,54832,2,0,P|457:50|456:88,1,75,8|0,0:0|0:0,0:0:0:0:
476,168,55140,38,0,L|488:224,1,44.999998626709,6|0,0:2|0:2,0:0:0:0:
404,216,55447,38,0,L|396:284,1,60,8|0,0:0|0:0,0:0:0:0:
320,248,55755,38,0,L|272:308,1,75,2|0,0:2|0:0,0:0:0:0:
220,240,56063,38,0,L|128:276,1,89.9999972534181,8|0,0:0|0:0,0:0:0:0:
96,344,56370,38,0,P|112:272|60:200,1,150,6|8,0:2|0:0,0:0:0:0:
4,168,56833,1,0,0:0:0:0:
40,92,56993,38,0,P|104:60|176:88,1,150,2|8,0:2|0:0,0:0:0:0:
228,148,57466,1,0,0:0:0:0:
300,188,57624,38,0,B|320:148|300:108|300:108|332:84|372:88,1,150,2|8,0:2|0:0,0:0:0:0:
440,120,58110,1,0,0:0:0:0:
396,188,58272,38,0,P|384:232|436:316,1,150,2|8,0:2|0:0,0:0:0:0:
464,236,58772,1,0,0:0:0:0:
435,315,58938,22,0,P|364:352|300:336,1,150,2|8,0:2|0:0,0:0:0:0:
248,272,59452,1,0,0:0:0:0:
208,204,59623,6,0,B|172:232|172:268|172:268|152:236|108:220,1,150,2|8,0:2|0:0,0:0:0:0:
32,240,60152,1,0,0:0:0:0:
92,296,60328,6,0,P|112:216|68:160,1,150,2|8,0:2|0:0,0:0:0:0:
12,112,60873,1,0,0:0:0:0:
68,56,61055,6,0,P|132:44|204:92,1,150,2|8,0:2|0:0,0:0:0:0:
232,164,61616,1,0,0:0:0:0:
288,224,61805,6,0,B|320:188|312:152|312:152|388:128,1,150,2|8,0:2|0:0,0:0:0:0:
460,120,62367,1,0,0:0:0:0:
452,204,62555,6,0,B|392:220|392:220|360:256|364:304,1,150,2|12,0:2|0:2,0:0:0:0:
448,292,63100,1,0,0:0:0:0:
363,300,63282,6,0,P|288:324|212:304,1,150,2|8,0:2|0:0,0:0:0:0:
152,260,63811,1,0,0:0:0:0:
148,176,63987,6,0,B|152:136|132:104|132:104|148:68|128:28,1,150,2|12,0:2|0:2,0:0:0:0:
56,68,64501,1,0,0:0:0:0:
132,104,64672,6,0,L|212:96,1,75,2|0,0:2|0:0,0:0:0:0:
306,168,65005,2,0,L|232:176,1,75,8|0,0:0|0:0,0:0:0:0:
268,252,65338,6,0,P|292:272|312:316,1,75,2|0,0:2|0:0,0:0:0:0:
160,360,65662,2,0,P|188:344|228:332,1,75,12|0,0:2|0:0,0:0:0:0:
310,310,65986,6,0,P|349:298|369:268,1,75,2|0,0:2|0:0,0:0:0:0:
344,115,66302,2,0,P|343:149|356:188,1,75,8|0,0:0|0:0,0:0:0:0:
284,232,66617,6,0,L|212:188,1,75,2|0,0:2|0:0,0:0:0:0:
104,216,66925,2,0,L|168:256,1,75,8|0,0:0|0:0,0:0:0:0:
44,272,67232,6,0,P|24:212|72:140,1,150,4|8,0:2|0:0,0:0:0:0:
148,132,67693,1,0,0:0:0:0:
232,128,67847,2,0,B|228:84|196:60|196:60|272:40,1,150,0|8,0:0|0:0,0:0:0:0:
344,20,68308,1,0,0:0:0:0:
340,104,68462,2,0,P|360:160|444:188,1,150,0|8,0:0|0:0,0:0:0:0:
504,136,68924,1,0,0:0:0:0:
440,189,69079,2,0,P|448:229|468:265,1,75
411,358,69385,2,0,P|404:318|388:288,1,75,8|0,0:0|0:0,0:0:0:0:
328,348,69693,6,0,P|284:300|200:304,1,150,0|8,0:0|0:0,0:0:0:0:
128,336,70154,1,0,0:0:0:0:
128,252,70308,2,0,B|136:208|104:176|104:176|92:140|116:108,1,150,0|8,0:0|0:0,0:0:0:0:
196,96,70770,1,0,0:0:0:0:
256,40,70924,2,0,P|276:80|384:100,1,150,0|8,0:0|0:0,0:0:0:0:
440,60,71385,1,0,0:0:0:0:
440,144,71539,2,0,L|436:232,1,75
352,318,71847,2,0,L|356:244,1,75,8|0,0:0|0:0,0:0:0:0:
292,192,72155,5,4,0:2:0:0:
156,284,72462,2,0,L|228:240,1,75,8|0,0:0|0:0,0:0:0:0:
267,40,72924,2,0,L|204:80,1,75,0|8,0:0|0:0,0:0:0:0:
136,124,73232,1,0,0:0:0:0:
116,135,73308,1,0,0:0:0:0:
97,147,73385,5,4,0:2:0:0:
76,312,73693,2,0,L|84:236,1,75,8|0,0:0|0:0,0:0:0:0:
160,204,74002,1,0,0:0:0:0:
228,160,74155,2,0,P|264:148|312:144,1,75,0|8,0:0|0:0,0:0:0:0:
384,156,74462,1,0,0:0:0:0:
408,156,74539,1,0,0:0:0:0:
428,148,74616,6,0,L|444:236,1,75,4|0,0:2|0:0,0:0:0:0:
377,325,74924,2,0,L|364:252,1,75,8|0,0:0|0:0,0:0:0:0:
419,159,75232,6,0,L|435:247,1,75,4|0,0:2|0:0,0:0:0:0:
368,336,75540,2,0,L|354:262,1,75,8|0,0:0|0:0,0:0:0:0:
276,284,75847,6,0,L|252:244,3,37.5,4|0|0|0,0:2|0:0|0:0|0:0,0:0:0:0:
216,264,76155,2,0,L|215:217,3,37.5,8|0|0|0,0:0|0:0|0:0|0:0,0:0:0:0:
176,220,76462,2,0,L|198:179,3,37.5
160,164,76770,2,0,L|200:139,3,37.5,8|0|0|0,0:0|0:0|0:0|0:0,0:0:0:0:
176,104,77078,6,0,L|252:116,1,75,4|0,0:2|0:0,0:0:0:0:
332,104,77385,1,8,0:0:0:0:
404,60,77539,1,0,0:0:0:0:
416,140,77693,2,0,B|404:176|364:188|364:188|360:232|392:268,1,150,0|8,0:0|0:0,0:0:0:0:
456,310,78155,1,0,0:0:0:0:
436,322,78232,1,0,0:0:0:0:
416,334,78308,6,0,L|332:338,1,75,4|0,0:2|0:0,0:0:0:0:
215,319,78616,2,0,P|248:308|276:280,1,75,8|0,0:0|0:0,0:0:0:0:
308,204,78924,1,0,0:0:0:0:
296,124,79078,1,0,0:0:0:0:
236,68,79232,1,8,0:0:0:0:
152,68,79385,1,0,0:0:0:0:
92,124,79539,6,0,L|108:164,3,37.5,4|0|0|0,0:2|0:0|0:0|0:0,0:0:0:0:
76,188,79847,2,0,L|68:236,3,37.5,8|0|4|0,0:0|0:0|0:2|0:0,0:0:0:0:
28,216,80155,2,0,L|-4:288,1,75,0|0,0:0|0:0,0:0:0:0:
45,380,80463,2,0,L|76:312,1,75,12|0,0:2|0:0,0:0:0:0:
156,308,80770,6,0,L|148:264,3,37.5,0|0|0|0,0:0|0:0|0:0|0:0,0:0:0:0:
188,256,81079,2,0,L|159:221,3,37.5,12|0|0|0,0:2|0:0|0:0|0:0,0:0:0:0:
192,196,81385,2,0,L|128:156,1,75,0|0,0:0|0:0,0:0:0:0:
252,136,81693,2,0,L|315:175,1,75,12|0,0:2|0:0,0:0:0:0:
392,212,82001,6,0,L|404:176,3,37.5
440,156,82308,2,0,L|414:127,3,37.5,8|0|0|0,0:0|0:0|0:0|0:0,0:0:0:0:
412,88,82616,2,0,L|374:95,3,37.5
340,72,82924,2,0,L|312:152,1,75,12|0,0:2|0:0,0:0:0:0:
219,179,83232,6,0,L|232:144,3,37.5
196,128,83539,2,0,L|171:99,3,37.5,8|0|0|0,0:0|0:0|0:0|0:0,0:0:0:0:
136,120,83847,2,0,L|99:126,3,37.5
108,168,84155,2,0,L|83:238,1,75,12|0,0:2|0:0,0:0:0:0:
64,320,84462,5,0,0:0:0:0:
144,308,84616,1,0,0:0:0:0:
224,336,84770,2,0,P|260:328|292:300,1,75,8|0,0:0|0:0,0:0:0:0:
261,161,85078,2,0,P|244:194|244:232,1,75
324,216,85385,1,12,0:2:0:0:
324,216,85693,6,0,L|360:192,3,37.5
392,212,86001,2,0,L|404:170,3,37.5,0|0|0|0,0:0|0:0|0:0|0:0,0:0:0:0:
444,172,86308,2,0,L|380:28,1,150,4|0,0:2|0:0,0:0:0:0:
236,112,86924,6,0,L|221:77,2,37.5,4|0|0,0:2|0:0|0:0,0:0:0:0:
212,200,87232,1,8,0:0:0:0:
124,200,87385,1,0,0:0:0:0:
96,284,87539,2,0,L|180:312,1,75,0|0,0:0|0:0,0:0:0:0:
323,295,87847,2,0,L|252:272,1,75,8|0,0:0|0:0,0:0:0:0:
316,208,88155,6,0,L|351:219,2,37.5,4|0|0,0:2|0:0|0:0,0:0:0:0:
360,128,88463,1,8,0:0:0:0:
448,116,88616,1,0,0:0:0:0:
480,32,88770,2,0,P|444:28|400:40,1,75,0|0,0:0|0:0,0:0:0:0:
246,62,89078,2,0,P|280:68|320:60,1,75,8|0,0:0|0:0,0:0:0:0:
164,32,89385,6,0,L|148:68,2,37.5,4|0|0,0:2|0:0|0:0,0:0:0:0:
72,32,89693,1,8,0:0:0:0:
36,116,89847,1,0,0:0:0:0:
84,192,90001,2,0,P|116:208|172:208,1,75
261,297,90308,2,0,P|228:288|188:288,1,75,8|0,0:0|0:0,0:0:0:0:
300,364,90616,6,0,P|336:316|312:236,1,150,0|8,0:0|0:0,0:0:0:0:
236,188,91078,2,0,L|224:140,2,37.5
327,108,91385,2,0,L|316:144,2,37.5,0|0|8,0:0|0:0|0:0,0:0:0:0:
356,24,91693,1,0,0:0:0:0:
356,24,91770,1,0,0:0:0:0:
356,24,91847,6,0,P|392:60|500:44,1,150,0|8,0:0|0:0,0:0:0:0:
476,144,92308,1,0,0:0:0:0:
444,228,92462,2,0,P|428:260|396:292,1,75
282,219,92770,2,0,P|316:208|356:212,1,75,8|0,0:0|0:0,0:0:0:0:
316,296,93078,6,0,B|268:312|228:288|228:288|200:300|184:328,1,150,0|8,0:0|0:0,0:0:0:0:
96,336,93539,1,0,0:0:0:0:
104,316,93616,1,0,0:0:0:0:
104,292,93693,2,0,P|100:248|88:212,1,75
20,160,94001,1,8,0:0:0:0:
108,148,94155,1,0,0:0:0:0:
132,144,94232,1,0,0:0:0:0:
156,140,94308,6,0,L|308:116,1,150,0|8,0:0|0:0,0:0:0:0:
396,104,94770,1,0,0:0:0:0:
480,136,94924,2,0,P|463:168|433:191,1,75
387,10,95231,2,0,P|424:15|456:36,1,75,8|0,0:0|0:0,0:0:0:0:
396,104,95540,5,0,0:0:0:0:
352,184,95693,2,0,L|334:216,2,37.5,8|0|8,0:0|0:0|0:0,0:0:0:0:
296,112,96001,2,0,L|288:75,2,37.5,8|0|8,0:0|0:0|0:0,0:0:0:0:
248,188,96308,1,8,0:0:0:0:
248,188,96462,2,0,L|200:208,2,37.5,8|8|8,0:0|0:0|0:0,0:0:0:0:
209,294,96770,6,0,L|244:280,2,37.5,4|0|0,0:2|0:0|0:0,0:0:0:0:
136,244,97078,1,8,0:0:0:0:
92,168,97232,2,0,L|40:152,2,37.5
184,176,97540,1,0,0:0:0:0:
268,148,97692,1,8,0:0:0:0:
312,68,97846,1,0,0:0:0:0:
404,68,98001,6,0,L|452:72,2,37.5,4|0|0,0:2|0:0|0:0,0:0:0:0:
372,152,98308,1,8,0:0:0:0:
404,236,98462,2,0,L|416:288,2,37.5
316,220,98771,1,0,0:0:0:0:
236,256,98924,1,8,0:0:0:0:
212,344,99078,1,0,0:0:0:0:
128,312,99232,6,0,L|80:304,2,37.5,4|0|0,0:2|0:0|0:0,0:0:0:0:
84,232,99539,1,8,0:0:0:0:
44,152,99694,2,0,L|9:167,2,37.5,4|0|0,0:2|0:0|0:2,0:0:0:0:
64,64,100001,1,0,0:0:0:0:
152,44,100155,2,0,L|232:40,1,75,12|0,0:2|0:0,0:0:0:0:
120,124,100462,6,0,L|300:116,1,150,0|12,0:0|0:2,0:0:0:0:
352,80,100924,2,0,L|368:40,2,37.5
344,172,101232,2,0,L|376:252,1,75,0|12,0:0|0:2,0:0:0:0:
296,288,101539,1,0,0:0:0:0:
272,284,101616,1,0,0:0:0:0:
248,288,101693,6,0,P|212:292|164:280,1,75
52,204,102001,2,0,P|88:200|125:207,1,75,8|0,0:0|0:0,0:0:0:0:
84,288,102308,1,0,0:0:0:0:
52,204,102462,1,0,0:0:0:0:
76,116,102616,1,12,0:2:0:0:
156,76,102770,1,0,0:0:0:0:
244,96,102924,6,0,B|232:136|192:156|192:156|232:224,1,150,0|8,0:0|0:0,0:0:0:0:
252,300,103385,2,0,L|232:344,2,37.5
344,300,103693,2,0,L|340:224,1,75,0|12,0:0|0:2,0:0:0:0:
336,136,104001,1,0,0:0:0:0:
348,48,104155,6,0,L|388:76,3,37.5,0|0|0|0,0:0|0:0|0:0|0:0,0:0:0:0:
420,56,104462,2,0,L|432:103,3,37.5,8|0|0|0,0:0|0:0|0:0|0:0,0:0:0:0:
472,108,104770,2,0,L|451:152,3,37.5,0|0|0|0,0:0|0:0|0:0|0:0,0:0:0:0:
468,184,105078,2,0,L|423:204,3,37.5,12|0|0|0,0:2|0:0|0:0|0:0,0:0:0:0:
256,192,105386,12,0,106308,0:0:0:0:
160,304,106616,6,0,L|176:268,3,37.5,4|0|0|0,0:0|0:0|0:0|0:0,0:0:0:0:
220,264,106924,2,0,L|209:226,3,37.5,2|0|0|0,0:0|0:0|0:0|0:0,0:0:0:0:
244,200,107232,2,0,L|211:177,3,37.5,0|0|0|0,0:0|0:0|0:0|0:0,0:0:0:0:
220,136,107539,2,0,L|141:144,1,75,2|0,0:0|0:0,0:0:0:0:
184,60,107847,6,0,L|230:56,3,37.5
248,20,108155,2,0,L|286:46,3,37.5,2|0|0|0,0:0|0:0|0:0|0:0,0:0:0:0:
320,28,108462,2,0,L|331:73,3,37.5,0|0|0|0,0:0|0:0|0:0|0:0,0:0:0:0:
376,76,108770,2,0,L|342:146,1,75,2|0,0:0|0:0,0:0:0:0:
364,232,109078,6,0,L|347:265,3,37.5
364,308,109385,2,0,L|329:322,3,37.5,2|0|0|0,0:0|0:0|0:0|0:0,0:0:0:0:
288,308,109693,6,0,L|260:333,3,37.5
224,308,110001,2,0,L|186:310,3,37.5,2|0|0|0,0:0|0:0|0:0|0:0,0:0:0:0:
172,268,110308,6,0,L|141:245,3,37.5,2|0|0|0,0:0|0:0|0:0|0:0,0:0:0:0:
96,244,110616,2,0,L|101:183,3,37.5,2|0|0|0,0:0|0:0|0:0|0:0,0:0:0:0:
76,168,110924,2,0,L|126:133,3,37.5,2|0|0|0,0:0|0:0|0:0|0:0,0:0:0:0:
120,104,111232,2,0,L|208:132,2,75,2|0|4,0:0|0:0|0:0,0:0:0:0:
256,192,111616,12,0,116001,0:0:0:0:
