osu file format v13

[General]
AudioFilename: Tsunagu Kizuna.mp3
AudioLeadIn: 0
PreviewTime: 57444
Countdown: 0
SampleSet: Normal
StackLeniency: 0.7
Mode: 3
LetterboxInBreaks: 0
SpecialStyle: 0
WidescreenStoryboard: 1

[Editor]
DistanceSpacing: 0.8
BeatDivisor: 4
GridSize: 32
TimelineZoom: 1.4

[Metadata]
Title:tsunagukizuna
TitleUnicode:ツナグキズナ
Artist:Team.Nekokan[Neko] featuring.Amaoto Junka
ArtistUnicode:Team.ねこかん【猫】 featuring.天乙准花
Creator:- [ S o r a ] -
Version:NM
Source:ヨスガノソラ
Tags:insert vocaloid1anime2 V1A2 Yosuga no Sora
BeatmapID:496179
BeatmapSetID:180701

[Difficulty]
HPDrainRate:7
CircleSize:4
OverallDifficulty:7
ApproachRate:5
SliderMultiplier:1.4
SliderTickRate:1

[Events]
//Background and Video events
0,0,"4353534.jpg",0,0
//Break Periods
//Storyboard Layer 0 (Background)
//Storyboard Layer 1 (Fail)
//Storyboard Layer 2 (Pass)
//Storyboard Layer 3 (Foreground)
//Storyboard Sound Samples
Sample,7270,0,"08.wav",70
Sample,7492,0,"32.wav",70
Sample,7714,0,"33.wav",70
Sample,8381,0,"34.wav",70
Sample,9714,0,"35.wav",70
Sample,10381,0,"36.wav",70
Sample,10603,0,"37.wav",70
Sample,10825,0,"36.wav",70
Sample,11047,0,"38.wav",70
Sample,11270,0,"39.wav",70
Sample,48825,0,"40.wav",70
Sample,49270,0,"41.wav",70
Sample,49714,0,"42.wav",70
Sample,50158,0,"43.wav",70
Sample,50381,0,"44.wav",70
//Background Colour Transformations
3,100,163,162,255

[TimingPoints]
159,444.444444444444,4,1,1,70,1,0
57492,-100,4,1,1,70,0,1
82381,-100,4,1,1,70,0,0

[HitObjects]
192,192,159,5,0,0:0:0:70:01.wav
320,192,381,1,0,0:0:0:70:02.wav
448,192,603,1,0,0:0:0:70:03.wav
320,192,1270,1,0,0:0:0:70:04.wav
64,192,1936,1,0,0:0:0:70:06.wav
448,192,2158,1,0,0:0:0:70:02.wav
320,192,2381,1,0,0:0:0:70:03.wav
192,192,3047,1,0,0:0:0:70:04.wav
448,192,3714,1,0,0:0:0:70:06.wav
64,192,3936,1,0,0:0:0:70:04.wav
192,192,4158,1,0,0:0:0:70:07.wav
64,192,4825,1,0,0:0:0:70:08.wav
64,192,5270,1,0,0:0:0:70:09.wav
320,192,5492,1,0,0:0:0:70:10.wav
448,192,5714,1,0,0:0:0:70:11.wav
192,192,5936,128,0,7714:0:0:0:0:
320,192,6603,1,0,0:0:0:70:08.wav
448,192,6825,1,8,0:0:0:0:
64,192,7047,1,8,0:0:0:0:
448,192,7270,1,8,0:0:0:0:
64,192,7492,1,8,0:0:0:0:
320,192,7714,1,2,0:0:0:0:
448,192,7936,1,0,0:0:0:0:
320,192,8158,1,2,0:0:0:0:
64,192,8381,1,0,0:0:0:0:
448,192,8603,1,2,0:0:0:0:
320,192,8825,1,0,0:0:0:0:
192,192,9047,1,2,0:0:0:0:
448,192,9270,1,0,0:0:0:0:
64,192,9492,1,2,0:0:0:0:
192,192,9714,1,0,0:0:0:0:
320,192,9936,1,2,0:0:0:0:
448,192,10158,1,0,0:0:0:0:
64,192,10381,1,2,0:0:0:0:
192,192,10603,1,0,0:0:0:0:
448,192,10825,1,2,0:0:0:0:
320,192,11047,1,0,0:0:0:0:
64,192,11270,1,2,0:0:0:0:
192,192,11492,1,0,0:0:0:0:
64,192,11714,1,2,0:0:0:0:
320,192,11936,1,0,0:0:0:0:
448,192,12158,1,2,0:0:0:0:
192,192,12381,1,8,0:0:0:70:12.wav
448,192,12603,1,2,0:0:0:70:13.wav
320,192,12825,1,8,0:0:0:0:
64,192,12825,128,0,13714:0:0:0:70:14.wav
448,192,13714,128,0,14158:0:0:0:70:15.wav
192,192,13936,1,8,0:0:0:0:
64,192,14158,1,0,0:0:0:70:16.wav
320,192,14381,1,0,0:0:0:70:17.wav
448,192,14603,1,8,0:0:0:70:18.wav
320,192,14825,1,0,0:0:0:70:19.wav
64,192,14825,1,2,0:0:0:0:
448,192,15270,1,0,0:0:0:0:
320,192,15714,1,0,0:0:0:0:
192,192,16158,1,0,0:0:0:0:
448,192,16381,1,2,0:0:0:0:
64,192,16603,1,2,0:0:0:0:
64,192,17047,1,0,0:0:0:0:
320,192,17492,1,0,0:0:0:0:
64,192,17936,1,0,0:0:0:0:
448,192,18158,1,2,0:0:0:0:
192,192,18381,1,2,0:0:0:0:
64,192,18825,1,0,0:0:0:0:
320,192,19270,1,0,0:0:0:0:
192,192,19714,1,0,0:0:0:0:
64,192,19936,1,2,0:0:0:0:
448,192,20158,1,2,0:0:0:0:
320,192,20603,1,0,0:0:0:0:
192,192,21047,1,0,0:0:0:0:
64,192,21492,1,0,0:0:0:0:
192,192,21714,1,2,0:0:0:0:
64,192,21936,1,2,0:0:0:0:
448,192,21936,1,8,0:0:0:0:
320,192,22381,1,0,0:0:0:0:
192,192,22825,1,0,0:0:0:0:
64,192,23270,1,0,0:0:0:0:
448,192,23492,1,2,0:0:0:0:
192,192,23714,1,2,0:0:0:0:
64,192,24158,1,0,0:0:0:0:
448,192,24603,1,0,0:0:0:0:
320,192,25047,1,0,0:0:0:0:
64,192,25270,1,2,0:0:0:0:
448,192,25492,1,2,0:0:0:0:
192,192,25936,1,0,0:0:0:0:
320,192,26381,1,0,0:0:0:0:
192,192,26825,1,0,0:0:0:0:
64,192,27047,1,2,0:0:0:0:
448,192,27270,1,2,0:0:0:0:
320,192,27492,1,2,0:0:0:0:
64,192,27714,1,2,0:0:0:0:
320,192,27936,1,2,0:0:0:0:
192,192,28158,1,2,0:0:0:0:
448,192,28381,1,2,0:0:0:0:
192,192,28603,1,2,0:0:0:0:
448,192,28825,1,2,0:0:0:0:
64,192,28825,1,4,0:0:0:0:
320,192,29047,1,2,0:0:0:0:
320,192,29492,1,8,0:0:0:0:
64,192,29492,1,2,0:0:0:0:
64,192,29936,1,2,0:0:0:0:
448,192,30381,1,8,0:0:0:0:
64,192,30381,1,2,0:0:0:0:
320,192,30825,1,2,0:0:0:0:
64,192,31270,1,8,0:0:0:0:
320,192,31270,1,2,0:0:0:0:
320,192,31714,1,2,0:0:0:0:
64,192,32158,1,8,0:0:0:0:
448,192,32158,1,2,0:0:0:0:
320,192,32381,1,2,0:0:0:0:
192,192,32603,1,2,0:0:0:0:
64,192,33047,1,8,0:0:0:0:
320,192,33047,1,2,0:0:0:0:
192,192,33492,1,2,0:0:0:0:
448,192,33936,1,8,0:0:0:0:
64,192,33936,1,2,0:0:0:0:
320,192,34381,1,2,0:0:0:0:
192,192,34825,1,8,0:0:0:0:
448,192,34825,1,2,0:0:0:0:
320,192,35270,1,2,0:0:0:0:
64,192,35714,1,8,0:0:0:0:
448,192,35714,1,2,0:0:0:0:
192,192,35936,1,2,0:0:0:0:
64,192,36158,1,2,0:0:0:0:
448,192,36158,1,4,0:0:0:0:
192,192,36603,1,8,0:0:0:0:
448,192,36603,1,2,0:0:0:0:
320,192,37047,1,2,0:0:0:0:
320,192,37492,1,8,0:0:0:0:
192,192,37492,1,2,0:0:0:0:
192,192,37936,1,2,0:0:0:0:
192,192,38381,1,8,0:0:0:0:
320,192,38381,1,2,0:0:0:0:
64,192,38825,1,2,0:0:0:0:
320,192,39270,1,10,0:0:0:0:
192,192,39492,1,4,0:0:0:0:
448,192,39492,1,2,0:0:0:0:
64,192,39936,1,2,0:0:0:0:
320,192,40158,1,8,0:0:0:0:
448,192,40158,1,2,0:0:0:0:
192,192,40603,1,2,0:0:0:0:
448,192,41047,1,8,0:0:0:0:
64,192,41047,1,2,0:0:0:0:
192,192,41270,1,2,0:0:0:0:
64,192,41492,1,8,0:0:0:0:
448,192,41492,1,0,0:0:0:0:
320,192,41714,1,2,0:0:0:0:
64,192,41936,1,8,0:0:0:0:
448,192,42158,1,2,0:0:0:0:
192,192,42381,1,8,0:0:0:0:
448,192,42603,1,2,0:0:0:0:
192,192,42825,1,8,0:0:0:0:
64,192,43047,1,2,0:0:0:0:
192,192,43270,1,2,0:0:0:0:
448,192,43270,1,4,0:0:0:0:
448,192,43714,1,8,0:0:0:0:
320,192,43714,1,2,0:0:0:0:
320,192,44158,1,2,0:0:0:0:
192,192,44603,1,8,0:0:0:0:
64,192,44603,1,2,0:0:0:0:
448,192,45047,128,0,45492:0:0:0:70:20.wav
192,192,45047,1,2,0:0:0:0:
192,192,45492,128,0,45936:0:0:0:70:21.wav
64,192,45492,1,8,0:0:0:0:
448,192,45936,1,2,0:0:0:0:
64,192,45936,128,0,46381:0:0:0:70:22.wav
448,192,46381,1,8,0:0:0:0:
320,192,46381,128,0,46825:0:0:0:70:21.wav
64,192,46825,1,2,0:0:0:0:
192,192,46825,128,0,47270:0:0:0:70:22.wav
320,192,47270,1,8,0:0:0:0:
448,192,47270,1,2,0:0:0:0:
192,192,47714,1,2,0:0:0:0:
320,192,48158,1,8,0:0:0:0:
64,192,48158,1,2,0:0:0:0:
192,192,48603,1,2,0:0:0:0:
448,192,49047,1,8,0:0:0:0:
64,192,49047,1,2,0:0:0:0:
320,192,49492,1,2,0:0:0:0:
448,192,49936,1,8,0:0:0:0:
64,192,49936,1,2,0:0:0:0:
64,192,50381,1,2,0:0:0:0:
320,192,50825,1,8,0:0:0:0:
192,192,50825,1,2,0:0:0:0:
448,192,51270,1,2,0:0:0:0:
192,192,51714,1,8,0:0:0:0:
64,192,51714,1,2,0:0:0:0:
320,192,52158,1,2,0:0:0:0:
192,192,52492,1,2,0:0:0:0:
320,192,52825,1,2,0:0:0:0:
192,192,53047,1,8,0:0:0:0:
448,192,53047,1,2,0:0:0:0:
192,192,53381,1,8,0:0:0:0:
448,192,53381,1,2,0:0:0:0:
64,192,53714,1,8,0:0:0:0:
320,192,53714,1,2,0:0:0:0:
192,192,53936,128,0,56158:0:0:0:0:
448,192,54381,1,0,0:0:0:70:23.wav
320,192,54825,1,0,0:0:0:70:24.wav
64,192,55270,1,0,0:0:0:70:25.wav
448,192,55714,1,0,0:0:0:70:26.wav
64,192,56158,128,0,56603:0:0:0:0:
320,192,56603,128,0,57047:0:0:0:0:
448,192,57047,128,0,57492:0:0:0:0:
64,192,57492,1,4,0:0:0:0:
320,192,57492,1,2,0:0:0:0:
192,192,57714,1,2,0:0:0:0:
448,192,57936,1,8,0:0:0:0:
64,192,57936,1,2,0:0:0:0:
192,192,58158,1,2,0:0:0:0:
192,192,58603,1,2,0:0:0:0:
64,192,58825,1,8,0:0:0:0:
448,192,58825,1,2,0:0:0:0:
192,192,59270,1,2,0:0:0:0:
320,192,59492,1,2,0:0:0:0:
64,192,59714,1,8,0:0:0:0:
448,192,59714,1,2,0:0:0:0:
320,192,59936,1,2,0:0:0:0:
320,192,60381,1,2,0:0:0:0:
448,192,60603,1,8,0:0:0:0:
64,192,60603,1,2,0:0:0:0:
192,192,61047,1,2,0:0:0:0:
64,192,61270,1,2,0:0:0:0:
448,192,61492,1,8,0:0:0:0:
320,192,61492,1,2,0:0:0:0:
64,192,61714,1,2,0:0:0:0:
64,192,62158,1,2,0:0:0:0:
320,192,62381,1,10,0:0:0:0:
64,192,62603,1,2,0:0:0:0:
448,192,62603,1,4,0:0:0:0:
64,192,63047,1,2,0:0:0:0:
320,192,63270,1,8,0:0:0:0:
448,192,63492,1,2,0:0:0:0:
192,192,63714,1,8,0:0:0:0:
320,192,64158,1,8,0:0:0:0:
448,192,64603,1,2,0:0:0:0:
320,192,64825,1,2,0:0:0:0:
192,192,65047,1,8,0:0:0:0:
64,192,65047,1,2,0:0:0:0:
320,192,65270,1,2,0:0:0:0:
320,192,65714,1,2,0:0:0:0:
192,192,65936,1,8,0:0:0:0:
448,192,65936,1,2,0:0:0:0:
320,192,66381,1,2,0:0:0:0:
448,192,66603,1,2,0:0:0:0:
320,192,66825,1,8,0:0:0:0:
64,192,66825,1,2,0:0:0:0:
448,192,67047,1,2,0:0:0:0:
448,192,67492,1,2,0:0:0:0:
192,192,67714,1,8,0:0:0:0:
64,192,67714,1,2,0:0:0:0:
320,192,68158,1,2,0:0:0:0:
448,192,68381,1,2,0:0:0:0:
192,192,68603,1,8,0:0:0:0:
320,192,68603,1,2,0:0:0:0:
448,192,68825,1,2,0:0:0:0:
192,192,69270,1,8,0:0:0:0:
320,192,69492,1,8,0:0:0:0:
448,192,69492,1,2,0:0:0:0:
192,192,69714,1,8,0:0:0:0:
64,192,69936,1,12,0:0:0:0:
448,192,69936,1,0,0:0:0:70:27.wav
320,192,70381,1,12,0:0:0:0:
64,192,70381,1,0,0:0:0:0:
192,192,70825,1,0,0:0:0:70:28.wav
448,192,70825,1,12,0:0:0:0:
64,192,71270,1,8,0:0:0:0:
448,192,71270,1,4,0:0:0:0:
192,192,71714,1,2,0:0:0:0:
448,192,71714,1,0,0:0:0:70:29.wav
320,192,71936,1,2,0:0:0:0:
448,192,72158,1,8,0:0:0:0:
64,192,72158,1,2,0:0:0:0:
320,192,72381,1,2,0:0:0:0:
192,192,72825,1,2,0:0:0:0:
64,192,73047,1,8,0:0:0:0:
448,192,73047,1,2,0:0:0:0:
448,192,73492,1,2,0:0:0:0:
192,192,73714,1,2,0:0:0:0:
64,192,73936,1,8,0:0:0:0:
448,192,73936,1,2,0:0:0:0:
192,192,74158,1,2,0:0:0:0:
320,192,74603,1,2,0:0:0:0:
448,192,74825,1,8,0:0:0:0:
64,192,74825,1,2,0:0:0:0:
448,192,75270,1,2,0:0:0:0:
320,192,75492,1,2,0:0:0:0:
64,192,75714,1,8,0:0:0:0:
448,192,75714,1,2,0:0:0:0:
320,192,75936,1,2,0:0:0:0:
320,192,76381,1,2,0:0:0:0:
192,192,76603,1,8,0:0:0:0:
64,192,76603,1,2,0:0:0:0:
320,192,76825,1,2,0:0:0:0:
448,192,76825,1,4,0:0:0:0:
320,192,77270,1,2,0:0:0:0:
192,192,77492,1,8,0:0:0:0:
448,192,77492,1,2,0:0:0:0:
64,192,77714,1,2,0:0:0:0:
192,192,77936,1,2,0:0:0:0:
448,192,77936,1,8,0:0:0:0:
320,192,78158,1,2,0:0:0:0:
64,192,78381,1,8,0:0:0:0:
448,192,78381,1,2,0:0:0:0:
192,192,78825,1,2,0:0:0:0:
320,192,79047,1,2,0:0:0:0:
192,192,79270,1,8,0:0:0:0:
64,192,79270,1,2,0:0:0:0:
320,192,79492,1,2,0:0:0:0:
320,192,79936,1,2,0:0:0:0:
448,192,80158,1,8,0:0:0:0:
192,192,80158,1,2,0:0:0:0:
320,192,80603,1,6,0:0:0:0:
64,192,80603,1,0,0:0:0:70:30.wav
448,192,81047,128,0,82381:0:0:0:70:31.wav
192,192,81047,1,6,0:0:0:0:
64,192,82381,128,0,86455:0:0:0:0:
448,192,86455,1,0,0:0:0:0:
