osu file format v13

[General]
AudioFilename: Tsunagu Kizuna.mp3
AudioLeadIn: 0
PreviewTime: 57444
Countdown: 0
SampleSet: Normal
StackLeniency: 0.7
Mode: 3
LetterboxInBreaks: 0
SpecialStyle: 0
WidescreenStoryboard: 0

[Editor]
DistanceSpacing: 0.8
BeatDivisor: 2
GridSize: 32
TimelineZoom: 1.4

[Metadata]
Title:tsunagukizuna
TitleUnicode:ツナグキズナ
Artist:Team.Nekokan[Neko] featuring.Amaoto Junka
ArtistUnicode:Team.ねこかん【猫】 featuring.天乙准花
Creator:- [ S o r a ] -
Version:EZ
Source:ヨスガノソラ
Tags:insert vocaloid1anime2 V1A2 Yosuga no Sora
BeatmapID:434119
BeatmapSetID:180701

[Difficulty]
HPDrainRate:7
CircleSize:4
OverallDifficulty:6
ApproachRate:5
SliderMultiplier:1.4
SliderTickRate:1

[Events]
//Background and Video events
0,0,"4353534.jpg",0,0
//Break Periods
//Storyboard Layer 0 (Background)
//Storyboard Layer 1 (Fail)
//Storyboard Layer 2 (Pass)
//Storyboard Layer 3 (Foreground)
//Storyboard Sound Samples
Sample,2158,0,"02.wav",70
Sample,3936,0,"02.wav",70
Sample,6603,0,"01.wav",70
Sample,7270,0,"01.wav",70
Sample,7492,0,"32.wav",70
Sample,7714,0,"33.wav",70
Sample,8381,0,"34.wav",70
Sample,9714,0,"35.wav",70
Sample,10381,0,"36.wav",70
Sample,10603,0,"37.wav",70
Sample,10825,0,"36.wav",70
Sample,11047,0,"38.wav",70
Sample,11270,0,"39.wav",70
Sample,12381,0,"12.wav",70
Sample,14158,0,"16.wav",70
Sample,14603,0,"18.wav",70
Sample,14825,0,"19.wav",70
Sample,45047,0,"20.wav",70
Sample,45936,0,"22.wav",70
Sample,46825,0,"22.wav",70
Sample,48825,0,"40.wav",70
Sample,49270,0,"41.wav",70
Sample,49714,0,"42.wav",70
Sample,50158,0,"43.wav",70
Sample,50381,0,"44.wav",70
Sample,71714,0,"29.wav",70
//Background Colour Transformations
3,100,163,162,255

[TimingPoints]
159,444.444444444444,4,1,1,70,1,0
57492,-100,4,1,1,70,0,1
82381,-100,4,1,1,70,0,0

[HitObjects]
448,192,159,5,0,0:0:0:70:01.wav
320,192,381,1,0,0:0:0:70:02.wav
192,192,603,1,0,0:0:0:70:03.wav
64,192,1270,1,0,0:0:0:70:04.wav
448,192,1936,1,0,0:0:0:70:06.wav
192,192,2381,1,0,0:0:0:70:03.wav
320,192,3047,1,0,0:0:0:70:04.wav
448,192,3714,1,0,0:0:0:70:06.wav
320,192,4158,1,0,0:0:0:70:07.wav
192,192,4825,1,0,0:0:0:70:08.wav
64,192,5270,1,0,0:0:0:70:09.wav
320,192,5492,1,0,0:0:0:70:10.wav
448,192,5714,1,0,0:0:0:70:11.wav
64,192,5936,128,0,7714:0:0:0:0:
448,192,6825,1,8,0:0:0:0:
320,192,7047,1,8,0:0:0:0:
448,192,7270,1,8,0:0:0:0:
320,192,7714,1,2,0:0:0:0:
448,192,8158,1,2,0:0:0:0:
64,192,8603,1,2,0:0:0:0:
448,192,9047,1,2,0:0:0:0:
64,192,9492,1,2,0:0:0:0:
192,192,9936,1,2,0:0:0:0:
448,192,10381,1,2,0:0:0:0:
320,192,10825,1,2,0:0:0:0:
64,192,11270,1,2,0:0:0:0:
192,192,11714,1,2,0:0:0:0:
448,192,12158,1,2,0:0:0:0:
320,192,12603,1,8,0:0:0:70:13.wav
64,192,12825,128,0,13714:0:0:0:70:14.wav
192,192,12825,1,2,0:0:0:0:
448,192,13714,128,0,14381:0:0:0:70:15.wav
64,192,14381,1,0,0:0:0:70:17.wav
192,192,14825,1,2,0:0:0:0:
320,192,15714,1,0,0:0:0:0:
192,192,16381,1,2,0:0:0:0:
320,192,16603,1,2,0:0:0:0:
192,192,17492,1,0,0:0:0:0:
320,192,18158,1,2,0:0:0:0:
192,192,18381,1,2,0:0:0:0:
448,192,19270,1,0,0:0:0:0:
320,192,19936,1,2,0:0:0:0:
192,192,20158,1,2,0:0:0:0:
64,192,21047,1,0,0:0:0:0:
192,192,21714,1,2,0:0:0:0:
320,192,21936,1,10,0:0:0:0:
320,192,22825,1,0,0:0:0:0:
448,192,23492,1,2,0:0:0:0:
320,192,23714,1,2,0:0:0:0:
192,192,24603,1,0,0:0:0:0:
64,192,25270,1,2,0:0:0:0:
192,192,25492,1,2,0:0:0:0:
320,192,26381,1,0,0:0:0:0:
448,192,27047,1,2,0:0:0:0:
64,192,27270,1,2,0:0:0:0:
320,192,27492,1,2,0:0:0:0:
192,192,27936,1,2,0:0:0:0:
320,192,28381,1,2,0:0:0:0:
64,192,28603,1,2,0:0:0:0:
320,192,28825,1,2,0:0:0:0:
448,192,28825,1,4,0:0:0:0:
64,192,29047,1,2,0:0:0:0:
320,192,29492,1,8,0:0:0:0:
64,192,29936,1,2,0:0:0:0:
448,192,30381,1,8,0:0:0:0:
320,192,30825,1,2,0:0:0:0:
64,192,31270,1,8,0:0:0:0:
320,192,31714,1,2,0:0:0:0:
192,192,32158,1,8,0:0:0:0:
448,192,32603,1,2,0:0:0:0:
64,192,33047,1,8,0:0:0:0:
448,192,33492,1,2,0:0:0:0:
192,192,33936,1,8,0:0:0:0:
320,192,34381,1,2,0:0:0:0:
64,192,34825,1,8,0:0:0:0:
448,192,35270,1,2,0:0:0:0:
192,192,35714,1,8,0:0:0:0:
320,192,36158,1,2,0:0:0:0:
448,192,36158,1,4,0:0:0:0:
192,192,36603,1,8,0:0:0:0:
448,192,37047,1,2,0:0:0:0:
320,192,37492,1,8,0:0:0:0:
64,192,37936,1,2,0:0:0:0:
448,192,38381,1,8,0:0:0:0:
64,192,38825,1,2,0:0:0:0:
192,192,39270,1,8,0:0:0:0:
64,192,39492,1,4,0:0:0:0:
448,192,39492,1,2,0:0:0:0:
192,192,40158,1,8,0:0:0:0:
64,192,40603,1,2,0:0:0:0:
320,192,41047,1,8,0:0:0:0:
64,192,41492,1,8,0:0:0:0:
192,192,41936,1,8,0:0:0:0:
448,192,42381,1,8,0:0:0:0:
320,192,42825,1,8,0:0:0:0:
64,192,43270,1,2,0:0:0:0:
192,192,43270,1,4,0:0:0:0:
448,192,43714,1,8,0:0:0:0:
192,192,44158,1,2,0:0:0:0:
320,192,44603,1,8,0:0:0:0:
192,192,45047,1,2,0:0:0:0:
448,192,45492,1,8,0:0:0:0:
64,192,45492,1,0,0:0:0:70:21.wav
192,192,45936,1,2,0:0:0:0:
320,192,46381,1,8,0:0:0:0:
448,192,46381,1,0,0:0:0:70:21.wav
64,192,46825,1,2,0:0:0:0:
320,192,47270,1,8,0:0:0:0:
64,192,47714,1,2,0:0:0:0:
448,192,48158,1,8,0:0:0:0:
192,192,48603,1,2,0:0:0:0:
320,192,49047,1,8,0:0:0:0:
192,192,49492,1,2,0:0:0:0:
448,192,49936,1,8,0:0:0:0:
320,192,50381,1,2,0:0:0:0:
192,192,50825,1,8,0:0:0:0:
320,192,51270,1,2,0:0:0:0:
64,192,51714,1,8,0:0:0:0:
320,192,52158,1,2,0:0:0:0:
192,192,52492,1,2,0:0:0:0:
320,192,52825,1,2,0:0:0:0:
64,192,53047,1,0,0:0:0:0:
448,192,53047,1,8,0:0:0:0:
192,192,53381,1,8,0:0:0:0:
64,192,53714,1,8,0:0:0:0:
320,192,53936,1,0,0:0:0:0:
448,192,54381,1,0,0:0:0:70:23.wav
192,192,54825,1,0,0:0:0:70:24.wav
192,192,55270,1,0,0:0:0:70:25.wav
64,192,55714,1,0,0:0:0:70:26.wav
64,192,56158,1,0,0:0:0:0:
448,192,56603,1,0,0:0:0:0:
320,192,57047,1,0,0:0:0:0:
64,192,57492,1,4,0:0:0:0:
448,192,57492,1,2,0:0:0:0:
448,192,57936,1,8,0:0:0:0:
192,192,58158,1,2,0:0:0:0:
320,192,58603,1,2,0:0:0:0:
64,192,58825,1,8,0:0:0:0:
448,192,59270,1,2,0:0:0:0:
64,192,59714,1,8,0:0:0:0:
320,192,59936,1,2,0:0:0:0:
192,192,60381,1,2,0:0:0:0:
448,192,60603,1,8,0:0:0:0:
64,192,61047,1,2,0:0:0:0:
320,192,61492,1,8,0:0:0:0:
192,192,61714,1,2,0:0:0:0:
448,192,62158,1,2,0:0:0:0:
64,192,62381,1,8,0:0:0:0:
192,192,62603,1,2,0:0:0:0:
320,192,62603,1,4,0:0:0:0:
320,192,63270,1,8,0:0:0:0:
192,192,63714,1,8,0:0:0:0:
320,192,64158,1,8,0:0:0:0:
64,192,64603,1,2,0:0:0:0:
192,192,65047,1,8,0:0:0:0:
320,192,65270,1,2,0:0:0:0:
448,192,65714,1,2,0:0:0:0:
64,192,65936,1,8,0:0:0:0:
448,192,66381,1,2,0:0:0:0:
320,192,66825,1,8,0:0:0:0:
64,192,67047,1,2,0:0:0:0:
192,192,67492,1,2,0:0:0:0:
448,192,67714,1,8,0:0:0:0:
192,192,68158,1,2,0:0:0:0:
448,192,68603,1,8,0:0:0:0:
192,192,68825,1,2,0:0:0:0:
64,192,69270,1,8,0:0:0:0:
320,192,69492,1,8,0:0:0:0:
320,192,69936,1,12,0:0:0:0:
448,192,69936,1,0,0:0:0:70:27.wav
192,192,70381,1,4,0:0:0:0:
64,192,70381,1,8,0:0:0:0:
448,192,70825,1,0,0:0:0:70:28.wav
320,192,70825,1,12,0:0:0:0:
192,192,71270,1,4,0:0:0:0:
64,192,71270,1,8,0:0:0:0:
320,192,71714,1,2,0:0:0:0:
448,192,72158,1,8,0:0:0:0:
64,192,72381,1,2,0:0:0:0:
64,192,72825,1,2,0:0:0:0:
448,192,73047,1,8,0:0:0:0:
64,192,73492,1,2,0:0:0:0:
192,192,73936,1,8,0:0:0:0:
448,192,74158,1,2,0:0:0:0:
320,192,74603,1,2,0:0:0:0:
64,192,74825,1,8,0:0:0:0:
448,192,75270,1,2,0:0:0:0:
320,192,75714,1,8,0:0:0:0:
192,192,75936,1,2,0:0:0:0:
192,192,76381,1,2,0:0:0:0:
320,192,76603,1,8,0:0:0:0:
64,192,76825,1,2,0:0:0:0:
448,192,76825,1,4,0:0:0:0:
192,192,77270,1,2,0:0:0:0:
448,192,77492,1,8,0:0:0:0:
320,192,77936,1,8,0:0:0:0:
64,192,78158,1,2,0:0:0:0:
320,192,78381,1,8,0:0:0:0:
448,192,78825,1,2,0:0:0:0:
192,192,79270,1,8,0:0:0:0:
320,192,79492,1,2,0:0:0:0:
64,192,79936,1,2,0:0:0:0:
448,192,80158,1,8,0:0:0:0:
320,192,80603,1,0,0:0:0:70:30.wav
192,192,80603,1,6,0:0:0:0:
320,192,81047,128,0,82381:0:0:0:70:31.wav
192,192,81047,1,6,0:0:0:0:
192,192,82381,128,0,86455:0:0:0:0:
320,192,86455,1,0,0:0:0:0:
