osu file format v12

[General]
AudioFilename: Kokoro Connect ED 4.mp3
AudioLeadIn: 2000
PreviewTime: 41792
Countdown: 0
SampleSet: Soft
StackLeniency: 0.7
Mode: 0
LetterboxInBreaks: 0

[Editor]
DistanceSpacing: 0.9
BeatDivisor: 4
GridSize: 4

[Metadata]
Title:I Scream Chocolatl (TV Size)
TitleUnicode:I Scream Chocolatl (TV Size)
Artist:Team.Nekokan[Neko] feat. Lia
ArtistUnicode:Team.ねこかん[猫] feat. Lia
Creator:shARPII
Version:Hard
Source:Kokoro Connect
Tags:Team Nekokan ending nyanyannya sham Moway 0gre
BeatmapID:207511
BeatmapSetID:72123

[Difficulty]
HPDrainRate:6
CircleSize:4
OverallDifficulty:6
ApproachRate:6
SliderMultiplier:2
SliderTickRate:2

[Events]
//Background and Video events
0,0,"kokoro_connect2.jpg",0,0
Video,0,"ED4 video.avi"
//Break Periods
//Storyboard Layer 0 (Background)
//Storyboard Layer 1 (Fail)
//Storyboard Layer 2 (Pass)
//Storyboard Layer 3 (Foreground)
//Storyboard Sound Samples
//Background Colour Transformations
3,100,163,162,255

[TimingPoints]
434,666.666666666667,4,2,0,30,1,0
21767,-100,4,2,0,50,0,0
23767,-100,4,2,0,45,0,0
24100,-100,4,2,0,40,0,0
24434,-100,4,2,0,35,0,0
43100,-83.3333333333333,4,2,0,50,0,1
62934,-83.3333333333333,4,2,0,50,0,0
63767,-133.333333333333,4,2,0,20,0,1
64434,-90.9090909090909,4,2,0,40,0,1
67100,-90.9090909090909,4,2,0,40,0,0
75100,-100,4,2,0,40,0,0
85934,-100,4,2,0,5,0,0

[Colours]
Combo1 : 148,154,209
Combo2 : 254,169,209
Combo3 : 255,255,121

[HitObjects]
248,192,434,1,4,0:0:0:0:
328,192,767,1,0,0:0:0:0:
328,192,934,1,0,0:0:0:0:
328,192,1100,1,2,0:0:0:0:
376,128,1434,1,0,0:0:0:0:
400,56,1767,2,0,P|368:16|304:16,1,100,0|0,0:0|0:0,0:0:0:0:
322,9,2434,1,2,0:0:0:0:
240,24,2767,1,0,0:0:0:0:
168,64,3100,5,0,0:0:0:0:
92,132,3434,1,0,0:0:0:0:
168,196,3767,1,2,0:0:0:0:
244,132,4100,1,0,0:0:0:0:
168,64,4434,1,0,0:0:0:0:
72,228,5100,1,2,0:0:0:0:
196,252,5434,5,0,0:0:0:0:
224,264,5600,1,0,0:0:0:0:
256,280,5767,1,0,0:0:0:0:
352,312,6100,1,0,0:0:0:0:
372,276,6267,1,0,0:0:0:0:
392,240,6434,2,0,P|416:144|356:64,1,200,2|0,0:0|0:0,0:0:0:0:
276,64,7434,5,0,0:0:0:0:
236,64,7600,1,0,0:0:0:0:
196,64,7767,1,2,0:0:0:0:
116,64,8100,1,0,0:0:0:0:
72,224,8434,6,0,L|160:328,1,100,2|0,0:0|0:0,0:0:0:0:
256,192,9100,1,0,0:0:0:0:
404,132,9434,2,0,L|316:28,1,100,0|2,0:0|0:0,0:0:0:0:
256,192,10100,1,0,0:0:0:0:
372,304,10434,1,2,3:3:0:0:
488,188,10767,1,0,0:0:0:0:
476,148,10934,1,0,0:0:0:0:
460,112,11100,5,2,0:0:0:0:
348,64,11434,2,0,L|284:40,1,50
188,44,11934,2,0,L|124:64,1,50
24,168,12434,2,0,P|56:224|96:196,1,100,2|0,0:0|0:0,0:0:0:0:
196,172,13100,1,0,0:0:0:0:
156,328,13434,1,0,0:0:0:0:
312,352,13767,6,0,P|368:348|400:300,1,100,2|0,0:0|0:0,0:0:0:0:
348,200,14434,2,0,P|292:204|260:252,1,100,2|0,0:0|0:0,0:0:0:0:
328,276,14934,1,0,0:0:0:0:
400,308,15100,6,0,L|428:256,1,50,2|0,0:0|0:0,0:0:0:0:
460,244,15434,1,0,0:0:0:0:
468,48,15767,2,0,L|448:93,1,50,2|0,0:0|0:0,0:0:0:0:
412,112,16100,1,0,0:0:0:0:
344,44,16434,6,0,P|324:144|420:200,1,200
388,300,17434,1,0,0:0:0:0:
388,300,17600,1,0,0:0:0:0:
388,300,17767,1,0,0:0:0:0:
324,348,18100,1,0,0:0:0:0:
264,296,18434,1,2,0:0:0:0:
324,240,18767,1,0,0:0:0:0:
324,240,18934,1,0,0:0:0:0:
324,240,19100,5,0,0:0:0:0:
292,168,19434,1,0,0:0:0:0:
224,208,19767,1,2,0:0:0:0:
256,280,20100,1,0,0:0:0:0:
324,240,20434,5,0,0:0:0:0:
252,96,20767,1,0,0:0:0:0:
112,176,21100,1,2,0:0:0:0:
184,320,21434,1,0,0:0:0:0:
220,248,21600,1,0,0:0:0:0:
256,176,21767,5,4,0:0:0:0:
416,160,22100,1,0,0:0:0:0:
472,216,22267,1,2,0:0:0:0:
352,320,22600,1,0,0:0:0:0:
296,260,22767,1,2,0:0:0:0:
388,128,23100,5,0,0:0:0:0:
444,184,23267,1,0,0:0:0:0:
496,244,23434,1,2,0:0:0:0:
352,320,23767,1,2,0:0:0:0:
316,272,23934,1,0,0:0:0:0:
276,228,24100,1,0,0:0:0:0:
236,180,24267,1,0,0:0:0:0:
196,136,24434,5,4,0:0:0:0:
88,188,24767,2,0,P|64:252|68:292,1,100,0|2,0:0|0:0,0:0:0:0:
84,324,25267,1,0,0:0:0:0:
120,352,25434,1,0,0:0:0:0:
208,360,25767,1,0,0:0:0:0:
296,352,26100,5,0,0:0:0:0:
384,328,26434,1,2,0:0:0:0:
420,316,26600,2,0,L|476:288,1,50
448,204,27100,6,0,L|484:104,1,100,4|0,0:0|0:0,0:0:0:0:
460,76,27600,2,0,P|424:80|392:96,1,50
356,200,28100,1,0,0:0:0:0:
392,220,28267,1,0,0:0:0:0:
416,252,28434,2,0,P|436:304|412:348,2,100,2|0|0,0:0|0:0|0:0,0:0:0:0:
400,100,29434,1,0,0:0:0:0:
352,36,29600,1,0,0:0:0:0:
316,108,29767,5,2,0:0:0:0:
372,256,30100,1,0,0:0:0:0:
420,320,30267,1,0,0:0:0:0:
340,328,30434,1,2,0:0:0:0:
204,244,30767,1,0,0:0:0:0:
228,168,30934,1,0,0:0:0:0:
284,224,31100,5,4,0:0:0:0:
244,60,31434,2,0,L|136:60,1,100,0|2,0:0|0:0,0:0:0:0:
92,124,31934,2,0,L|100:228,1,100,0|2,0:0|0:0,0:0:0:0:
80,300,32434,5,4,0:0:0:0:
80,300,32767,2,0,P|144:292|164:260,1,100
92,124,33434,1,0,0:0:0:0:
216,128,33767,2,0,P|272:112|324:136,1,100,2|0,0:0|0:0,0:0:0:0:
264,192,34267,1,0,0:0:0:0:
310,259,34434,2,0,P|272:272|216:256,1,100,2|0,0:0|0:0,0:0:0:0:
312,44,35100,6,0,P|256:36|208:44,1,100,2|0,0:0|0:0,0:0:0:0:
176,52,35600,1,0,0:0:0:0:
136,64,35767,1,2,0:0:0:0:
216,196,36100,1,0,0:0:0:0:
148,152,36267,1,0,0:0:0:0:
220,116,36434,5,2,0:0:0:0:
164,268,36767,1,0,0:0:0:0:
128,340,36934,1,0,0:0:0:0:
208,336,37100,1,2,0:0:0:0:
288,204,37434,1,2,0:0:0:0:
372,332,37767,6,4,B|476:308|508:212|468:156,2,200,4|0|0,0:0|0:0|0:0,0:0:0:0:
64,56,39767,1,2,0:0:0:0:
72,136,40100,1,0,0:0:0:0:
88,180,40267,1,0,0:0:0:0:
112,216,40434,2,0,P|156:256|200:268,2,100
164,124,41434,1,0,0:0:0:0:
200,156,41600,1,0,0:0:0:0:
244,176,41767,1,0,0:0:0:0:
256,192,41934,12,4,43100,0:0:0:0:
368,224,43434,5,2,0:0:0:0:
324,264,43600,2,0,L|224:352,1,119.999996337891
152,324,44100,1,0,0:0:0:0:
112,288,44267,1,0,0:0:0:0:
72,252,44434,1,0,0:0:0:0:
152,324,44767,2,0,P|208:300|224:236,1,119.999996337891,0|2,0:0|0:0,0:0:0:0:
144,244,45267,2,0,P|172:184|232:168,1,119.999996337891
220,88,45767,5,2,0:0:0:0:
308,48,46100,1,0,0:0:0:0:
340,84,46267,1,2,0:0:0:0:
424,36,46600,1,0,0:0:0:0:
456,72,46767,2,0,P|484:120|484:188,1,119.999996337891,2|0,0:0|0:0,0:0:0:0:
404,272,47434,5,0,0:0:0:0:
404,272,47600,1,0,0:0:0:0:
404,272,47767,1,2,0:0:0:0:
288,300,48100,1,0,0:0:0:0:
288,300,48267,1,0,0:0:0:0:
288,300,48434,6,0,P|200:328|112:296,1,179.999994506836,4|2,0:0|0:0,0:0:0:0:
36,140,49434,1,0,0:0:0:0:
136,76,49767,1,0,0:0:0:0:
144,196,50100,1,0,0:0:0:0:
36,140,50434,1,2,0:0:0:0:
136,76,50767,2,0,L|160:136,1,59.9999981689454
180,188,51100,5,2,0:0:0:0:
256,64,51434,1,0,0:0:0:0:
256,124,51600,1,0,0:0:0:0:
256,184,51767,1,2,0:0:0:0:
376,76,52100,1,0,0:0:0:0:
356,132,52266,1,0,0:0:0:0:
332,188,52433,5,2,0:0:0:0:
432,252,52767,1,0,0:0:0:0:
460,296,52934,1,0,0:0:0:0:
440,348,53100,1,2,0:0:0:0:
388,360,53267,1,0,0:0:0:0:
344,328,53434,1,0,0:0:0:0:
340,276,53600,1,0,0:0:0:0:
380,240,53767,6,0,L|208:184|208:184,1,179.999994506836,4|0,0:0|0:0,0:0:0:0:
152,168,54434,1,2,0:0:0:0:
264,64,54767,1,0,0:0:0:0:
344,64,54934,1,0,0:0:0:0:
344,144,55100,1,0,0:0:0:0:
344,304,55434,1,0,0:0:0:0:
344,224,55600,1,0,0:0:0:0:
264,224,55767,1,2,0:0:0:0:
132,316,56100,1,0,0:0:0:0:
132,316,56267,1,0,0:0:0:0:
132,316,56434,6,0,L|88:260,1,59.9999981689454,4|0,0:0|0:0,0:0:0:0:
68,232,56767,1,0,0:0:0:0:
40,196,56934,1,0,0:0:0:0:
12,156,57100,2,0,L|52:104,1,59.9999981689454,4|0,0:0|0:0,0:0:0:0:
80,72,57434,1,0,0:0:0:0:
192,164,57767,1,4,0:0:0:0:
196,20,58100,1,0,0:0:0:0:
340,24,58434,6,0,P|400:40|432:100,2,119.999996337891,2|0|2,0:0|0:0|0:0,0:0:0:0:
336,120,59434,2,0,L|296:176,2,59.9999981689454,0|0|2,0:0|0:0|0:0,0:0:0:0:
432,116,60100,1,0,0:0:0:0:
432,156,60267,1,0,0:0:0:0:
432,196,60434,1,2,0:0:0:0:
432,292,60767,6,0,L|432:360,2,59.9999981689454,0|0|2,0:0|0:0|0:0,0:0:0:0:
400,176,61434,1,0,0:0:0:0:
348,148,61600,1,0,0:0:0:0:
292,124,61767,6,0,L|292:64,1,59.9999981689454,2|0,0:0|0:0,0:0:0:0:
216,132,62100,2,0,L|216:196,1,59.9999981689454,2|0,0:0|0:0,0:0:0:0:
140,128,62434,2,0,L|140:52,1,59.9999981689454,2|0,0:0|0:0,0:0:0:0:
60,128,62767,1,2,0:0:0:0:
60,128,62934,1,2,0:0:0:0:
124,256,63434,5,0,0:0:0:0:
124,256,63767,2,0,P|180:300|256:284,1,150.000005722046,0|4,0:0|0:0,0:0:0:0:
400,328,64767,1,0,0:0:0:0:
488,200,65100,1,2,0:0:0:0:
332,176,65434,1,0,0:0:0:0:
331,224,65600,1,0,0:0:0:0:
328,272,65767,5,0,0:0:0:0:
336,96,66100,1,0,0:0:0:0:
192,168,66434,1,2,0:0:0:0:
56,252,66767,1,0,0:0:0:0:
104,176,67100,5,0,0:0:0:0:
180,284,67434,1,0,0:0:0:0:
216,308,67600,1,0,0:0:0:0:
260,316,67767,1,2,0:0:0:0:
368,236,68100,1,0,0:0:0:0:
344,104,68434,5,2,0:0:0:0:
240,188,68768,1,0,0:0:0:0:
208,60,69101,1,2,0:0:0:0:
160,72,69267,1,0,0:0:0:0:
120,96,69434,1,0,0:0:0:0:
84,132,69600,1,0,0:0:0:0:
52,172,69767,6,0,P|28:224|32:288,2,110.000003356934,4|0|2,0:0|0:0|0:0,0:0:0:0:
112,236,70767,1,0,0:0:0:0:
172,300,71100,2,0,P|196:248|192:184,2,110.000003356934,4|0|2,0:0|0:0|0:0,0:0:0:0:
112,236,72100,1,0,0:0:0:0:
40,152,72434,5,4,0:0:0:0:
148,152,72767,2,0,L|240:152,1,55.0000016784668,0|2,0:0|0:0,0:0:0:0:
368,152,73267,2,0,L|308:152,1,55.0000016784668,0|2,0:0|0:0,0:0:0:0:
256,220,73767,1,0,0:0:0:0:
256,84,74100,1,0,0:0:0:0:
200,296,74434,5,2,0:0:0:0:
236,316,74600,1,0,0:0:0:0:
276,324,74767,1,0,0:0:0:0:
316,320,74934,1,0,0:0:0:0:
356,312,75100,6,0,B|448:284|480:228|480:164,1,200,4|2,0:0|0:0,0:0:0:0:
400,156,76100,1,0,0:0:0:0:
400,156,76267,1,0,0:0:0:0:
400,156,76434,6,0,B|400:208|344:252|220:236,1,200,0|2,0:0|0:0,0:0:0:0:
260,160,77434,1,0,0:0:0:0:
320,108,77767,5,0,0:0:0:0:
260,160,78100,1,0,0:0:0:0:
248,80,78434,1,2,0:0:0:0:
180,44,78767,1,0,0:0:0:0:
140,52,78934,1,0,0:0:0:0:
104,68,79100,1,0,0:0:0:0:
60,136,79434,1,0,0:0:0:0:
96,208,79767,1,2,0:0:0:0:
176,208,80100,1,0,0:0:0:0:
256,192,80434,5,2,0:0:0:0:
304,128,80767,1,0,0:0:0:0:
352,64,81100,1,2,0:0:0:0:
216,256,81434,1,0,0:0:0:0:
168,320,81767,1,2,0:0:0:0:
192,152,82100,5,0,0:0:0:0:
128,104,82434,1,2,0:0:0:0:
320,232,82767,1,0,0:0:0:0:
384,284,83100,2,0,L|448:240,2,50,2|0|0,0:0|0:0|0:0,0:0:0:0:
444,136,83767,1,2,0:0:0:0:
296,72,84100,5,0,0:0:0:0:
284,120,84267,1,0,0:0:0:0:
244,152,84434,1,2,0:0:0:0:
196,148,84600,1,0,0:0:0:0:
152,128,84767,1,0,3:3:0:0:
296,272,85100,6,0,L|312:316,3,33.3333333333333
256,192,85767,12,0,87767,0:0:0:0:
