osu file format v12

[General]
AudioFilename: Kokoro Connect ED 4.mp3
AudioLeadIn: 2000
PreviewTime: 41792
Countdown: 0
SampleSet: Soft
StackLeniency: 0.4
Mode: 0
LetterboxInBreaks: 0

[Editor]
DistanceSpacing: 0.8
BeatDivisor: 4
GridSize: 4

[Metadata]
Title:I Scream Chocolatl (TV Size)
TitleUnicode:I Scream Chocolatl (TV Size)
Artist:Team.Nekokan[Neko] feat. Lia
ArtistUnicode:Team.ねこかん[猫] feat. Lia
Creator:shARPII
Version:Easy
Source:Kokoro Connect
Tags:Team Nekokan ending nyanyannya sham Moway 0gre
BeatmapID:207510
BeatmapSetID:72123

[Difficulty]
HPDrainRate:2
CircleSize:2
OverallDifficulty:2
ApproachRate:2
SliderMultiplier:1.4
SliderTickRate:2

[Events]
//Background and Video events
0,0,"kokoro_connect2.jpg",0,0
Video,0,"ED4 video.avi"
//Break Periods
//Storyboard Layer 0 (Background)
//Storyboard Layer 1 (Fail)
//Storyboard Layer 2 (Pass)
//Storyboard Layer 3 (Foreground)
//Storyboard Sound Samples
//Background Colour Transformations
3,100,163,162,255

[TimingPoints]
434,666.666666666667,4,2,0,50,1,0
434,-100,4,2,0,30,0,0
21767,-100,4,2,0,50,0,0
24267,-100,4,2,0,35,0,0
41100,-100,4,2,0,40,0,0
42434,-100,4,1,0,45,0,0
43100,-100,4,2,0,50,0,1
62934,-100,4,2,0,50,0,0
64434,-100,4,2,0,40,0,1
67100,-100,4,2,0,40,0,0
85767,-100,4,2,0,5,0,0

[Colours]
Combo1 : 148,154,209
Combo2 : 254,169,175
Combo3 : 255,255,121

[HitObjects]
256,192,434,1,4,0:0:0:0:
168,124,1100,1,2,0:0:0:0:
80,56,1767,2,0,P|24:168|96:324,1,280,0|0,0:0|0:0,0:0:0:0:
184,336,3767,5,2,0:0:0:0:
284,284,4434,1,0,0:0:0:0:
344,188,5100,1,2,0:0:0:0:
448,148,5767,6,0,P|400:92|324:84,1,140,0|2,0:0|0:0,0:0:0:0:
224,84,7100,1,0,0:0:0:0:
112,84,7767,1,2,0:0:0:0:
168,184,8434,5,0,0:0:0:0:
368,280,9767,2,0,P|440:232|448:160,2,140,0|2|4,0:0|0:0|0:0,0:0:0:0:
344,172,11767,5,2,0:0:0:0:
256,104,12434,1,0,0:0:0:0:
168,172,13100,1,2,0:0:0:0:
92,256,13767,6,0,B|204:312|268:208|380:264,2,280,0|2|0,0:0|0:0|0:0,0:0:0:0:
88,144,17100,1,2,0:0:0:0:
168,228,17767,1,0,0:0:0:0:
248,152,18434,1,2,0:0:0:0:
168,68,19100,6,0,P|240:36|324:64,1,140,0|2,0:0|0:0,0:0:0:0:
396,104,20434,1,0,0:0:0:0:
416,156,20767,1,0,0:0:0:0:
396,208,21100,1,2,0:0:0:0:
284,208,21767,6,0,L|180:208,2,105,4|0|0,0:0|0:0|0:0,0:0:0:0:
340,208,23100,2,0,P|368:144|332:64,1,140,0|2,0:0|0:0,0:0:0:0:
236,80,24434,5,4,0:0:0:0:
348,80,25100,1,2,0:0:0:0:
460,80,25767,1,0,0:0:0:0:
460,192,26434,2,0,P|420:248|344:252,1,140,2|4,0:0|0:0,0:0:0:0:
244,240,27767,5,2,0:0:0:0:
148,180,28434,1,0,0:0:0:0:
248,132,29100,1,2,0:0:0:0:
352,92,29767,6,0,P|412:140|416:212,1,140,0|2,0:0|0:0,0:0:0:0:
396,308,31100,1,0,0:0:0:0:
284,288,31767,1,2,0:0:0:0:
172,288,32434,6,0,P|112:256|112:160,1,140,0|2,0:0|0:0,0:0:0:0:
212,188,33767,2,0,P|280:168|300:84,1,140,0|2,0:0|0:0,0:0:0:0:
416,108,35100,6,0,P|460:164|468:240,1,140,0|2,0:0|0:0,0:0:0:0:
380,300,36434,1,0,0:0:0:0:
352,252,36767,1,0,0:0:0:0:
312,212,37100,1,2,0:0:0:0:
204,216,37767,6,0,P|212:76|300:120,1,280,4|0,0:0|0:0,0:0:0:0:
408,100,39767,1,2,0:0:0:0:
420,156,40100,1,0,0:0:0:0:
412,212,40434,1,0,0:0:0:0:
332,292,41100,1,0,0:0:0:0:
252,212,41767,5,4,0:0:0:0:
216,108,42434,1,0,0:0:0:0:
168,80,42767,1,0,0:0:0:0:
112,76,43100,6,0,P|0:164|56:276,1,280,4|0,0:0|0:0,0:0:0:0:
112,180,45100,1,2,0:0:0:0:
48,272,45767,5,0,0:0:0:0:
160,288,46434,1,2,0:0:0:0:
268,260,47100,1,0,3:3:0:0:
328,164,47767,1,2,0:0:0:0:
292,60,48434,6,0,B|228:60|228:124|228:124|164:124|164:192|164:192|96:192|96:260|96:328|28:328,1,420,0|2,0:0|0:0,0:0:0:0:
168,328,51100,2,0,L|316:328,1,140,0|2,0:0|0:0,0:0:0:0:
416,296,52434,1,2,0:0:0:0:
472,192,53100,1,2,0:0:0:0:
420,92,53767,5,4,0:0:0:0:
312,48,54434,1,2,0:0:0:0:
256,32,54767,1,0,0:0:0:0:
200,48,55100,1,0,0:0:0:0:
96,96,55767,1,2,0:0:0:0:
152,192,56434,6,0,P|236:172|300:196,1,140,4|2,0:0|0:0,0:0:0:0:
228,276,57767,2,0,P|296:296|376:256,1,140,0|2,0:0|0:0,0:0:0:0:
440,200,59100,6,0,P|440:120|384:80,1,140,4|2,0:0|0:0,0:0:0:0:
328,172,60434,2,0,P|268:180|200:144,1,140,0|2,0:0|0:0,0:0:0:0:
256,48,61767,5,4,0:0:0:0:
144,48,62434,2,0,P|108:84|96:144,1,105,2|0,0:0|0:0,0:0:0:0:
124,272,63767,1,2,0:0:0:0:
228,316,64434,6,0,P|320:316|384:292,1,140,4|2,0:0|0:0,0:0:0:0:
464,248,65767,1,0,0:0:0:0:
404,152,66434,1,2,0:0:0:0:
312,88,67100,2,0,P|176:48|48:112,2,280,2|2|0,0:0|0:0|3:3,0:0:0:0:
412,136,70434,5,2,0:0:0:0:
348,228,71100,1,0,0:0:0:0:
240,260,71767,1,2,0:0:0:0:
132,228,72434,6,0,P|84:168|104:100,1,140,0|2,0:0|0:0,0:0:0:0:
196,60,73767,1,0,0:0:0:0:
304,96,74434,1,2,0:0:0:0:
268,200,75100,6,0,P|200:184|140:136,1,140,4|2,0:0|0:0,0:0:0:0:
64,64,76434,2,0,P|28:140|36:208,1,140,0|2,0:0|0:0,0:0:0:0:
96,288,77767,5,2,0:0:0:0:
208,288,78434,1,2,0:0:0:0:
320,288,79100,1,2,0:0:0:0:
432,288,79767,1,2,0:0:0:0:
432,176,80434,6,0,B|364:88|364:88|188:88,1,280
84,88,82434,1,2,0:0:0:0:
84,200,83100,6,0,B|152:288|152:288|324:288,1,280
432,288,85100,1,2,0:0:0:0:
256,192,85767,12,0,87767,0:0:0:0:
